osu file format v14

[General]
AudioFilename: audio.mp3
AudioLeadIn: 0
PreviewTime: 125932
Countdown: 0
SampleSet: Soft
StackLeniency: 0.7
Mode: 3
LetterboxInBreaks: 0
SpecialStyle: 0
WidescreenStoryboard: 0

[Editor]
DistanceSpacing: 0.8
BeatDivisor: 4
GridSize: 32
TimelineZoom: 1.5

[Metadata]
Title:Daemonisch
TitleUnicode:デモーニッシュ
Artist:TUYU
ArtistUnicode:ツユ
Creator:deta5859
Version:Contract
Source:
Tags:FAMoss _Rokii Yukari_Sama atian540 貴方を不幸に誘いますね ぷす Pusu 礼衣 Rei あじゅん AzyuN おむたつ Omutatsu dämonisch demonish Japanese Rock J-Rock Jrock J-Pop Jpop Pop I'll put you in misery TUYU-0002 Tsuyu
BeatmapID:2970635
BeatmapSetID:1444121

[Difficulty]
HPDrainRate:8
CircleSize:4
OverallDifficulty:8.5
ApproachRate:5
SliderMultiplier:1.4
SliderTickRate:1

[Events]
//Background and Video events
0,0,"demonish.jpg",0,0
//Break Periods
//Storyboard Layer 0 (Background)
//Storyboard Layer 1 (Fail)
//Storyboard Layer 2 (Pass)
//Storyboard Layer 3 (Foreground)
//Storyboard Layer 4 (Overlay)
//Storyboard Sound Samples
Sample,39454,0,"snare.wav",60
Sample,41254,0,"snare.wav",60
Sample,41554,0,"snare.wav",60
Sample,41854,0,"snare.wav",60
Sample,76065,0,"ClapHand.wav",60
Sample,95482,0,"snare.wav",60
Sample,95782,0,"snare.wav",60
Sample,96082,0,"snare.wav",60
Sample,129682,0,"snare.wav",60
Sample,142357,0,"snare.wav",70

[TimingPoints]
76,428.571428571429,4,2,1,80,1,0
76,-70.4225352112676,4,2,1,80,0,0
3504,333.333333333334,4,2,1,80,1,0
3504,-90.0900900900901,4,2,1,80,0,0
25504,300,4,2,1,80,1,1
49504,-100,4,2,1,80,0,0
54304,428.571428571429,4,2,1,80,1,0
54304,-70.4225352112676,4,2,1,80,0,0
57732,333.333333333334,4,2,1,80,1,0
57732,-90.0900900900901,4,2,1,80,0,0
79732,300.000000000001,4,2,1,80,1,1
103732,-100,4,2,1,80,0,0
113932,300.000000000001,4,2,1,80,1,0
125932,-100,4,2,1,80,0,1
157132,-100,4,2,1,80,0,0

[HitObjects]
192,192,76,128,0,290:0:0:0:0:
448,192,76,128,0,933:0:0:0:0:
64,192,290,128,0,504:0:0:0:0:
320,192,504,128,0,718:0:0:0:0:
192,192,718,128,0,933:0:0:0:0:
64,192,933,128,0,1147:0:0:0:0:
320,192,933,128,0,1361:0:0:0:0:
448,192,1147,128,0,1361:0:0:0:0:
64,192,1361,128,0,1576:0:0:0:0:
192,192,1361,128,0,1790:0:0:0:0:
448,192,1576,128,0,1790:0:0:0:0:
64,192,1790,128,0,2218:0:0:0:0:
320,192,1790,128,0,2004:0:0:0:0:
192,192,2004,128,0,2218:0:0:0:0:
320,192,2218,128,0,2433:0:0:0:0:
448,192,2218,128,0,2647:0:0:0:0:
64,192,2433,128,0,2647:0:0:0:0:
192,192,2647,128,0,3076:0:0:0:0:
320,192,2647,128,0,2861:0:0:0:0:
448,192,2861,128,0,2968:0:0:0:0:
64,192,2968,128,0,3076:0:0:0:0:
448,192,3076,128,0,3183:0:0:0:0:
320,192,3183,128,0,3290:0:0:0:0:
192,192,3290,128,0,3397:0:0:0:0:
64,192,3397,128,0,3504:0:0:0:0:
320,192,3504,128,2,3670:0:0:0:0:
448,192,3504,1,0,0:0:0:0:
64,192,3670,128,0,3837:0:0:0:0:
320,192,3837,1,2,0:0:0:0:
448,192,3837,128,0,4004:0:0:0:0:
192,192,4004,128,0,4170:0:0:0:0:
64,192,4170,128,2,4337:0:0:0:0:
320,192,4170,1,0,0:0:0:0:
448,192,4337,128,0,4670:0:0:0:0:
64,192,4504,1,2,0:0:0:0:
192,192,4504,1,0,0:0:0:0:
320,192,4670,128,0,4837:0:0:0:0:
64,192,4837,1,2,0:0:0:0:
448,192,4837,1,0,0:0:0:0:
192,192,5004,128,0,5170:0:0:0:0:
64,192,5170,128,2,5337:0:0:0:0:
320,192,5170,1,0,0:0:0:0:
448,192,5337,128,0,5504:0:0:0:0:
64,192,5504,1,2,0:0:0:0:
320,192,5504,128,0,5670:0:0:0:0:
192,192,5670,128,0,5837:0:0:0:0:
64,192,5837,1,2,0:0:0:0:
448,192,5837,1,0,0:0:0:0:
320,192,6004,128,0,6170:0:0:0:0:
64,192,6170,1,2,0:0:0:0:
448,192,6170,128,0,6337:0:0:0:0:
192,192,6337,128,0,6504:0:0:0:0:
64,192,6504,128,2,6670:0:0:0:0:
448,192,6504,1,0,0:0:0:0:
320,192,6670,128,0,7004:0:0:0:0:
64,192,6837,1,2,0:0:0:0:
192,192,6837,1,0,0:0:0:0:
448,192,7004,128,0,7170:0:0:0:0:
64,192,7170,1,2,0:0:0:0:
192,192,7170,1,0,0:0:0:0:
320,192,7337,128,0,7504:0:0:0:0:
64,192,7504,1,2,0:0:0:0:
448,192,7504,128,0,7670:0:0:0:0:
192,192,7670,128,0,7837:0:0:0:0:
320,192,7837,128,2,8004:0:0:0:0:
448,192,7837,1,0,0:0:0:0:
64,192,8004,128,0,8170:0:0:0:0:
192,192,8170,128,2,8337:0:0:0:0:
320,192,8170,1,0,0:0:0:0:
448,192,8337,128,0,8504:0:0:0:0:
64,192,8504,1,2,0:0:0:0:
192,192,8504,1,0,0:0:0:0:
320,192,8670,128,0,8837:0:0:0:0:
64,192,8837,128,2,9170:0:0:0:0:
448,192,8837,1,0,0:0:0:0:
192,192,9170,1,2,0:0:0:0:
448,192,9170,128,0,9337:0:0:0:0:
320,192,9337,128,0,9504:0:0:0:0:
192,192,9504,128,2,9670:0:0:0:0:
448,192,9504,1,0,0:0:0:0:
64,192,9670,128,0,9837:0:0:0:0:
320,192,9837,1,2,0:0:0:0:
448,192,9837,1,0,0:0:0:0:
192,192,10004,128,0,10337:0:0:0:0:
320,192,10170,1,2,0:0:0:0:
448,192,10170,1,0,0:0:0:0:
64,192,10337,128,0,10504:0:0:0:0:
192,192,10504,1,2,0:0:0:0:
320,192,10504,128,0,10670:0:0:0:0:
448,192,10670,128,0,10837:0:0:0:0:
64,192,10837,1,2,0:0:0:0:
192,192,10837,128,0,11004:0:0:0:0:
64,192,11004,128,0,11170:0:0:0:0:
320,192,11170,128,2,11337:0:0:0:0:
448,192,11170,1,0,0:0:0:0:
448,192,11337,128,0,11504:0:0:0:0:
64,192,11504,128,2,12170:0:0:0:0:
192,192,11504,1,0,0:0:0:0:
320,192,11837,1,8,0:0:0:0:
448,192,11837,1,0,0:0:0:60:snare.wav
192,192,12004,1,2,0:0:0:0:
448,192,12170,128,0,12504:0:0:0:0:
320,192,12337,1,2,0:0:0:0:
64,192,12504,128,8,12837:0:0:0:0:
192,192,12504,1,0,0:0:0:60:snare.wav
320,192,12504,1,0,0:0:0:0:
320,192,12837,1,2,0:0:0:0:
448,192,12837,1,0,0:0:0:0:
64,192,13004,1,2,0:0:0:0:
192,192,13004,1,0,0:0:0:0:
320,192,13087,1,2,0:0:0:0:
448,192,13087,1,0,0:0:0:0:
64,192,13170,1,8,0:0:0:0:
192,192,13170,1,0,0:0:0:60:snare.wav
448,192,13170,1,0,0:0:0:0:
192,192,13337,1,2,0:0:0:0:
320,192,13337,1,0,0:0:0:0:
64,192,13504,1,8,0:0:0:0:
320,192,13504,1,0,0:0:0:60:snare.wav
448,192,13504,1,0,0:0:0:0:
192,192,13670,1,2,0:0:0:0:
320,192,13670,1,0,0:0:0:0:
64,192,13837,1,8,0:0:0:0:
192,192,13837,1,0,0:0:0:60:snare.wav
448,192,13837,1,0,0:0:0:0:
320,192,14004,1,2,0:0:0:0:
448,192,14004,1,0,0:0:0:0:
64,192,14087,1,2,0:0:0:0:
192,192,14087,1,0,0:0:0:0:
64,192,14170,1,2,0:0:0:0:
320,192,14170,1,4,0:0:0:0:
448,192,14170,128,0,14337:0:0:0:0:
192,192,14337,128,0,14504:0:0:0:0:
64,192,14504,128,2,14670:0:0:0:0:
448,192,14504,1,0,0:0:0:70:ClapHand.wav
320,192,14670,128,0,14837:0:0:0:0:
64,192,14837,1,2,0:0:0:0:
192,192,14837,128,0,15004:0:0:0:0:
448,192,15004,128,0,15170:0:0:0:0:
64,192,15170,1,2,0:0:0:0:
192,192,15170,1,0,0:0:0:70:ClapHand.wav
320,192,15337,128,0,15670:0:0:0:0:
64,192,15504,1,2,0:0:0:0:
448,192,15504,1,0,0:0:0:0:
192,192,15670,128,0,15837:0:0:0:0:
64,192,15837,128,2,16004:0:0:0:0:
320,192,15837,1,0,0:0:0:70:ClapHand.wav
448,192,16004,128,0,16170:0:0:0:0:
192,192,16170,1,2,0:0:0:0:
320,192,16170,128,0,16337:0:0:0:0:
64,192,16337,128,0,16504:0:0:0:0:
320,192,16504,1,2,0:0:0:0:
448,192,16504,1,0,0:0:0:60:ClapHand.wav
192,192,16670,128,0,16837:0:0:0:0:
320,192,16837,128,2,17004:0:0:0:0:
448,192,16837,1,0,0:0:0:0:
64,192,17004,128,0,17170:0:0:0:0:
192,192,17170,128,2,17337:0:0:0:0:
448,192,17170,1,0,0:0:0:60:ClapHand.wav
320,192,17337,128,0,17670:0:0:0:0:
64,192,17504,1,2,0:0:0:0:
448,192,17504,1,0,0:0:0:0:
192,192,17670,128,0,18004:0:0:0:0:
320,192,17837,1,2,0:0:0:0:
448,192,17837,1,0,0:0:0:60:ClapHand.wav
64,192,18004,128,0,18170:0:0:0:0:
320,192,18170,128,2,18337:0:0:0:0:
448,192,18170,1,0,0:0:0:0:
192,192,18337,128,0,18504:0:0:0:0:
64,192,18504,1,2,0:0:0:0:
448,192,18504,128,0,18670:0:0:0:60:ClapHand.wav
320,192,18670,128,0,18754:0:0:0:0:
192,192,18754,128,0,18837:0:0:0:0:
64,192,18837,128,2,19004:0:0:0:0:
448,192,18837,1,0,0:0:0:0:
448,192,19004,128,0,19170:0:0:0:0:
192,192,19170,1,2,0:0:0:0:
320,192,19170,1,0,0:0:0:60:ClapHand.wav
64,192,19337,128,0,19504:0:0:0:0:
192,192,19504,1,2,0:0:0:0:
320,192,19504,1,4,0:0:0:0:
448,192,19504,128,0,19837:0:0:0:0:
192,192,19837,128,2,20004:0:0:0:0:
320,192,19837,1,0,0:0:0:60:ClapHand.wav
64,192,20004,128,0,20170:0:0:0:0:
320,192,20170,1,2,0:0:0:0:
448,192,20170,128,0,20337:0:0:0:0:
192,192,20337,128,0,20670:0:0:0:0:
64,192,20504,1,2,0:0:0:0:
320,192,20504,1,0,0:0:0:60:ClapHand.wav
448,192,20670,128,0,21004:0:0:0:0:
192,192,20837,1,2,0:0:0:0:
320,192,20837,1,0,0:0:0:0:
64,192,21004,128,0,21170:0:0:0:0:
192,192,21170,128,2,21337:0:0:0:0:
448,192,21170,1,0,0:0:0:60:ClapHand.wav
320,192,21337,128,0,21504:0:0:0:0:
448,192,21420,1,0,0:0:0:0:
64,192,21504,128,2,21670:0:0:0:0:
192,192,21504,1,0,0:0:0:0:
448,192,21670,128,0,21837:0:0:0:0:
320,192,21754,1,0,0:0:0:0:
64,192,21837,1,2,0:0:0:0:
192,192,21837,128,0,22004:0:0:0:60:ClapHand.wav
320,192,22004,128,0,22170:0:0:0:0:
64,192,22170,1,2,0:0:0:0:
192,192,22170,1,4,0:0:0:0:
448,192,22170,128,0,22837:0:0:0:0:
192,192,22504,1,8,0:0:0:0:
320,192,22504,1,0,0:0:0:60:snare.wav
64,192,22670,1,2,0:0:0:0:
192,192,22837,128,0,23170:0:0:0:0:
320,192,23004,1,2,0:0:0:0:
64,192,23170,128,8,23504:0:0:0:0:
448,192,23170,1,0,0:0:0:60:snare.wav
192,192,23504,1,2,0:0:0:0:
320,192,23504,1,4,0:0:0:0:
448,192,23504,1,0,0:0:0:0:
64,192,23670,1,2,0:0:0:0:
192,192,23670,1,0,0:0:0:0:
320,192,23754,1,2,0:0:0:0:
448,192,23754,1,0,0:0:0:0:
64,192,23837,1,8,0:0:0:0:
192,192,23837,1,0,0:0:0:60:snare.wav
448,192,23837,1,0,0:0:0:0:
320,192,24004,1,2,0:0:0:0:
448,192,24004,1,0,0:0:0:0:
64,192,24087,1,2,0:0:0:0:
192,192,24087,1,0,0:0:0:0:
64,192,24170,1,8,0:0:0:0:
320,192,24170,1,0,0:0:0:60:snare.wav
448,192,24170,1,0,0:0:0:0:
64,192,24337,1,2,0:0:0:0:
192,192,24337,1,0,0:0:0:0:
320,192,24420,1,2,0:0:0:0:
64,192,24504,1,8,0:0:0:0:
192,192,24504,1,0,0:0:0:60:snare.wav
448,192,24504,1,0,0:0:0:0:
320,192,24587,1,2,0:0:0:0:
64,192,24670,1,2,0:0:0:0:
192,192,24670,1,0,0:0:0:0:
320,192,24754,1,2,0:0:0:0:
448,192,24754,1,0,0:0:0:0:
64,192,25504,128,2,25954:0:0:0:0:
320,192,25504,1,4,0:0:0:0:
448,192,25504,1,0,0:0:0:0:
192,192,25804,1,10,0:0:0:0:
320,192,25804,1,0,0:0:0:60:snare.wav
448,192,25954,128,0,26104:0:0:0:0:
192,192,26104,1,2,0:0:0:0:
320,192,26104,1,0,0:0:0:0:
64,192,26254,128,0,26404:0:0:0:0:
192,192,26404,1,8,0:0:0:0:
320,192,26404,128,2,26554:0:0:0:0:
448,192,26404,1,0,0:0:0:60:snare.wav
192,192,26554,128,0,26704:0:0:0:0:
64,192,26704,1,2,0:0:0:0:
448,192,26704,128,0,27004:0:0:0:0:
64,192,27004,128,8,27229:0:0:0:0:
192,192,27004,1,2,0:0:0:0:
320,192,27004,1,0,0:0:0:60:snare.wav
320,192,27229,128,0,27304:0:0:0:0:
192,192,27304,1,2,0:0:0:0:
448,192,27304,128,0,27604:0:0:0:0:
64,192,27604,1,8,0:0:0:0:
192,192,27604,1,2,0:0:0:0:
320,192,27604,128,0,27754:0:0:0:60:snare.wav
64,192,27754,128,0,27904:0:0:0:0:
320,192,27904,1,2,0:0:0:0:
448,192,27904,128,0,28054:0:0:0:0:
192,192,28054,128,0,28204:0:0:0:0:
64,192,28204,128,8,28354:0:0:0:0:
320,192,28204,1,2,0:0:0:0:
448,192,28204,1,0,0:0:0:60:snare.wav
320,192,28354,128,0,28504:0:0:0:0:
64,192,28504,1,2,0:0:0:0:
448,192,28504,128,0,28654:0:0:0:0:
64,192,28804,128,8,28954:0:0:0:0:
192,192,28804,1,2,0:0:0:0:
320,192,28804,1,0,0:0:0:60:snare.wav
448,192,28954,128,0,29104:0:0:0:0:
64,192,29104,1,2,0:0:0:0:
192,192,29104,1,0,0:0:0:0:
320,192,29254,128,0,29404:0:0:0:0:
64,192,29404,128,8,29554:0:0:0:0:
192,192,29404,1,2,0:0:0:0:
448,192,29404,1,0,0:0:0:60:snare.wav
448,192,29554,128,0,29704:0:0:0:0:
192,192,29704,128,2,29854:0:0:0:0:
320,192,29704,1,0,0:0:0:0:
64,192,30004,1,8,0:0:0:0:
320,192,30004,1,2,0:0:0:0:
448,192,30004,128,0,30304:0:0:0:60:snare.wav
64,192,30304,128,2,30604:0:0:0:0:
192,192,30304,1,0,0:0:0:0:
192,192,30604,1,8,0:0:0:0:
320,192,30604,128,2,30904:0:0:0:0:
448,192,30604,1,0,0:0:0:60:snare.wav
64,192,30904,128,2,31204:0:0:0:0:
448,192,30904,1,0,0:0:0:0:
192,192,31204,1,8,0:0:0:0:
320,192,31204,128,2,31504:0:0:0:0:
448,192,31204,1,0,0:0:0:60:snare.wav
64,192,31504,128,2,31804:0:0:0:0:
448,192,31504,1,0,0:0:0:0:
192,192,31804,1,2,0:0:0:0:
320,192,31804,1,8,0:0:0:0:
448,192,31804,128,0,32104:0:0:0:60:snare.wav
64,192,32104,128,2,32404:0:0:0:0:
192,192,32104,1,0,0:0:0:0:
192,192,32404,1,8,0:0:0:0:
320,192,32404,1,2,0:0:0:0:
448,192,32404,128,0,32704:0:0:0:60:snare.wav
64,192,32704,128,2,33004:0:0:0:0:
320,192,32704,1,0,0:0:0:0:
448,192,32854,1,0,0:0:0:0:
192,192,33004,1,2,0:0:0:0:
320,192,33004,1,8,0:0:0:0:
448,192,33004,1,0,0:0:0:60:snare.wav
64,192,33154,128,0,33304:0:0:0:0:
320,192,33304,128,2,33604:0:0:0:0:
192,192,33304,1,0,0:0:0:0:
64,192,33454,1,0,0:0:0:0:
64,192,33604,1,8,0:0:0:0:
192,192,33604,1,2,0:0:0:0:
448,192,33604,1,0,0:0:0:60:snare.wav
320,192,33754,128,0,33904:0:0:0:0:
448,192,33904,1,2,0:0:0:0:
64,192,33904,128,0,34204:0:0:0:0:
192,192,34054,1,0,0:0:0:0:
448,192,34204,1,10,0:0:0:0:
320,192,34204,1,0,0:0:0:60:snare.wav
192,192,34354,1,0,0:0:0:0:
64,192,34504,128,2,34604:0:0:0:0:
448,192,34504,1,0,0:0:0:0:
192,192,34604,128,0,34704:0:0:0:0:
320,192,34704,128,0,34804:0:0:0:0:
64,192,34804,1,8,0:0:0:0:
192,192,34804,1,2,0:0:0:0:
448,192,34804,128,0,34904:0:0:0:60:snare.wav
320,192,34904,128,0,35004:0:0:0:0:
192,192,35004,128,0,35104:0:0:0:0:
64,192,35104,128,2,35404:0:0:0:0:
448,192,35104,1,0,0:0:0:0:
192,192,35404,1,2,0:0:0:0:
320,192,35404,128,8,35704:0:0:0:0:
448,192,35404,1,0,0:0:0:60:snare.wav
64,192,35704,1,2,0:0:0:0:
448,192,35704,128,0,36004:0:0:0:0:
64,192,36004,1,8,0:0:0:0:
192,192,36004,128,2,36304:0:0:0:0:
320,192,36004,1,0,0:0:0:60:snare.wav
64,192,36304,128,2,36454:0:0:0:0:
320,192,36304,128,0,36454:0:0:0:0:
448,192,36304,128,0,36454:0:0:0:0:
64,192,36604,128,2,36904:0:0:0:0:
320,192,36604,128,0,36904:0:0:0:70:snare.wav
448,192,36604,128,0,36904:0:0:0:0:
192,192,36904,128,0,37354:0:0:0:0:
320,192,37054,128,0,37354:0:0:0:0:
64,192,37354,128,0,37504:0:0:0:0:
192,192,37504,1,2,0:0:0:0:
320,192,37504,1,4,0:0:0:0:
448,192,37504,1,0,0:0:0:0:
64,192,37654,1,2,0:0:0:0:
192,192,37654,1,0,0:0:0:0:
64,192,37804,1,8,0:0:0:0:
320,192,37804,1,0,0:0:0:60:snare.wav
448,192,37804,1,0,0:0:0:0:
192,192,37954,1,2,0:0:0:0:
320,192,37954,1,0,0:0:0:0:
64,192,38104,1,2,0:0:0:0:
192,192,38104,1,0,0:0:0:0:
448,192,38104,1,0,0:0:0:0:
320,192,38254,1,2,0:0:0:0:
448,192,38254,1,0,0:0:0:0:
64,192,38329,1,2,0:0:0:0:
192,192,38329,1,0,0:0:0:0:
64,192,38404,1,8,0:0:0:0:
320,192,38404,1,0,0:0:0:60:snare.wav
448,192,38404,1,0,0:0:0:0:
192,192,38554,1,2,0:0:0:0:
320,192,38629,1,0,0:0:0:0:
64,192,38704,1,2,0:0:0:0:
448,192,38704,1,0,0:0:0:0:
64,192,38854,1,8,0:0:0:0:
192,192,38854,1,0,0:0:0:60:snare.wav
320,192,38854,1,0,0:0:0:0:
192,192,39004,1,2,0:0:0:0:
448,192,39004,1,0,0:0:0:0:
64,192,39154,1,8,0:0:0:0:
320,192,39154,1,0,0:0:0:60:snare.wav
448,192,39154,1,0,0:0:0:0:
192,192,39304,1,2,0:0:0:0:
320,192,39304,1,0,0:0:0:0:
448,192,39379,1,2,0:0:0:0:
64,192,39454,1,8,0:0:0:0:
192,192,39529,1,8,0:0:0:0:
320,192,39604,1,2,0:0:0:0:
448,192,39604,1,0,0:0:0:0:
64,192,39754,1,8,0:0:0:0:
192,192,39754,1,0,0:0:0:60:snare.wav
320,192,39754,1,0,0:0:0:0:
64,192,39904,1,2,0:0:0:0:
448,192,39904,1,0,0:0:0:0:
192,192,40054,1,2,0:0:0:0:
320,192,40054,1,0,0:0:0:0:
64,192,40204,1,8,0:0:0:0:
192,192,40204,1,0,0:0:0:60:snare.wav
448,192,40204,1,0,0:0:0:0:
320,192,40354,1,2,0:0:0:0:
448,192,40354,1,0,0:0:0:0:
64,192,40504,1,2,0:0:0:0:
192,192,40504,1,0,0:0:0:0:
64,192,40654,1,2,0:0:0:0:
448,192,40654,1,0,0:0:0:0:
320,192,40729,1,2,0:0:0:0:
64,192,40804,1,8,0:0:0:0:
192,192,40804,1,0,0:0:0:60:snare.wav
448,192,40804,1,0,0:0:0:0:
192,192,40954,1,2,0:0:0:0:
320,192,40954,1,0,0:0:0:0:
64,192,41104,128,2,41254:0:0:0:0:
192,192,41104,128,0,41254:0:0:0:0:
448,192,41104,128,0,41254:0:0:0:0:
320,192,41254,1,8,0:0:0:0:
64,192,41404,128,2,41554:0:0:0:0:
192,192,41404,128,0,41554:0:0:0:0:
448,192,41404,128,0,41554:0:0:0:0:
320,192,41554,1,8,0:0:0:0:
64,192,41704,1,2,0:0:0:0:
448,192,41704,1,0,0:0:0:0:
320,192,41779,1,2,0:0:0:0:
64,192,41854,1,8,0:0:0:0:
192,192,41929,1,8,0:0:0:0:
320,192,42004,1,2,0:0:0:0:
448,192,42004,1,0,0:0:0:0:
64,192,42154,1,8,0:0:0:0:
192,192,42154,1,0,0:0:0:60:snare.wav
320,192,42154,1,0,0:0:0:0:
64,192,42304,1,2,0:0:0:0:
448,192,42304,1,0,0:0:0:0:
320,192,42454,128,0,42604:0:0:0:0:
64,192,42604,1,2,0:0:0:0:
448,192,42604,1,0,0:0:0:0:
192,192,42754,128,0,42904:0:0:0:0:
64,192,42904,1,2,0:0:0:0:
320,192,42904,1,0,0:0:0:0:
448,192,43054,128,0,43204:0:0:0:0:
192,192,43204,1,2,0:0:0:0:
320,192,43204,1,0,0:0:0:0:
64,192,43354,128,0,43504:0:0:0:0:
192,192,43504,1,2,0:0:0:0:
448,192,43504,1,0,0:0:0:0:
320,192,43654,128,0,43804:0:0:0:0:
64,192,43804,1,2,0:0:0:0:
192,192,43804,1,0,0:0:0:0:
448,192,43954,128,0,44104:0:0:0:0:
64,192,44104,128,2,44404:0:0:0:0:
320,192,44104,1,0,0:0:0:0:
192,192,44254,128,0,44404:0:0:0:0:
320,192,44404,1,2,0:0:0:0:
448,192,44404,128,0,44704:0:0:0:0:
64,192,44554,128,0,44704:0:0:0:0:
192,192,44704,1,2,0:0:0:0:
320,192,44704,128,0,45004:0:0:0:0:
64,192,44854,128,0,45004:0:0:0:0:
192,192,45004,1,2,0:0:0:0:
448,192,45004,1,0,0:0:0:0:
320,192,45154,128,0,45304:0:0:0:0:
64,192,45304,1,2,0:0:0:0:
192,192,45304,1,0,0:0:0:0:
448,192,45454,128,0,45604:0:0:0:0:
64,192,45604,128,8,45904:0:0:0:0:
192,192,45604,1,0,0:0:0:60:snare.wav
320,192,45604,1,0,0:0:0:0:
320,192,45904,1,2,0:0:0:0:
448,192,45904,1,0,0:0:0:0:
64,192,46204,128,8,46504:0:0:0:0:
192,192,46204,1,0,0:0:0:60:snare.wav
320,192,46204,1,0,0:0:0:0:
320,192,46504,1,2,0:0:0:0:
448,192,46504,1,0,0:0:0:0:
64,192,46654,1,2,0:0:0:0:
192,192,46654,1,0,0:0:0:0:
64,192,46804,128,8,47104:0:0:0:0:
320,192,46804,1,0,0:0:0:60:snare.wav
448,192,46804,1,0,0:0:0:0:
192,192,46954,1,0,0:0:0:0:
320,192,47029,1,0,0:0:0:0:
448,192,47104,128,0,47554:0:0:0:0:
192,192,47254,128,0,47554:0:0:0:0:
320,192,47554,128,0,47704:0:0:0:0:
64,192,47704,128,0,48304:0:0:0:0:
448,192,47854,128,0,48304:0:0:0:0:
192,192,48304,1,2,0:0:0:0:
320,192,48304,1,0,0:0:0:0:
320,192,48754,128,0,49054:0:0:0:0:
448,192,48754,128,0,49054:0:0:0:0:
64,192,49054,128,0,49204:0:0:0:0:
192,192,49054,128,0,49204:0:0:0:0:
320,192,49204,128,0,49429:0:0:0:0:
448,192,49204,128,0,49429:0:0:0:0:
64,192,49504,1,2,0:0:0:0:
192,192,49504,1,4,0:0:0:0:
448,192,49504,1,0,0:0:0:0:
320,192,49654,1,2,0:0:0:0:
448,192,49654,1,0,0:0:0:0:
192,192,49729,1,2,0:0:0:0:
64,192,49804,1,2,0:0:0:0:
320,192,49804,1,0,0:0:0:0:
448,192,49804,1,0,0:0:0:0:
64,192,49954,1,2,0:0:0:0:
192,192,49954,1,0,0:0:0:0:
320,192,50029,1,2,0:0:0:0:
64,192,50104,1,2,0:0:0:0:
192,192,50104,1,0,0:0:0:60:ClapHand.wav
448,192,50104,1,0,0:0:0:0:
320,192,50254,1,2,0:0:0:0:
448,192,50254,1,0,0:0:0:0:
192,192,50329,1,2,0:0:0:0:
64,192,50404,1,2,0:0:0:0:
320,192,50404,1,0,0:0:0:60:ClapHand.wav
448,192,50404,1,0,0:0:0:0:
64,192,50554,1,2,0:0:0:0:
192,192,50554,1,0,0:0:0:0:
320,192,50629,1,2,0:0:0:0:
64,192,50704,1,2,0:0:0:0:
192,192,50704,1,0,0:0:0:60:ClapHand.wav
448,192,50704,1,0,0:0:0:0:
320,192,50854,1,2,0:0:0:0:
448,192,50854,1,0,0:0:0:0:
192,192,50929,1,2,0:0:0:0:
64,192,51004,1,2,0:0:0:0:
320,192,51004,1,0,0:0:0:60:ClapHand.wav
448,192,51004,1,0,0:0:0:0:
64,192,51154,1,2,0:0:0:0:
192,192,51154,1,0,0:0:0:0:
320,192,51229,1,2,0:0:0:0:
64,192,51304,1,2,0:0:0:0:
192,192,51304,1,0,0:0:0:60:ClapHand.wav
448,192,51304,1,0,0:0:0:0:
320,192,51454,1,0,0:0:0:0:
64,192,51529,1,2,0:0:0:0:
192,192,51529,1,0,0:0:0:60:ClapHand.wav
448,192,51529,1,0,0:0:0:0:
64,192,51754,1,2,0:0:0:0:
192,192,51754,1,0,0:0:0:60:ClapHand.wav
448,192,51754,1,0,0:0:0:0:
64,192,51904,1,4,0:0:0:0:
320,192,51904,1,2,0:0:0:0:
448,192,51904,1,0,0:0:0:60:ClapHand.wav
64,192,52054,1,2,0:0:0:0:
192,192,52054,1,0,0:0:0:0:
320,192,52129,1,2,0:0:0:0:
64,192,52204,1,2,0:0:0:0:
192,192,52204,1,0,0:0:0:60:ClapHand.wav
448,192,52204,1,0,0:0:0:0:
320,192,52354,1,2,0:0:0:0:
448,192,52354,1,0,0:0:0:0:
192,192,52429,1,2,0:0:0:0:
64,192,52504,1,2,0:0:0:0:
320,192,52504,1,0,0:0:0:60:ClapHand.wav
448,192,52504,1,0,0:0:0:0:
64,192,52654,1,2,0:0:0:0:
192,192,52654,1,0,0:0:0:0:
320,192,52729,1,2,0:0:0:0:
64,192,52804,1,2,0:0:0:0:
192,192,52804,1,0,0:0:0:60:ClapHand.wav
448,192,52804,1,0,0:0:0:0:
320,192,52954,1,2,0:0:0:0:
448,192,52954,1,0,0:0:0:0:
192,192,53029,1,2,0:0:0:0:
64,192,53104,1,2,0:0:0:0:
320,192,53104,1,0,0:0:0:60:ClapHand.wav
448,192,53104,1,0,0:0:0:0:
64,192,53254,1,2,0:0:0:0:
192,192,53254,1,0,0:0:0:0:
320,192,53329,1,2,0:0:0:0:
64,192,53404,1,2,0:0:0:0:
192,192,53404,1,0,0:0:0:60:ClapHand.wav
448,192,53404,1,0,0:0:0:0:
320,192,53554,1,2,0:0:0:0:
448,192,53554,1,0,0:0:0:0:
64,192,53629,1,2,0:0:0:0:
192,192,53629,1,0,0:0:0:0:
320,192,53704,1,2,0:0:0:0:
448,192,53704,1,0,0:0:0:0:
64,192,53854,1,0,0:0:0:60:ClapHand.wav
192,192,53854,1,0,0:0:0:0:
448,192,53854,1,0,0:0:0:0:
64,192,54004,1,2,0:0:0:0:
320,192,54004,1,0,0:0:0:60:ClapHand.wav
448,192,54004,1,0,0:0:0:0:
64,192,54304,128,2,54518:0:0:0:0:
320,192,54304,1,4,0:0:0:0:
448,192,54304,128,0,55161:0:0:0:0:
192,192,54518,128,0,54732:0:0:0:0:
320,192,54732,128,0,54946:0:0:0:0:
64,192,54946,128,0,55161:0:0:0:0:
192,192,55161,128,2,55375:0:0:0:0:
320,192,55161,1,0,0:0:0:0:
64,192,55375,128,0,55589:0:0:0:0:
320,192,55589,128,0,55804:0:0:0:0:
448,192,55589,128,0,56018:0:0:0:0:
192,192,55804,128,0,56018:0:0:0:0:
64,192,56018,128,2,56232:0:0:0:0:
320,192,56018,128,0,56446:0:0:0:0:
448,192,56232,128,0,56446:0:0:0:0:
64,192,56446,128,2,56661:0:0:0:0:
192,192,56446,128,0,56875:0:0:0:0:
320,192,56661,128,0,56875:0:0:0:0:
64,192,56875,128,2,57304:0:0:0:0:
448,192,56875,128,0,57089:0:0:0:0:
320,192,57089,128,2,57304:0:0:0:0:
192,192,57304,1,8,0:0:0:0:
448,192,57304,128,0,57411:0:0:0:60:snare.wav
320,192,57411,128,0,57518:0:0:0:0:
192,192,57518,128,0,57625:0:0:0:0:
64,192,57625,128,0,57732:0:0:0:0:
192,192,57732,1,2,0:0:0:0:
320,192,57732,1,4,0:0:0:0:
448,192,57732,128,0,57898:0:0:0:0:
64,192,57898,128,0,58065:0:0:0:0:
192,192,58065,128,2,58232:0:0:0:0:
448,192,58065,1,0,0:0:0:0:
320,192,58232,128,0,58398:0:0:0:0:
64,192,58398,128,2,58565:0:0:0:0:
192,192,58398,1,0,0:0:0:0:
448,192,58565,128,0,58898:0:0:0:0:
192,192,58732,1,2,0:0:0:0:
320,192,58732,1,0,0:0:0:0:
192,192,58898,128,0,59065:0:0:0:0:
64,192,59065,1,2,0:0:0:0:
448,192,59065,1,0,0:0:0:0:
320,192,59232,128,0,59565:0:0:0:0:
64,192,59398,1,2,0:0:0:0:
192,192,59398,1,0,0:0:0:0:
448,192,59565,128,0,59732:0:0:0:0:
192,192,59732,128,2,59898:0:0:0:0:
320,192,59732,1,0,0:0:0:0:
64,192,59898,128,0,60232:0:0:0:0:
320,192,60065,1,2,0:0:0:0:
448,192,60065,1,0,0:0:0:0:
192,192,60232,128,0,60398:0:0:0:0:
64,192,60398,1,2,0:0:0:0:
448,192,60398,128,0,60565:0:0:0:0:
320,192,60565,128,0,60898:0:0:0:0:
64,192,60732,1,2,0:0:0:0:
192,192,60732,1,0,0:0:0:0:
64,192,60898,128,0,61232:0:0:0:0:
320,192,61065,1,2,0:0:0:0:
448,192,61065,1,0,0:0:0:0:
192,192,61232,128,0,61565:0:0:0:0:
320,192,61398,1,2,0:0:0:0:
448,192,61398,1,0,0:0:0:0:
448,192,61565,128,0,61732:0:0:0:0:
64,192,61732,128,2,61898:0:0:0:0:
192,192,61732,1,0,0:0:0:0:
320,192,61898,128,0,62065:0:0:0:0:
192,192,62065,128,2,62232:0:0:0:0:
448,192,62065,1,0,0:0:0:0:
64,192,62232,128,0,62398:0:0:0:0:
192,192,62398,1,2,0:0:0:0:
320,192,62398,128,0,62565:0:0:0:0:
448,192,62565,128,0,62898:0:0:0:0:
64,192,62732,1,2,0:0:0:0:
192,192,62732,1,0,0:0:0:0:
192,192,62898,128,0,63065:0:0:0:0:
320,192,63065,128,2,63232:0:0:0:0:
448,192,63065,1,0,0:0:0:0:
64,192,63232,128,0,63398:0:0:0:0:
320,192,63398,1,2,0:0:0:0:
448,192,63398,128,0,63565:0:0:0:0:
192,192,63565,128,0,63732:0:0:0:0:
64,192,63732,1,2,0:0:0:0:
320,192,63732,128,0,63898:0:0:0:0:
64,192,63898,128,0,64065:0:0:0:0:
320,192,64065,1,2,0:0:0:0:
448,192,64065,1,0,0:0:0:0:
192,192,64232,128,0,64565:0:0:0:0:
64,192,64398,1,2,0:0:0:0:
448,192,64398,1,0,0:0:0:0:
320,192,64565,128,0,64732:0:0:0:0:
64,192,64732,1,2,0:0:0:0:
448,192,64732,128,0,64898:0:0:0:0:
192,192,64898,128,0,65065:0:0:0:0:
64,192,65065,128,2,65232:0:0:0:0:
448,192,65065,1,0,0:0:0:0:
320,192,65232,128,0,65398:0:0:0:0:
64,192,65398,1,2,0:0:0:0:
192,192,65398,128,0,65565:0:0:0:0:
448,192,65565,128,0,65732:0:0:0:0:
64,192,65732,128,2,66398:0:0:0:0:
320,192,65732,1,0,0:0:0:0:
320,192,66065,1,8,0:0:0:0:
448,192,66065,1,0,0:0:0:60:snare.wav
192,192,66232,1,2,0:0:0:0:
448,192,66398,128,0,66732:0:0:0:0:
320,192,66565,1,2,0:0:0:0:
64,192,66732,128,8,67065:0:0:0:0:
192,192,66732,1,0,0:0:0:60:snare.wav
320,192,66732,1,0,0:0:0:0:
320,192,67065,1,2,0:0:0:0:
448,192,67065,1,0,0:0:0:0:
64,192,67232,1,2,0:0:0:0:
192,192,67232,1,0,0:0:0:0:
320,192,67315,1,2,0:0:0:0:
448,192,67315,1,0,0:0:0:0:
64,192,67398,1,8,0:0:0:0:
192,192,67398,1,0,0:0:0:60:snare.wav
448,192,67398,1,0,0:0:0:0:
192,192,67565,1,2,0:0:0:0:
320,192,67565,1,0,0:0:0:0:
64,192,67732,1,8,0:0:0:0:
320,192,67732,1,0,0:0:0:60:snare.wav
448,192,67732,1,0,0:0:0:0:
192,192,67898,1,2,0:0:0:0:
448,192,67898,1,0,0:0:0:0:
64,192,68065,1,8,0:0:0:0:
192,192,68065,1,0,0:0:0:60:snare.wav
320,192,68065,1,0,0:0:0:0:
320,192,68232,1,2,0:0:0:0:
448,192,68232,1,0,0:0:0:0:
64,192,68315,1,2,0:0:0:0:
192,192,68315,1,0,0:0:0:0:
64,192,68398,1,2,0:0:0:0:
320,192,68398,1,4,0:0:0:0:
448,192,68398,128,0,68565:0:0:0:0:
192,192,68565,128,0,68732:0:0:0:0:
64,192,68732,128,2,68898:0:0:0:0:
320,192,68732,1,0,0:0:0:60:ClapHand.wav
448,192,68732,1,0,0:0:0:0:
320,192,68898,128,0,69065:0:0:0:0:
64,192,69065,1,2,0:0:0:0:
192,192,69065,128,0,69232:0:0:0:0:
448,192,69232,128,0,69398:0:0:0:0:
64,192,69398,1,2,0:0:0:0:
192,192,69398,1,0,0:0:0:60:ClapHand.wav
320,192,69398,1,0,0:0:0:0:
448,192,69565,128,0,69898:0:0:0:0:
192,192,69732,1,2,0:0:0:0:
320,192,69732,1,0,0:0:0:0:
64,192,69898,128,0,70065:0:0:0:0:
192,192,70065,128,2,70232:0:0:0:0:
320,192,70065,1,0,0:0:0:60:ClapHand.wav
448,192,70065,1,0,0:0:0:0:
448,192,70232,128,0,70398:0:0:0:0:
64,192,70398,1,2,0:0:0:0:
320,192,70398,128,0,70565:0:0:0:0:
192,192,70565,128,0,70732:0:0:0:0:
64,192,70732,1,2,0:0:0:0:
320,192,70732,1,0,0:0:0:60:ClapHand.wav
448,192,70732,1,0,0:0:0:0:
192,192,70898,128,0,71065:0:0:0:0:
320,192,71065,128,2,71232:0:0:0:0:
448,192,71065,1,0,0:0:0:0:
64,192,71232,128,0,71398:0:0:0:0:
192,192,71398,128,2,71565:0:0:0:0:
320,192,71398,1,0,0:0:0:60:ClapHand.wav
448,192,71398,1,0,0:0:0:0:
64,192,71565,128,0,71898:0:0:0:0:
192,192,71732,1,2,0:0:0:0:
320,192,71732,1,0,0:0:0:0:
448,192,71898,128,0,72065:0:0:0:0:
64,192,72065,1,2,0:0:0:0:
192,192,72065,1,0,0:0:0:60:ClapHand.wav
320,192,72065,1,0,0:0:0:0:
64,192,72232,128,0,72398:0:0:0:0:
320,192,72398,128,2,72565:0:0:0:0:
448,192,72398,1,0,0:0:0:0:
192,192,72565,128,0,72732:0:0:0:0:
448,192,72732,1,2,0:0:0:0:
320,192,72732,1,0,0:0:0:60:ClapHand.wav
64,192,72732,128,0,72898:0:0:0:0:
448,192,72898,128,0,72982:0:0:0:0:
320,192,72982,128,0,73065:0:0:0:0:
64,192,73065,1,2,0:0:0:0:
192,192,73065,128,0,73232:0:0:0:0:
448,192,73232,128,0,73398:0:0:0:0:
64,192,73398,1,2,0:0:0:0:
192,192,73398,1,0,0:0:0:60:ClapHand.wav
320,192,73398,1,0,0:0:0:0:
64,192,73565,128,0,73732:0:0:0:0:
192,192,73732,1,2,0:0:0:0:
448,192,73732,128,4,73898:0:0:0:0:
320,192,73732,1,0,0:0:0:0:
64,192,74065,1,2,0:0:0:0:
320,192,74065,128,0,74232:0:0:0:60:ClapHand.wav
448,192,74065,1,0,0:0:0:0:
192,192,74232,128,0,74398:0:0:0:0:
320,192,74398,1,2,0:0:0:0:
448,192,74398,128,0,74565:0:0:0:0:
64,192,74565,128,0,74898:0:0:0:0:
192,192,74732,1,2,0:0:0:0:
320,192,74732,1,0,0:0:0:60:ClapHand.wav
448,192,74898,128,0,75232:0:0:0:0:
192,192,75065,1,2,0:0:0:0:
64,192,75232,128,0,75398:0:0:0:0:
192,192,75398,128,2,75565:0:0:0:0:
320,192,75398,1,0,0:0:0:60:ClapHand.wav
448,192,75398,1,0,0:0:0:0:
320,192,75565,128,0,75732:0:0:0:0:
64,192,75732,1,2,0:0:0:0:
192,192,75732,1,0,0:0:0:0:
448,192,75732,128,0,75898:0:0:0:0:
64,192,75898,128,0,76065:0:0:0:0:
192,192,75982,1,0,0:0:0:0:
320,192,76065,128,2,76232:0:0:0:0:
192,192,76232,128,0,76398:0:0:0:0:
448,192,76315,1,0,0:0:0:0:
64,192,76398,128,2,77065:0:0:0:0:
320,192,76398,1,4,0:0:0:0:
320,192,76732,1,8,0:0:0:0:
448,192,76732,1,0,0:0:0:60:snare.wav
192,192,76898,1,2,0:0:0:0:
448,192,77065,128,0,77232:0:0:0:0:
192,192,77232,1,2,0:0:0:0:
320,192,77232,128,0,77398:0:0:0:0:
64,192,77398,128,8,77565:0:0:0:0:
192,192,77398,1,0,0:0:0:60:snare.wav
448,192,77398,1,0,0:0:0:0:
192,192,77732,1,2,0:0:0:0:
320,192,77732,1,4,0:0:0:0:
448,192,77732,1,0,0:0:0:0:
64,192,77898,1,2,0:0:0:0:
192,192,77898,1,0,0:0:0:0:
320,192,77982,1,2,0:0:0:0:
448,192,77982,1,0,0:0:0:0:
64,192,78065,1,8,0:0:0:0:
192,192,78065,1,0,0:0:0:60:snare.wav
448,192,78065,1,0,0:0:0:0:
320,192,78232,1,2,0:0:0:0:
448,192,78232,1,0,0:0:0:0:
64,192,78315,1,2,0:0:0:0:
192,192,78315,1,0,0:0:0:0:
64,192,78398,1,8,0:0:0:0:
320,192,78398,1,0,0:0:0:60:snare.wav
448,192,78398,1,0,0:0:0:0:
64,192,78565,1,2,0:0:0:0:
192,192,78565,1,0,0:0:0:0:
320,192,78648,1,2,0:0:0:0:
64,192,78732,1,8,0:0:0:0:
192,192,78732,1,0,0:0:0:60:snare.wav
448,192,78732,1,0,0:0:0:0:
320,192,78815,1,2,0:0:0:0:
64,192,78898,1,2,0:0:0:0:
192,192,78898,1,0,0:0:0:0:
320,192,78982,1,2,0:0:0:0:
448,192,78982,1,0,0:0:0:0:
64,192,79732,1,2,0:0:0:0:
320,192,79732,128,4,80032:0:0:0:0:
448,192,79732,1,0,0:0:0:0:
64,192,80032,1,10,0:0:0:0:
192,192,80032,1,0,0:0:0:60:snare.wav
448,192,80182,128,0,80332:0:0:0:0:
64,192,80332,1,2,0:0:0:0:
192,192,80332,1,0,0:0:0:0:
320,192,80482,128,0,80632:0:0:0:0:
64,192,80632,1,8,0:0:0:0:
192,192,80632,128,2,80782:0:0:0:0:
448,192,80632,1,0,0:0:0:60:snare.wav
64,192,80782,128,0,80932:0:0:0:0:
320,192,80932,128,2,81232:0:0:0:0:
448,192,80932,1,0,0:0:0:0:
64,192,81232,1,2,0:0:0:0:
192,192,81232,128,8,81457:0:0:0:0:
448,192,81232,1,0,0:0:0:60:snare.wav
448,192,81457,128,0,81532:0:0:0:0:
64,192,81532,1,2,0:0:0:0:
320,192,81532,128,0,81682:0:0:0:0:
64,192,81832,1,8,0:0:0:0:
192,192,81832,128,2,81982:0:0:0:0:
448,192,81832,1,0,0:0:0:60:snare.wav
320,192,81982,128,0,82132:0:0:0:0:
64,192,82132,1,2,0:0:0:0:
448,192,82132,128,0,82282:0:0:0:0:
192,192,82282,128,0,82357:0:0:0:0:
320,192,82357,128,0,82432:0:0:0:0:
64,192,82432,1,2,0:0:0:0:
448,192,82432,128,8,82582:0:0:0:0:
192,192,82432,1,0,0:0:0:60:snare.wav
64,192,82582,128,0,82732:0:0:0:0:
320,192,82732,1,2,0:0:0:0:
192,192,82732,128,0,82882:0:0:0:0:
64,192,83032,128,8,83182:0:0:0:0:
192,192,83032,1,2,0:0:0:0:
320,192,83032,1,0,0:0:0:60:snare.wav
448,192,83182,128,0,83332:0:0:0:0:
64,192,83332,1,2,0:0:0:0:
320,192,83332,128,0,83482:0:0:0:0:
192,192,83482,128,0,83632:0:0:0:0:
64,192,83632,128,2,83782:0:0:0:0:
320,192,83632,1,8,0:0:0:0:
448,192,83632,1,0,0:0:0:60:snare.wav
448,192,83782,128,0,83932:0:0:0:0:
192,192,83932,1,2,0:0:0:0:
320,192,83932,128,0,84232:0:0:0:0:
64,192,84232,1,8,0:0:0:0:
192,192,84232,1,2,0:0:0:0:
448,192,84232,128,0,84532:0:0:0:60:snare.wav
64,192,84532,128,2,84682:0:0:0:0:
320,192,84532,1,0,0:0:0:0:
64,192,84832,1,2,0:0:0:0:
192,192,84832,1,8,0:0:0:0:
448,192,84832,128,0,85132:0:0:0:60:snare.wav
64,192,85132,128,2,85282:0:0:0:0:
320,192,85132,1,0,0:0:0:0:
64,192,85432,1,8,0:0:0:0:
192,192,85432,1,2,0:0:0:0:
320,192,85432,128,0,85732:0:0:0:60:snare.wav
192,192,85732,128,2,86032:0:0:0:0:
448,192,85732,1,0,0:0:0:0:
64,192,86032,1,2,0:0:0:0:
320,192,86032,1,8,0:0:0:0:
448,192,86032,128,0,86332:0:0:0:60:snare.wav
64,192,86332,128,2,86632:0:0:0:0:
192,192,86332,1,0,0:0:0:0:
192,192,86632,1,8,0:0:0:0:
320,192,86632,1,2,0:0:0:0:
448,192,86632,128,0,86932:0:0:0:60:snare.wav
64,192,86932,1,2,0:0:0:0:
192,192,86932,128,0,87232:0:0:0:0:
320,192,87082,1,0,0:0:0:0:
64,192,87232,1,2,0:0:0:0:
320,192,87232,1,8,0:0:0:0:
448,192,87232,1,0,0:0:0:60:snare.wav
192,192,87382,128,0,87532:0:0:0:0:
64,192,87532,1,2,0:0:0:0:
320,192,87532,128,0,87832:0:0:0:0:
448,192,87682,1,0,0:0:0:0:
64,192,87832,1,8,0:0:0:0:
192,192,87832,1,2,0:0:0:0:
448,192,87832,1,0,0:0:0:60:snare.wav
320,192,87982,128,0,88132:0:0:0:0:
64,192,88132,1,2,0:0:0:0:
448,192,88132,128,0,88432:0:0:0:0:
192,192,88282,1,0,0:0:0:0:
64,192,88432,1,8,0:0:0:0:
192,192,88432,1,2,0:0:0:0:
320,192,88432,1,0,0:0:0:60:snare.wav
448,192,88582,1,0,0:0:0:0:
64,192,88732,128,2,88832:0:0:0:0:
192,192,88732,1,0,0:0:0:0:
320,192,88832,128,0,88932:0:0:0:0:
448,192,88932,128,0,89032:0:0:0:0:
64,192,89032,1,8,0:0:0:0:
192,192,89032,1,2,0:0:0:0:
320,192,89032,128,0,89132:0:0:0:60:snare.wav
192,192,89132,128,0,89232:0:0:0:0:
64,192,89232,128,0,89332:0:0:0:0:
320,192,89332,128,2,89632:0:0:0:0:
448,192,89332,1,0,0:0:0:0:
64,192,89632,1,2,0:0:0:0:
192,192,89632,1,8,0:0:0:0:
448,192,89632,128,0,89932:0:0:0:60:snare.wav
64,192,89932,1,2,0:0:0:0:
192,192,89932,128,0,90232:0:0:0:0:
64,192,90232,1,8,0:0:0:0:
320,192,90232,128,2,90532:0:0:0:0:
448,192,90232,1,0,0:0:0:60:snare.wav
64,192,90532,128,2,90682:0:0:0:0:
192,192,90532,128,0,90682:0:0:0:0:
448,192,90532,128,0,90682:0:0:0:0:
64,192,90832,128,2,90982:0:0:0:0:
192,192,90832,128,0,90982:0:0:0:0:
448,192,90832,128,0,90982:0:0:0:0:
320,192,91132,128,0,91582:0:0:0:0:
192,192,91282,128,0,91582:0:0:0:0:
64,192,91582,128,0,91732:0:0:0:0:
192,192,91732,1,2,0:0:0:0:
320,192,91732,1,4,0:0:0:0:
448,192,91732,1,0,0:0:0:0:
64,192,91882,1,2,0:0:0:0:
192,192,91882,1,0,0:0:0:0:
64,192,92032,1,8,0:0:0:0:
320,192,92032,1,0,0:0:0:60:snare.wav
448,192,92032,1,0,0:0:0:0:
192,192,92182,1,2,0:0:0:0:
320,192,92182,1,0,0:0:0:0:
64,192,92332,1,2,0:0:0:0:
448,192,92332,1,0,0:0:0:0:
320,192,92482,1,2,0:0:0:0:
448,192,92482,1,0,0:0:0:0:
64,192,92557,1,2,0:0:0:0:
192,192,92557,1,0,0:0:0:0:
64,192,92632,1,8,0:0:0:0:
320,192,92632,1,0,0:0:0:60:snare.wav
448,192,92632,1,0,0:0:0:0:
192,192,92782,1,2,0:0:0:0:
320,192,92782,1,0,0:0:0:0:
64,192,92932,1,2,0:0:0:0:
448,192,92932,1,0,0:0:0:0:
64,192,93082,1,8,0:0:0:0:
192,192,93082,1,0,0:0:0:60:snare.wav
320,192,93082,1,0,0:0:0:0:
320,192,93232,1,2,0:0:0:0:
448,192,93232,1,0,0:0:0:0:
64,192,93382,1,8,0:0:0:0:
192,192,93382,1,0,0:0:0:60:snare.wav
448,192,93382,1,0,0:0:0:0:
192,192,93532,1,2,0:0:0:0:
320,192,93532,1,0,0:0:0:0:
64,192,93607,1,0,0:0:0:0:
320,192,93682,1,8,0:0:0:0:
448,192,93682,1,0,0:0:0:60:snare.wav
192,192,93757,1,8,0:0:0:0:
64,192,93832,1,2,0:0:0:0:
320,192,93832,1,0,0:0:0:0:
448,192,93832,1,0,0:0:0:0:
64,192,93982,1,8,0:0:0:0:
192,192,93982,1,0,0:0:0:60:snare.wav
320,192,94132,1,2,0:0:0:0:
448,192,94132,1,0,0:0:0:0:
64,192,94282,1,2,0:0:0:0:
192,192,94282,1,0,0:0:0:0:
64,192,94432,1,8,0:0:0:0:
320,192,94432,1,0,0:0:0:60:snare.wav
448,192,94432,1,0,0:0:0:0:
192,192,94582,1,2,0:0:0:0:
320,192,94582,1,0,0:0:0:0:
64,192,94732,1,2,0:0:0:0:
192,192,94732,1,0,0:0:0:0:
320,192,94882,1,2,0:0:0:0:
448,192,94882,1,0,0:0:0:0:
192,192,94957,1,2,0:0:0:0:
64,192,95032,1,8,0:0:0:0:
320,192,95032,1,0,0:0:0:60:snare.wav
448,192,95032,1,0,0:0:0:0:
64,192,95182,1,2,0:0:0:0:
192,192,95182,1,0,0:0:0:0:
192,192,95332,128,2,95482:0:0:0:0:
320,192,95332,128,0,95482:0:0:0:0:
448,192,95332,128,0,95482:0:0:0:0:
64,192,95482,1,8,0:0:0:0:
192,192,95632,128,2,95782:0:0:0:0:
320,192,95632,128,0,95782:0:0:0:0:
448,192,95632,128,0,95782:0:0:0:0:
64,192,95782,1,8,0:0:0:0:
320,192,95932,1,2,0:0:0:0:
448,192,95932,1,0,0:0:0:0:
64,192,96007,1,2,0:0:0:0:
192,192,96082,1,8,0:0:0:0:
320,192,96157,1,8,0:0:0:0:
64,192,96232,1,2,0:0:0:0:
448,192,96232,1,0,0:0:0:0:
64,192,96382,1,8,0:0:0:0:
192,192,96382,1,0,0:0:0:60:snare.wav
320,192,96382,1,0,0:0:0:0:
320,192,96532,1,2,0:0:0:0:
448,192,96532,1,0,0:0:0:0:
192,192,96682,128,0,96832:0:0:0:0:
64,192,96832,1,2,0:0:0:0:
448,192,96832,1,0,0:0:0:0:
320,192,96982,128,0,97132:0:0:0:0:
64,192,97132,1,2,0:0:0:0:
192,192,97132,1,0,0:0:0:0:
448,192,97282,128,0,97432:0:0:0:0:
192,192,97432,1,2,0:0:0:0:
320,192,97432,1,0,0:0:0:0:
64,192,97582,128,0,97732:0:0:0:0:
320,192,97732,1,2,0:0:0:0:
448,192,97732,1,0,0:0:0:0:
192,192,97882,128,0,98032:0:0:0:0:
64,192,98032,1,2,0:0:0:0:
320,192,98032,1,0,0:0:0:0:
448,192,98182,128,0,98332:0:0:0:0:
64,192,98332,128,2,98632:0:0:0:0:
192,192,98332,1,0,0:0:0:0:
320,192,98482,128,0,98632:0:0:0:0:
192,192,98632,1,2,0:0:0:0:
448,192,98632,128,0,98932:0:0:0:0:
192,192,98782,128,0,98932:0:0:0:0:
64,192,98932,128,2,99232:0:0:0:0:
320,192,98932,1,0,0:0:0:0:
448,192,99082,128,0,99232:0:0:0:0:
192,192,99232,1,2,0:0:0:0:
320,192,99232,1,0,0:0:0:0:
320,192,99382,128,0,99532:0:0:0:0:
64,192,99532,1,2,0:0:0:0:
192,192,99532,1,0,0:0:0:0:
448,192,99682,128,0,99832:0:0:0:0:
64,192,99832,128,8,100132:0:0:0:0:
192,192,99832,1,0,0:0:0:60:snare.wav
320,192,99832,1,0,0:0:0:0:
320,192,100132,1,2,0:0:0:0:
448,192,100132,1,0,0:0:0:0:
64,192,100432,1,8,0:0:0:0:
192,192,100432,128,0,100732:0:0:0:60:snare.wav
448,192,100432,1,0,0:0:0:0:
320,192,100732,1,2,0:0:0:0:
448,192,100732,1,0,0:0:0:0:
64,192,100882,1,2,0:0:0:0:
192,192,100882,1,0,0:0:0:0:
64,192,101032,128,8,101332:0:0:0:0:
320,192,101032,1,0,0:0:0:60:snare.wav
448,192,101032,1,0,0:0:0:0:
192,192,101182,1,0,0:0:0:0:
320,192,101257,1,0,0:0:0:0:
448,192,101332,128,0,101782:0:0:0:0:
192,192,101482,128,0,101782:0:0:0:0:
320,192,101782,128,0,101932:0:0:0:0:
64,192,101932,128,0,102532:0:0:0:0:
448,192,102082,128,0,102532:0:0:0:0:
192,192,102532,1,2,0:0:0:0:
320,192,102532,1,0,0:0:0:0:
320,192,102982,128,0,103282:0:0:0:0:
448,192,102982,128,0,103282:0:0:0:0:
64,192,103282,128,0,103432:0:0:0:0:
192,192,103282,128,0,103432:0:0:0:0:
320,192,103432,128,0,103657:0:0:0:0:
448,192,103432,128,0,103657:0:0:0:0:
64,192,103732,128,2,103882:0:0:0:0:
192,192,103732,1,4,0:0:0:0:
320,192,103732,1,0,0:0:0:0:
448,192,103882,128,0,104032:0:0:0:0:
192,192,104032,128,2,104182:0:0:0:0:
320,192,104032,1,0,0:0:0:0:
448,192,104182,128,0,104332:0:0:0:0:
64,192,104332,128,2,104482:0:0:0:0:
192,192,104332,1,0,0:0:0:0:
320,192,104482,128,0,104632:0:0:0:0:
192,192,104632,128,2,104782:0:0:0:0:
448,192,104632,1,0,0:0:0:0:
448,192,104782,128,0,104932:0:0:0:0:
64,192,104932,128,2,105082:0:0:0:0:
320,192,104932,1,0,0:0:0:0:
448,192,105082,128,0,105232:0:0:0:0:
64,192,105232,1,2,0:0:0:0:
192,192,105232,128,0,105382:0:0:0:0:
320,192,105382,128,0,105532:0:0:0:0:
64,192,105532,128,2,105682:0:0:0:0:
448,192,105532,1,0,0:0:0:0:
320,192,105682,128,0,105832:0:0:0:0:
448,192,105757,1,8,0:0:0:0:
64,192,105832,128,0,105982:0:0:0:0:
192,192,105982,128,2,106132:0:0:0:0:
320,192,105982,1,0,0:0:0:0:
64,192,106132,128,2,106282:0:0:0:0:
448,192,106132,1,0,0:0:0:0:
320,192,106282,128,0,106432:0:0:0:0:
192,192,106432,128,2,106582:0:0:0:0:
448,192,106432,1,0,0:0:0:0:
320,192,106582,128,0,106732:0:0:0:0:
64,192,106732,128,2,106882:0:0:0:0:
192,192,106732,1,0,0:0:0:0:
448,192,106882,128,0,107032:0:0:0:0:
64,192,107032,1,2,0:0:0:0:
192,192,107032,128,0,107182:0:0:0:0:
320,192,107182,128,0,107332:0:0:0:0:
64,192,107332,128,2,107482:0:0:0:0:
448,192,107332,1,0,0:0:0:0:
192,192,107482,128,0,107632:0:0:0:0:
64,192,107632,128,2,107782:0:0:0:0:
320,192,107632,1,0,0:0:0:0:
448,192,107782,128,0,107932:0:0:0:0:
64,192,107932,128,2,108157:0:0:0:0:
192,192,107932,128,0,108157:0:0:0:0:
320,192,108157,128,2,108382:0:0:0:0:
448,192,108157,128,0,108382:0:0:0:0:
192,192,108382,128,2,108532:0:0:0:0:
64,192,108532,128,2,108832:0:0:0:0:
320,192,108532,1,4,0:0:0:0:
448,192,108532,1,0,0:0:0:0:
448,192,108682,128,2,108832:0:0:0:0:
192,192,108832,1,2,0:0:0:0:
320,192,108832,1,0,0:0:0:0:
64,192,108982,1,2,0:0:0:0:
448,192,108982,1,0,0:0:0:0:
192,192,109132,1,2,0:0:0:0:
320,192,109132,1,0,0:0:0:0:
448,192,109282,1,0,0:0:0:0:
64,192,109357,1,2,0:0:0:0:
192,192,109357,1,0,0:0:0:0:
320,192,109582,1,2,0:0:0:0:
448,192,109582,1,0,0:0:0:0:
64,192,109732,1,2,0:0:0:0:
192,192,109732,1,0,0:0:0:0:
320,192,109882,1,2,0:0:0:0:
448,192,109882,1,0,0:0:0:0:
64,192,110032,1,2,0:0:0:0:
192,192,110032,1,0,0:0:0:0:
320,192,110182,1,2,0:0:0:0:
448,192,110182,1,0,0:0:0:0:
64,192,110332,1,2,0:0:0:0:
192,192,110332,1,0,0:0:0:0:
448,192,110482,1,0,0:0:0:0:
64,192,110557,1,2,0:0:0:0:
192,192,110557,1,0,0:0:0:0:
448,192,110632,1,0,0:0:0:0:
320,192,110707,1,0,0:0:0:0:
64,192,110782,1,2,0:0:0:0:
192,192,110782,1,0,0:0:0:0:
320,192,110932,1,2,0:0:0:0:
448,192,110932,1,0,0:0:0:0:
64,192,111007,1,2,0:0:0:0:
192,192,111007,1,0,0:0:0:0:
320,192,111082,1,2,0:0:0:0:
448,192,111082,1,0,0:0:0:0:
64,192,111157,1,2,0:0:0:0:
192,192,111157,1,0,0:0:0:0:
320,192,111232,1,2,0:0:0:0:
448,192,111232,1,0,0:0:0:0:
64,192,111307,1,2,0:0:0:0:
192,192,111307,1,0,0:0:0:0:
320,192,111382,1,2,0:0:0:0:
448,192,111382,1,0,0:0:0:0:
64,192,111457,1,2,0:0:0:0:
192,192,111457,1,0,0:0:0:0:
320,192,111532,1,2,0:0:0:0:
448,192,111532,1,0,0:0:0:0:
192,192,111682,1,0,0:0:0:0:
320,192,111757,1,2,0:0:0:0:
448,192,111757,1,0,0:0:0:0:
192,192,111832,1,0,0:0:0:0:
320,192,111907,1,0,0:0:0:0:
64,192,111982,1,2,0:0:0:0:
448,192,111982,1,0,0:0:0:0:
192,192,112132,1,2,0:0:0:0:
320,192,112132,1,0,0:0:0:0:
448,192,112132,128,0,112282:0:0:0:0:
64,192,112282,1,0,0:0:0:0:
192,192,112357,1,2,0:0:0:0:
320,192,112357,1,0,0:0:0:0:
64,192,112432,1,0,0:0:0:0:
320,192,112582,1,2,0:0:0:0:
448,192,112582,1,0,0:0:0:0:
64,192,112732,128,2,112882:0:0:0:0:
192,192,112732,128,0,112882:0:0:0:0:
448,192,112882,1,0,0:0:0:0:
64,192,112957,128,2,113107:0:0:0:0:
192,192,112957,128,0,113107:0:0:0:0:
320,192,113032,1,0,0:0:0:0:
448,192,113107,1,0,0:0:0:0:
64,192,113182,128,2,113632:0:0:0:0:
192,192,113182,128,0,113482:0:0:0:0:
64,192,113932,1,2,0:0:0:0:
192,192,113932,1,4,0:0:0:0:
448,192,113932,128,0,114232:0:0:0:0:
192,192,114232,1,0,0:0:0:0:
320,192,114382,128,0,114682:0:0:0:0:
64,192,114532,1,0,0:0:0:0:
448,192,114682,128,0,114832:0:0:0:0:
64,192,114832,1,0,0:0:0:0:
192,192,114832,128,0,114982:0:0:0:0:
320,192,114982,128,0,115132:0:0:0:0:
64,192,115132,128,2,115432:0:0:0:0:
448,192,115132,1,0,0:0:0:0:
192,192,115432,128,0,115732:0:0:0:0:
320,192,115432,1,0,0:0:0:0:
320,192,115732,128,0,116032:0:0:0:0:
448,192,115732,1,0,0:0:0:0:
64,192,116032,128,0,116182:0:0:0:0:
448,192,116032,1,0,0:0:0:0:
320,192,116182,128,0,116332:0:0:0:0:
192,192,116332,1,2,0:0:0:0:
448,192,116332,128,0,116482:0:0:0:0:
64,192,116482,128,0,116632:0:0:0:0:
192,192,116632,1,0,0:0:0:0:
320,192,116632,128,0,116782:0:0:0:0:
64,192,116782,128,0,116932:0:0:0:0:
320,192,116932,128,0,117232:0:0:0:0:
448,192,116932,1,0,0:0:0:0:
64,192,117232,128,0,117382:0:0:0:0:
192,192,117232,1,0,0:0:0:0:
448,192,117382,128,0,117682:0:0:0:0:
64,192,117532,1,2,0:0:0:0:
320,192,117532,1,0,0:0:0:0:
192,192,117682,128,0,117832:0:0:0:0:
64,192,117832,128,0,117982:0:0:0:0:
320,192,117832,1,0,0:0:0:0:
448,192,117982,128,0,118132:0:0:0:0:
192,192,118132,128,0,118282:0:0:0:0:
320,192,118132,1,0,0:0:0:0:
64,192,118282,128,0,118432:0:0:0:0:
320,192,118432,128,0,118732:0:0:0:0:
448,192,118432,1,0,0:0:0:0:
64,192,118732,1,2,0:0:0:0:
192,192,118732,128,4,119032:0:0:0:0:
448,192,118732,1,0,0:0:0:0:
64,192,119032,1,2,0:0:0:0:
320,192,119032,128,0,119332:0:0:0:60:ClapHand.wav
448,192,119032,1,0,0:0:0:0:
192,192,119332,128,2,119632:0:0:0:0:
448,192,119332,1,0,0:0:0:0:
64,192,119632,128,2,119932:0:0:0:0:
320,192,119632,1,0,0:0:0:60:ClapHand.wav
448,192,119632,1,0,0:0:0:0:
448,192,119782,128,0,119932:0:0:0:0:
192,192,119932,1,2,0:0:0:0:
320,192,119932,128,0,120232:0:0:0:0:
64,192,120232,1,2,0:0:0:0:
192,192,120232,128,0,120532:0:0:0:60:ClapHand.wav
448,192,120232,1,0,0:0:0:0:
64,192,120532,1,2,0:0:0:0:
448,192,120532,128,0,120832:0:0:0:0:
64,192,120832,1,2,0:0:0:0:
192,192,120832,128,0,121132:0:0:0:60:ClapHand.wav
320,192,120832,1,0,0:0:0:0:
64,192,121132,128,2,121432:0:0:0:0:
448,192,121132,128,0,121282:0:0:0:0:
320,192,121282,128,0,121432:0:0:0:0:
192,192,121432,128,2,121582:0:0:0:0:
448,192,121432,1,0,0:0:0:60:ClapHand.wav
320,192,121582,128,0,121732:0:0:0:0:
64,192,121732,1,2,0:0:0:0:
448,192,121732,128,0,121882:0:0:0:0:
192,192,121882,128,0,122032:0:0:0:0:
64,192,122032,1,2,0:0:0:0:
320,192,122032,128,0,122182:0:0:0:60:ClapHand.wav
448,192,122032,1,0,0:0:0:0:
64,192,122182,128,0,122332:0:0:0:0:
192,192,122332,1,2,0:0:0:0:
320,192,122332,128,0,122632:0:0:0:0:
64,192,122632,1,2,0:0:0:0:
192,192,122632,1,0,0:0:0:60:ClapHand.wav
448,192,122632,128,0,122782:0:0:0:0:
64,192,122782,128,0,122932:0:0:0:0:
192,192,122932,1,2,0:0:0:0:
448,192,122932,128,0,123032:0:0:0:0:
320,192,123032,128,0,123132:0:0:0:0:
64,192,123082,1,0,0:0:0:60:ClapHand.wav
192,192,123132,128,0,123232:0:0:0:0:
64,192,123232,128,2,123332:0:0:0:0:
320,192,123232,1,0,0:0:0:60:ClapHand.wav
448,192,123232,1,0,0:0:0:0:
192,192,123332,128,0,123432:0:0:0:0:
320,192,123432,128,0,123532:0:0:0:0:
64,192,123532,128,2,123832:0:0:0:0:
192,192,123532,1,0,0:0:0:0:
448,192,123532,128,0,123682:0:0:0:0:
320,192,123682,1,2,0:0:0:0:
448,192,123832,128,2,124132:0:0:0:0:
192,192,123982,1,2,0:0:0:0:
64,192,124132,128,2,124432:0:0:0:0:
320,192,124282,1,2,0:0:0:0:
448,192,124432,128,2,124732:0:0:0:0:
192,192,124582,1,2,0:0:0:0:
64,192,124732,128,2,124882:0:0:0:0:
320,192,124732,128,0,124882:0:0:0:0:
64,192,125032,128,2,125182:0:0:0:0:
448,192,125032,128,0,125182:0:0:0:0:
320,192,125332,128,0,125482:0:0:0:0:
192,192,125482,128,0,125632:0:0:0:0:
64,192,125782,128,0,125932:0:0:0:0:
192,192,125932,1,2,0:0:0:0:
320,192,125932,1,4,0:0:0:0:
448,192,125932,1,0,0:0:0:0:
64,192,126082,1,2,0:0:0:0:
192,192,126082,1,0,0:0:0:0:
64,192,126232,1,8,0:0:0:0:
320,192,126232,1,0,0:0:0:60:snare.wav
448,192,126232,1,0,0:0:0:0:
192,192,126382,1,2,0:0:0:0:
320,192,126382,1,0,0:0:0:0:
64,192,126532,1,2,0:0:0:0:
448,192,126532,1,0,0:0:0:0:
64,192,126682,1,2,0:0:0:0:
192,192,126682,1,0,0:0:0:0:
320,192,126757,1,2,0:0:0:0:
64,192,126832,1,8,0:0:0:0:
192,192,126832,1,0,0:0:0:60:snare.wav
448,192,126832,1,0,0:0:0:0:
320,192,126982,1,2,0:0:0:0:
448,192,126982,1,0,0:0:0:0:
64,192,127132,1,2,0:0:0:0:
192,192,127132,1,0,0:0:0:0:
64,192,127282,1,8,0:0:0:0:
320,192,127282,1,0,0:0:0:60:snare.wav
448,192,127282,1,0,0:0:0:0:
192,192,127432,1,2,0:0:0:0:
320,192,127432,1,0,0:0:0:0:
64,192,127582,1,8,0:0:0:0:
320,192,127582,1,0,0:0:0:60:snare.wav
448,192,127582,1,0,0:0:0:0:
64,192,127732,1,2,0:0:0:0:
192,192,127732,1,0,0:0:0:0:
448,192,127807,1,2,0:0:0:0:
192,192,127882,1,8,0:0:0:0:
320,192,127882,1,0,0:0:0:60:snare.wav
64,192,127957,1,8,0:0:0:0:
320,192,128032,1,2,0:0:0:0:
448,192,128032,1,0,0:0:0:0:
64,192,128182,1,8,0:0:0:0:
192,192,128182,1,0,0:0:0:60:snare.wav
320,192,128182,1,0,0:0:0:0:
448,192,128257,1,0,0:0:0:0:
64,192,128332,1,2,0:0:0:0:
192,192,128332,1,0,0:0:0:0:
320,192,128482,1,2,0:0:0:0:
448,192,128482,1,0,0:0:0:0:
64,192,128632,1,8,0:0:0:0:
192,192,128632,1,0,0:0:0:60:snare.wav
448,192,128632,1,0,0:0:0:0:
192,192,128782,1,2,0:0:0:0:
320,192,128782,1,0,0:0:0:0:
64,192,128932,1,2,0:0:0:0:
448,192,128932,1,0,0:0:0:0:
64,192,129082,1,2,0:0:0:0:
192,192,129082,1,0,0:0:0:0:
320,192,129157,1,2,0:0:0:0:
448,192,129157,1,0,0:0:0:0:
64,192,129232,1,8,0:0:0:0:
192,192,129232,1,0,0:0:0:60:snare.wav
448,192,129232,1,0,0:0:0:0:
192,192,129382,1,2,0:0:0:0:
320,192,129382,1,0,0:0:0:0:
64,192,129532,128,2,129682:0:0:0:0:
192,192,129532,128,0,129682:0:0:0:0:
448,192,129532,128,0,129682:0:0:0:0:
320,192,129682,1,8,0:0:0:0:
64,192,129832,128,2,129982:0:0:0:0:
192,192,129832,128,0,129982:0:0:0:0:
448,192,129832,128,0,129982:0:0:0:0:
320,192,129982,1,8,0:0:0:0:
64,192,130132,1,2,0:0:0:0:
192,192,130132,1,0,0:0:0:0:
320,192,130207,1,2,0:0:0:0:
448,192,130207,1,0,0:0:0:0:
64,192,130282,1,8,0:0:0:0:
192,192,130282,1,0,0:0:0:60:snare.wav
320,192,130357,1,8,0:0:0:0:
448,192,130357,1,0,0:0:0:70:snare.wav
64,192,130432,1,2,0:0:0:0:
192,192,130432,1,0,0:0:0:0:
64,192,130582,1,8,0:0:0:0:
320,192,130582,1,0,0:0:0:60:snare.wav
448,192,130582,1,0,0:0:0:0:
192,192,130732,1,2,0:0:0:0:
320,192,130732,1,0,0:0:0:0:
448,192,130882,128,0,131032:0:0:0:0:
64,192,131032,1,2,0:0:0:0:
192,192,131032,1,0,0:0:0:0:
320,192,131182,128,0,131332:0:0:0:0:
64,192,131332,1,2,0:0:0:0:
448,192,131332,1,0,0:0:0:0:
192,192,131482,128,0,131632:0:0:0:0:
320,192,131632,1,2,0:0:0:0:
448,192,131632,1,0,0:0:0:0:
64,192,131782,128,0,131932:0:0:0:0:
192,192,131932,1,2,0:0:0:0:
320,192,131932,128,0,132232:0:0:0:0:
448,192,132082,128,0,132232:0:0:0:0:
64,192,132232,1,2,0:0:0:0:
192,192,132232,1,0,0:0:0:0:
320,192,132382,128,0,132532:0:0:0:0:
64,192,132532,128,2,132832:0:0:0:0:
448,192,132532,1,0,0:0:0:0:
192,192,132682,128,0,132832:0:0:0:0:
320,192,132832,1,2,0:0:0:0:
448,192,132832,128,0,133132:0:0:0:0:
64,192,132982,128,0,133132:0:0:0:0:
192,192,133132,128,2,133432:0:0:0:0:
320,192,133132,1,0,0:0:0:0:
448,192,133282,128,0,133432:0:0:0:0:
64,192,133432,1,2,0:0:0:0:
320,192,133432,1,0,0:0:0:0:
320,192,133582,128,0,133732:0:0:0:0:
64,192,133732,1,2,0:0:0:0:
448,192,133732,1,0,0:0:0:0:
192,192,133882,128,0,134032:0:0:0:0:
64,192,134032,1,8,0:0:0:0:
320,192,134032,128,0,134332:0:0:0:60:snare.wav
448,192,134032,1,0,0:0:0:0:
192,192,134332,1,2,0:0:0:0:
448,192,134332,128,0,134632:0:0:0:0:
64,192,134632,128,8,134932:0:0:0:0:
192,192,134632,1,0,0:0:0:60:snare.wav
320,192,134632,1,0,0:0:0:0:
320,192,134932,1,2,0:0:0:0:
448,192,134932,1,0,0:0:0:0:
64,192,135082,1,2,0:0:0:0:
192,192,135082,1,0,0:0:0:0:
64,192,135232,1,8,0:0:0:0:
320,192,135232,1,0,0:0:0:60:snare.wav
448,192,135232,1,0,0:0:0:0:
64,192,135382,1,8,0:0:0:0:
192,192,135382,1,0,0:0:0:70:snare.wav
448,192,135382,1,0,0:0:0:0:
320,192,135457,1,0,0:0:0:0:
192,192,135532,1,2,0:0:0:0:
448,192,135532,1,0,0:0:0:0:
64,192,135682,1,0,0:0:0:0:
192,192,135832,1,2,0:0:0:0:
320,192,135832,1,0,0:0:0:0:
448,192,135982,1,0,0:0:0:0:
64,192,136132,1,2,0:0:0:0:
192,192,136132,1,0,0:0:0:0:
448,192,136207,1,0,0:0:0:0:
320,192,136282,1,0,0:0:0:0:
64,192,136432,1,2,0:0:0:0:
448,192,136432,1,0,0:0:0:0:
192,192,136582,1,0,0:0:0:0:
320,192,136732,1,2,0:0:0:0:
448,192,136732,1,0,0:0:0:0:
192,192,136882,1,2,0:0:0:0:
448,192,136882,1,0,0:0:0:0:
64,192,137032,1,2,0:0:0:0:
320,192,137107,1,2,0:0:0:0:
192,192,137182,1,2,0:0:0:0:
448,192,137257,1,2,0:0:0:0:
64,192,137332,1,2,0:0:0:0:
320,192,137407,1,2,0:0:0:0:
192,192,137482,1,2,0:0:0:0:
448,192,137557,1,2,0:0:0:0:
320,192,137632,128,0,137932:0:0:0:0:
64,192,137932,1,4,0:0:0:0:
192,192,137932,1,2,0:0:0:0:
448,192,137932,1,0,0:0:0:0:
192,192,138082,1,2,0:0:0:0:
320,192,138082,1,0,0:0:0:0:
64,192,138232,1,8,0:0:0:0:
320,192,138232,1,0,0:0:0:60:snare.wav
448,192,138232,1,0,0:0:0:0:
64,192,138382,1,2,0:0:0:0:
192,192,138382,1,0,0:0:0:0:
320,192,138532,1,2,0:0:0:0:
448,192,138532,1,0,0:0:0:0:
192,192,138607,1,0,0:0:0:0:
64,192,138682,1,2,0:0:0:0:
448,192,138682,1,0,0:0:0:0:
320,192,138757,1,2,0:0:0:0:
64,192,138832,1,8,0:0:0:0:
192,192,138832,1,0,0:0:0:60:snare.wav
448,192,138832,1,0,0:0:0:0:
192,192,138982,1,2,0:0:0:0:
320,192,138982,1,0,0:0:0:0:
64,192,139132,1,2,0:0:0:0:
448,192,139132,1,0,0:0:0:0:
64,192,139282,1,8,0:0:0:0:
192,192,139282,1,0,0:0:0:60:snare.wav
320,192,139282,1,0,0:0:0:0:
448,192,139432,1,2,0:0:0:0:
192,192,139432,1,0,0:0:0:0:
64,192,139582,1,8,0:0:0:0:
192,192,139582,1,0,0:0:0:60:snare.wav
320,192,139582,1,0,0:0:0:0:
320,192,139732,1,2,0:0:0:0:
448,192,139732,1,0,0:0:0:0:
64,192,139807,1,2,0:0:0:0:
192,192,139807,1,0,0:0:0:0:
320,192,139882,1,8,0:0:0:0:
448,192,139882,1,0,0:0:0:60:snare.wav
64,192,139957,1,8,0:0:0:0:
192,192,139957,1,0,0:0:0:70:snare.wav
320,192,140032,1,2,0:0:0:0:
448,192,140032,1,0,0:0:0:0:
64,192,140182,1,8,0:0:0:0:
192,192,140182,1,0,0:0:0:60:snare.wav
448,192,140182,1,0,0:0:0:0:
64,192,140332,1,2,0:0:0:0:
320,192,140332,1,0,0:0:0:0:
192,192,140482,1,2,0:0:0:0:
448,192,140482,1,0,0:0:0:0:
64,192,140632,1,8,0:0:0:0:
320,192,140632,1,0,0:0:0:60:snare.wav
448,192,140632,1,0,0:0:0:0:
192,192,140782,1,2,0:0:0:0:
320,192,140782,1,0,0:0:0:0:
64,192,140932,1,2,0:0:0:0:
448,192,140932,1,0,0:0:0:0:
64,192,141082,1,2,0:0:0:0:
192,192,141082,1,0,0:0:0:0:
320,192,141157,1,2,0:0:0:0:
448,192,141157,1,0,0:0:0:0:
64,192,141232,1,8,0:0:0:0:
192,192,141232,1,0,0:0:0:60:snare.wav
448,192,141232,1,0,0:0:0:0:
192,192,141382,1,2,0:0:0:0:
320,192,141382,1,0,0:0:0:0:
64,192,141532,1,2,0:0:0:0:
448,192,141532,1,0,0:0:0:0:
64,192,141682,1,8,0:0:0:0:
192,192,141682,1,0,0:0:0:60:snare.wav
320,192,141682,1,0,0:0:0:0:
192,192,141832,1,2,0:0:0:0:
448,192,141832,1,0,0:0:0:0:
64,192,141982,1,8,0:0:0:0:
320,192,141982,1,0,0:0:0:60:snare.wav
448,192,141982,1,0,0:0:0:0:
64,192,142132,1,2,0:0:0:0:
192,192,142132,1,0,0:0:0:0:
448,192,142207,1,2,0:0:0:0:
192,192,142282,1,8,0:0:0:0:
320,192,142282,1,0,0:0:0:60:snare.wav
64,192,142357,1,8,0:0:0:0:
320,192,142432,1,2,0:0:0:0:
448,192,142432,1,0,0:0:0:0:
64,192,142582,1,8,0:0:0:0:
192,192,142582,1,0,0:0:0:60:snare.wav
448,192,142582,1,0,0:0:0:0:
64,192,142732,1,2,0:0:0:0:
320,192,142732,1,0,0:0:0:0:
192,192,142882,1,2,0:0:0:0:
448,192,142882,1,0,0:0:0:0:
64,192,143032,1,8,0:0:0:0:
192,192,143032,1,0,0:0:0:60:snare.wav
320,192,143032,1,0,0:0:0:0:
64,192,143182,1,2,0:0:0:0:
448,192,143182,1,0,0:0:0:0:
192,192,143332,1,2,0:0:0:0:
320,192,143332,1,0,0:0:0:0:
448,192,143407,1,0,0:0:0:0:
64,192,143482,1,2,0:0:0:0:
192,192,143482,1,0,0:0:0:0:
320,192,143557,1,2,0:0:0:0:
64,192,143632,1,8,0:0:0:0:
192,192,143632,1,0,0:0:0:60:snare.wav
448,192,143632,1,0,0:0:0:0:
192,192,143782,1,2,0:0:0:0:
320,192,143782,1,0,0:0:0:0:
64,192,143932,1,2,0:0:0:0:
448,192,143932,1,0,0:0:0:0:
64,192,144082,1,8,0:0:0:0:
192,192,144082,1,0,0:0:0:60:snare.wav
448,192,144082,1,0,0:0:0:0:
192,192,144232,1,2,0:0:0:0:
320,192,144232,1,0,0:0:0:0:
64,192,144382,1,8,0:0:0:0:
320,192,144382,1,0,0:0:0:60:snare.wav
448,192,144382,1,0,0:0:0:0:
64,192,144532,1,2,0:0:0:0:
192,192,144532,1,0,0:0:0:0:
320,192,144607,1,2,0:0:0:0:
448,192,144607,1,0,0:0:0:0:
64,192,144682,1,8,0:0:0:0:
192,192,144682,1,0,0:0:0:60:snare.wav
320,192,144757,1,8,0:0:0:0:
448,192,144757,1,0,0:0:0:70:snare.wav
64,192,144832,1,2,0:0:0:0:
192,192,144832,1,0,0:0:0:0:
192,192,144982,1,8,0:0:0:0:
320,192,144982,1,0,0:0:0:60:snare.wav
448,192,144982,1,0,0:0:0:0:
64,192,145132,1,2,0:0:0:0:
320,192,145132,1,0,0:0:0:0:
192,192,145282,1,2,0:0:0:0:
448,192,145282,1,0,0:0:0:0:
64,192,145432,1,8,0:0:0:0:
320,192,145432,1,0,0:0:0:60:snare.wav
448,192,145432,1,0,0:0:0:0:
192,192,145582,1,2,0:0:0:0:
320,192,145582,1,0,0:0:0:0:
64,192,145732,1,2,0:0:0:0:
448,192,145732,1,0,0:0:0:0:
192,192,145807,1,0,0:0:0:0:
320,192,145882,1,2,0:0:0:0:
448,192,145882,1,0,0:0:0:0:
192,192,145957,1,2,0:0:0:0:
64,192,146032,1,8,0:0:0:0:
320,192,146032,1,0,0:0:0:60:snare.wav
448,192,146032,1,0,0:0:0:0:
192,192,146182,1,2,0:0:0:0:
320,192,146182,1,0,0:0:0:0:
64,192,146332,1,2,0:0:0:0:
448,192,146332,1,0,0:0:0:0:
192,192,146482,1,8,0:0:0:0:
320,192,146482,1,0,0:0:0:60:snare.wav
448,192,146482,1,0,0:0:0:0:
64,192,146632,1,2,0:0:0:0:
320,192,146632,1,0,0:0:0:0:
64,192,146782,1,8,0:0:0:0:
192,192,146782,1,0,0:0:0:60:snare.wav
448,192,146782,1,0,0:0:0:0:
320,192,146932,1,2,0:0:0:0:
448,192,146932,1,0,0:0:0:0:
64,192,147082,1,8,0:0:0:0:
192,192,147082,1,0,0:0:0:60:snare.wav
320,192,147157,1,8,0:0:0:0:
448,192,147157,1,0,0:0:0:70:snare.wav
64,192,147232,1,8,0:0:0:0:
192,192,147232,1,0,0:0:0:60:snare.wav
320,192,147307,1,0,0:0:0:0:
192,192,147382,1,0,0:0:0:0:
320,192,147457,1,0,0:0:0:0:
64,192,147532,1,2,0:0:0:0:
448,192,147532,1,0,0:0:0:0:
320,192,147682,1,0,0:0:0:0:
64,192,147832,1,8,0:0:0:0:
192,192,147832,1,2,0:0:0:0:
448,192,147832,1,0,0:0:0:60:snare.wav
320,192,147982,128,0,148132:0:0:0:0:
192,192,148132,1,2,0:0:0:0:
448,192,148132,1,0,0:0:0:0:
64,192,148282,128,0,148432:0:0:0:0:
192,192,148432,1,8,0:0:0:0:
320,192,148432,1,2,0:0:0:0:
448,192,148432,1,0,0:0:0:60:snare.wav
448,192,148582,128,0,148732:0:0:0:0:
64,192,148732,1,2,0:0:0:0:
320,192,148732,1,0,0:0:0:0:
192,192,148882,128,0,149032:0:0:0:0:
64,192,149032,1,2,0:0:0:0:
320,192,149032,1,8,0:0:0:0:
448,192,149032,1,0,0:0:0:60:snare.wav
320,192,149182,128,0,149332:0:0:0:0:
192,192,149332,1,2,0:0:0:0:
448,192,149332,1,0,0:0:0:0:
64,192,149482,128,0,149632:0:0:0:0:
192,192,149632,1,8,0:0:0:0:
320,192,149632,1,2,0:0:0:0:
448,192,149632,1,0,0:0:0:60:snare.wav
192,192,149782,128,0,149932:0:0:0:0:
64,192,149932,1,2,0:0:0:0:
448,192,149932,1,0,0:0:0:0:
320,192,150007,1,0,0:0:0:0:
192,192,150082,1,2,0:0:0:0:
64,192,150157,1,0,0:0:0:0:
192,192,150232,1,8,0:0:0:0:
320,192,150232,1,0,0:0:0:60:snare.wav
448,192,150232,1,0,0:0:0:0:
64,192,150382,1,2,0:0:0:0:
320,192,150382,1,0,0:0:0:0:
192,192,150532,1,2,0:0:0:0:
320,192,150532,1,0,0:0:0:0:
64,192,150682,1,2,0:0:0:0:
448,192,150682,1,0,0:0:0:0:
192,192,150757,1,2,0:0:0:0:
64,192,150832,1,8,0:0:0:0:
320,192,150832,1,0,0:0:0:60:snare.wav
448,192,150832,1,0,0:0:0:0:
192,192,150982,1,2,0:0:0:0:
320,192,150982,1,0,0:0:0:0:
64,192,151132,1,2,0:0:0:0:
448,192,151132,1,0,0:0:0:0:
64,192,151282,1,8,0:0:0:0:
320,192,151282,1,0,0:0:0:60:snare.wav
448,192,151282,1,0,0:0:0:0:
192,192,151432,1,2,0:0:0:0:
320,192,151432,1,0,0:0:0:0:
64,192,151582,1,8,0:0:0:0:
192,192,151582,1,0,0:0:0:60:snare.wav
448,192,151582,1,0,0:0:0:0:
320,192,151732,1,2,0:0:0:0:
448,192,151732,1,0,0:0:0:0:
64,192,151807,1,2,0:0:0:0:
192,192,151807,1,0,0:0:0:0:
320,192,151882,1,8,0:0:0:0:
448,192,151882,1,0,0:0:0:60:snare.wav
64,192,151957,1,8,0:0:0:0:
192,192,151957,1,0,0:0:0:70:snare.wav
320,192,152032,1,2,0:0:0:0:
448,192,152032,1,0,0:0:0:0:
64,192,152182,1,8,0:0:0:0:
192,192,152182,1,0,0:0:0:60:snare.wav
448,192,152182,1,0,0:0:0:0:
192,192,152332,128,2,152632:0:0:0:0:
320,192,152332,1,0,0:0:0:0:
448,192,152482,128,0,152632:0:0:0:0:
64,192,152632,1,2,0:0:0:0:
320,192,152632,1,0,0:0:0:0:
192,192,152782,128,0,152932:0:0:0:0:
64,192,152932,128,2,153232:0:0:0:0:
320,192,152932,1,0,0:0:0:0:
448,192,153082,128,0,153232:0:0:0:0:
192,192,153232,1,2,0:0:0:0:
320,192,153232,1,0,0:0:0:0:
192,192,153382,128,0,153532:0:0:0:0:
320,192,153532,128,2,153682:0:0:0:0:
448,192,153532,1,0,0:0:0:0:
64,192,153682,128,0,153832:0:0:0:0:
192,192,153832,128,2,153982:0:0:0:0:
320,192,153832,1,0,0:0:0:0:
448,192,153982,128,0,154132:0:0:0:0:
192,192,154132,1,2,0:0:0:0:
320,192,154132,128,0,154432:0:0:0:0:
64,192,154282,1,0,0:0:0:0:
192,192,154357,1,0,0:0:0:0:
64,192,154432,1,2,0:0:0:0:
448,192,154432,1,0,0:0:0:0:
192,192,154582,128,0,154732:0:0:0:0:
320,192,154582,1,0,0:0:0:0:
64,192,154732,1,2,0:0:0:0:
448,192,154732,128,0,155032:0:0:0:0:
320,192,154882,128,0,155032:0:0:0:0:
64,192,155032,1,2,0:0:0:0:
192,192,155032,1,0,0:0:0:0:
64,192,155182,128,0,155332:0:0:0:0:
448,192,155182,128,0,155257:0:0:0:0:
320,192,155257,128,0,155332:0:0:0:0:
192,192,155332,128,2,155632:0:0:0:0:
448,192,155482,128,0,155632:0:0:0:0:
64,192,155632,1,8,0:0:0:0:
320,192,155632,1,0,0:0:0:60:snare.wav
192,192,155782,1,8,0:0:0:0:
448,192,155782,1,0,0:0:0:70:snare.wav
64,192,155932,128,2,156082:0:0:0:0:
320,192,155932,1,0,0:0:0:0:
448,192,155932,1,0,0:0:0:0:
192,192,156082,128,0,156232:0:0:0:0:
64,192,156232,1,8,0:0:0:0:
320,192,156232,128,2,156382:0:0:0:0:
448,192,156232,1,0,0:0:0:60:snare.wav
448,192,156382,128,0,156532:0:0:0:0:
192,192,156457,1,2,0:0:0:0:
64,192,156532,128,2,156682:0:0:0:0:
320,192,156532,1,0,0:0:0:0:
192,192,156682,128,2,156832:0:0:0:0:
448,192,156682,1,0,0:0:0:70:snare.wav
64,192,156832,1,8,0:0:0:0:
320,192,156832,128,2,156982:0:0:0:0:
448,192,156832,1,0,0:0:0:60:snare.wav
64,192,156982,1,8,0:0:0:0:
192,192,156982,1,0,0:0:0:60:snare.wav
448,192,156982,128,0,157132:0:0:0:0:
