osu file format v14

[General]
AudioFilename: audio.mp3
AudioLeadIn: 0
PreviewTime: 39296
Countdown: 0
SampleSet: Normal
StackLeniency: 0.7
Mode: 1
LetterboxInBreaks: 0
WidescreenStoryboard: 1

[Editor]
Bookmarks: 78120
DistanceSpacing: 1.1
BeatDivisor: 4
GridSize: 32
TimelineZoom: 0.6999999

[Metadata]
Title:Asagao no Chiru Koro ni
TitleUnicode:アサガオの散る頃に
Artist:TUYU
ArtistUnicode:ツユ
Creator:Joltzzz
Version:Yukaz's Futsuu
Source:
Tags:alwaysyukaz [r] ron やっぱり雨は降るんだね yappari ame wa ha furun da ne when the morning glory falls jpop j-pop japanese pop pusu ぷす omutatsu おむたつ rei 礼衣 じっぷす Zips It's Raining After All
BeatmapID:3525350
BeatmapSetID:1718727

[Difficulty]
HPDrainRate:7
CircleSize:2
OverallDifficulty:4
ApproachRate:0
SliderMultiplier:1.4
SliderTickRate:1

[Events]
//Background and Video events
0,0,"asagao_bg.jpg",0,0
//Break Periods
2,68437,76320
//Storyboard Layer 0 (Background)
//Storyboard Layer 1 (Fail)
//Storyboard Layer 2 (Pass)
//Storyboard Layer 3 (Foreground)
//Storyboard Layer 4 (Overlay)
//Storyboard Sound Samples

[TimingPoints]
473,705.882352941176,4,1,0,60,1,0
34355,-100,4,1,0,10,0,0
39120,-100,4,1,0,75,0,0
40002,-100,4,1,0,80,0,1
65414,-100,4,1,0,80,0,0
68237,-100,4,1,0,60,0,0
102120,705.882352941176,4,1,0,60,1,8
103531,705.882352941176,4,1,0,85,1,1
128942,-100,4,1,0,85,0,0
129295,-100,4,1,0,50,0,0
141648,-100,4,1,0,70,0,0
142001,-100,4,1,0,75,0,0
142354,-100,4,1,0,80,0,0
142707,-100,4,1,0,85,0,0
143060,-100,4,1,0,90,0,1
154354,-100,4,1,0,100,0,1
179766,-100,4,1,0,100,0,0
181530,-100,4,1,0,80,0,0
181883,-100,4,1,0,70,0,0
182236,-100,4,1,0,60,0,0
182589,-100,4,1,0,30,0,0

[HitObjects]
256,192,473,5,0,0:0:0:0:
256,192,1178,1,8,0:0:0:0:
256,192,1884,1,8,0:0:0:0:
256,192,2590,1,8,0:0:0:0:
256,192,3296,1,8,0:0:0:0:
256,192,3649,1,8,0:0:0:0:
256,192,4002,1,0,0:0:0:0:
256,192,4708,1,8,0:0:0:0:
256,192,5061,1,8,0:0:0:0:
256,192,5414,1,0,0:0:0:0:
256,192,5767,1,0,0:0:0:0:
256,192,6120,1,8,0:0:0:0:
256,192,6825,1,8,0:0:0:0:
256,192,7531,1,0,0:0:0:0:
256,192,8237,1,0,0:0:0:0:
256,192,8943,1,0,0:0:0:0:
256,192,9649,1,8,0:0:0:0:
256,192,10355,1,8,0:0:0:0:
256,192,11061,1,0,0:0:0:0:
256,192,11414,1,0,0:0:0:0:
256,192,11767,1,4,0:0:0:0:
256,192,12472,1,8,0:0:0:0:
256,192,13178,1,8,0:0:0:0:
256,192,13531,1,0,0:0:0:0:
256,192,13884,1,8,0:0:0:0:
256,192,14590,1,0,0:0:0:0:
256,192,14943,1,8,0:0:0:0:
256,192,15296,1,0,0:0:0:0:
256,192,16002,1,0,0:0:0:0:
256,192,16355,1,0,0:0:0:0:
256,192,16708,1,8,0:0:0:0:
256,192,17061,1,0,0:0:0:0:
256,192,17414,1,8,0:0:0:0:
256,192,18120,1,8,0:0:0:0:
256,192,18825,1,0,0:0:0:0:
256,192,19178,1,0,0:0:0:0:
256,192,19531,1,8,0:0:0:0:
256,192,19884,1,8,0:0:0:0:
256,192,20237,1,0,0:0:0:0:
256,192,20943,1,8,0:0:0:0:
256,192,21649,1,8,0:0:0:0:
256,192,22002,1,0,0:0:0:0:
256,192,22355,1,8,0:0:0:0:
256,192,22708,1,8,0:0:0:0:
256,192,23061,1,4,0:0:0:0:
256,192,23767,1,8,0:0:0:0:
256,192,24472,1,0,0:0:0:0:
256,192,24825,1,0,0:0:0:0:
256,192,25178,1,8,0:0:0:0:
256,192,25884,1,0,0:0:0:0:
256,192,26590,1,0,0:0:0:0:
256,192,27296,1,0,0:0:0:0:
256,192,27649,1,8,0:0:0:0:
256,192,28002,1,8,0:0:0:0:
256,192,28355,1,0,0:0:0:0:
256,192,28708,1,8,0:0:0:0:
256,192,29414,1,8,0:0:0:0:
256,192,30120,1,0,0:0:0:0:
256,192,30472,1,0,0:0:0:0:
256,192,30825,1,8,0:0:0:0:
256,192,31178,1,8,0:0:0:0:
256,192,31531,1,0,0:0:0:0:
256,192,32237,1,8,0:0:0:0:
256,192,32943,1,0,0:0:0:0:
256,192,33296,1,0,0:0:0:0:
256,192,33649,1,8,0:0:0:0:
256,192,34002,1,8,0:0:0:0:
256,192,34355,12,0,38590,0:0:0:0:
256,192,39296,5,8,0:0:0:0:
256,192,39649,1,8,0:0:0:0:
256,192,40002,1,4,0:0:0:0:
256,192,40708,1,8,0:0:0:0:
256,192,41414,1,0,0:0:0:0:
256,192,41767,1,0,0:0:0:0:
256,192,42120,1,8,0:0:0:0:
256,192,42472,1,8,0:0:0:0:
256,192,42825,1,0,0:0:0:0:
256,192,43531,1,8,0:0:0:0:
256,192,44237,1,0,0:0:0:0:
256,192,44590,1,8,0:0:0:0:
256,192,44943,1,8,0:0:0:0:
256,192,45296,1,8,0:0:0:0:
256,192,45649,1,0,0:0:0:0:
256,192,46355,1,8,0:0:0:0:
256,192,47061,1,8,0:0:0:0:
256,192,47414,1,8,0:0:0:0:
256,192,47767,1,0,0:0:0:0:
256,192,48472,1,8,0:0:0:0:
256,192,48825,1,0,0:0:0:0:
256,192,49178,1,8,0:0:0:0:
256,192,49884,1,12,0:0:0:0:
256,192,50237,1,8,0:0:0:0:
256,192,50590,1,0,0:0:0:0:
256,192,50943,1,0,0:0:0:0:
256,192,51296,1,12,0:0:0:0:
256,192,52002,1,8,0:0:0:0:
256,192,52708,1,0,0:0:0:0:
256,192,53061,1,0,0:0:0:0:
256,192,53414,1,8,0:0:0:0:
256,192,53767,1,8,0:0:0:0:
256,192,54472,1,0,0:0:0:0:
256,192,54825,1,8,0:0:0:0:
256,192,55531,1,0,0:0:0:0:
256,192,55884,1,0,0:0:0:0:
256,192,56237,1,8,0:0:0:0:
256,192,56590,1,8,0:0:0:0:
256,192,56943,1,0,0:0:0:0:
256,192,57649,1,8,0:0:0:0:
256,192,58002,1,0,0:0:0:0:
256,192,58355,1,0,0:0:0:0:
256,192,58708,1,0,0:0:0:0:
256,192,59061,1,8,0:0:0:0:
256,192,59414,1,0,0:0:0:0:
256,192,59767,1,12,0:0:0:0:
256,192,60472,1,8,0:0:0:0:
256,192,61178,1,0,0:0:0:0:
256,192,61531,1,0,0:0:0:0:
256,192,61884,1,8,0:0:0:0:
256,192,62237,1,8,0:0:0:0:
256,192,62590,1,0,0:0:0:0:
256,192,63296,1,8,0:0:0:0:
256,192,64002,1,8,0:0:0:0:
256,192,64708,1,8,0:0:0:0:
256,192,65061,1,8,0:0:0:0:
256,192,65414,1,4,0:0:0:0:
256,192,67178,1,0,0:0:0:0:
256,192,67531,1,8,0:0:0:0:
256,192,67884,1,8,0:0:0:0:
256,192,68237,1,0,0:0:0:0:
256,192,78120,5,8,0:0:0:0:
256,192,78825,1,8,0:0:0:0:
256,192,79178,1,8,0:0:0:0:
256,192,79531,1,4,0:0:0:0:
256,192,80237,1,8,0:0:0:0:
256,192,80943,1,8,0:0:0:0:
256,192,81296,1,0,0:0:0:0:
256,192,81649,1,8,0:0:0:0:
256,192,82002,1,0,0:0:0:0:
256,192,82355,1,0,0:0:0:0:
256,192,83061,1,8,0:0:0:0:
256,192,83767,1,0,0:0:0:0:
256,192,84120,1,0,0:0:0:0:
256,192,84472,1,8,0:0:0:0:
256,192,84825,1,8,0:0:0:0:
256,192,85178,1,0,0:0:0:0:
256,192,85884,1,8,0:0:0:0:
256,192,86590,1,0,0:0:0:0:
256,192,86943,1,8,0:0:0:0:
256,192,87296,1,8,0:0:0:0:
256,192,87649,1,0,0:0:0:0:
256,192,88002,1,0,0:0:0:0:
256,192,88708,1,8,0:0:0:0:
256,192,89414,1,0,0:0:0:0:
256,192,89767,1,0,0:0:0:0:
256,192,90120,1,8,0:0:0:0:
256,192,90472,1,8,0:0:0:0:
256,192,90825,1,4,0:0:0:0:
256,192,91531,1,8,0:0:0:0:
256,192,92237,1,8,0:0:0:0:
256,192,92590,1,0,0:0:0:0:
256,192,92943,1,8,0:0:0:0:
256,192,93296,1,8,0:0:0:0:
256,192,93649,1,0,0:0:0:0:
256,192,94355,1,8,0:0:0:0:
256,192,95061,1,0,0:0:0:0:
256,192,95414,1,8,0:0:0:0:
256,192,95767,1,8,0:0:0:0:
256,192,96120,1,0,0:0:0:0:
256,192,96472,1,0,0:0:0:0:
256,192,97178,1,8,0:0:0:0:
256,192,97884,1,0,0:0:0:0:
256,192,98237,1,0,0:0:0:0:
256,192,98590,1,8,0:0:0:0:
256,192,98943,1,0,0:0:0:0:
256,192,99296,1,8,0:0:0:0:
256,192,100002,1,8,0:0:0:0:
256,192,100708,1,0,0:0:0:0:
256,192,101061,1,0,0:0:0:0:
256,192,101414,1,8,0:0:0:0:
256,192,101767,1,8,0:0:0:0:
256,192,102120,1,0,0:0:0:0:
256,192,103531,1,4,0:0:0:0:
256,192,104236,1,8,0:0:0:0:
256,192,104942,1,0,0:0:0:0:
256,192,105295,1,0,0:0:0:0:
256,192,105648,1,8,0:0:0:0:
256,192,106001,1,8,0:0:0:0:
256,192,106354,1,0,0:0:0:0:
256,192,107060,1,8,0:0:0:0:
256,192,107766,1,8,0:0:0:0:
256,192,108119,1,8,0:0:0:0:
256,192,108472,1,8,0:0:0:0:
256,192,109178,1,0,0:0:0:0:
256,192,109883,1,8,0:0:0:0:
256,192,110236,1,8,0:0:0:0:
256,192,110589,1,0,0:0:0:0:
256,192,110942,1,0,0:0:0:0:
256,192,111295,1,8,0:0:0:0:
256,192,111648,1,8,0:0:0:0:
256,192,112001,1,0,0:0:0:0:
256,192,112707,1,0,0:0:0:0:
256,192,113413,1,12,0:0:0:0:
256,192,114119,1,0,0:0:0:0:
256,192,114472,1,0,0:0:0:0:
256,192,114825,1,12,0:0:0:0:
256,192,115531,1,8,0:0:0:0:
256,192,116236,1,0,0:0:0:0:
256,192,116589,1,0,0:0:0:0:
256,192,116942,1,8,0:0:0:0:
256,192,117295,1,8,0:0:0:0:
256,192,117648,1,0,0:0:0:0:
256,192,118354,1,8,0:0:0:0:
256,192,119060,1,8,0:0:0:0:
256,192,119413,1,0,0:0:0:0:
256,192,119766,1,8,0:0:0:0:
256,192,120119,1,8,0:0:0:0:
256,192,120472,1,0,0:0:0:0:
256,192,121178,1,8,0:0:0:0:
256,192,121883,1,0,0:0:0:0:
256,192,122236,1,0,0:0:0:0:
256,192,122589,1,8,0:0:0:0:
256,192,122942,1,0,0:0:0:0:
256,192,123295,1,12,0:0:0:0:
256,192,124001,1,8,0:0:0:0:
256,192,124354,1,8,0:0:0:0:
256,192,124707,1,0,0:0:0:0:
256,192,125060,1,0,0:0:0:0:
256,192,125413,1,8,0:0:0:0:
256,192,126119,1,8,0:0:0:0:
256,192,126825,1,8,0:0:0:0:
256,192,127530,1,8,0:0:0:0:
256,192,127883,1,8,0:0:0:0:
256,192,128236,1,0,0:0:0:0:
256,192,128589,1,0,0:0:0:0:
256,192,128942,1,12,0:0:0:0:
256,192,131060,5,8,0:0:0:0:
256,192,131413,1,8,0:0:0:0:
256,192,131766,1,0,0:0:0:0:
256,192,132472,1,0,0:0:0:0:
256,192,132825,1,0,0:0:0:0:
256,192,133178,1,8,0:0:0:0:
256,192,133883,1,0,0:0:0:0:
256,192,134236,1,8,0:0:0:0:
256,192,134942,1,8,0:0:0:0:
256,192,135295,1,0,0:0:0:0:
256,192,136001,1,0,0:0:0:0:
256,192,136354,1,0,0:0:0:0:
256,192,136707,1,8,0:0:0:0:
256,192,137060,1,8,0:0:0:0:
256,192,137766,1,0,0:0:0:0:
256,192,138119,1,8,0:0:0:0:
256,192,138825,1,0,0:0:0:0:
256,192,139178,1,8,0:0:0:0:
256,192,139530,1,8,0:0:0:0:
256,192,139883,1,8,0:0:0:0:
256,192,141648,1,8,0:0:0:0:
256,192,142001,1,8,0:0:0:0:
256,192,142354,1,8,0:0:0:0:
256,192,142707,1,8,0:0:0:0:
256,192,143060,1,4,0:0:0:0:
256,192,143766,1,8,0:0:0:0:
256,192,144472,1,0,0:0:0:0:
256,192,144825,1,0,0:0:0:0:
256,192,145178,1,8,0:0:0:0:
256,192,145530,1,8,0:0:0:0:
416,128,146236,5,0,0:0:0:0:
256,192,146589,1,8,0:0:0:0:
256,192,147295,1,0,0:0:0:0:
256,192,147648,1,0,0:0:0:0:
256,192,148001,1,8,0:0:0:0:
256,192,148707,1,0,0:0:0:0:
256,192,149413,1,8,0:0:0:0:
256,192,150119,1,0,0:0:0:0:
256,192,150472,1,0,0:0:0:0:
256,192,150825,1,8,0:0:0:0:
256,192,151530,1,12,0:0:0:0:
256,192,152236,1,8,0:0:0:0:
256,192,152942,1,4,0:0:0:0:
256,192,153295,1,8,0:0:0:0:
256,192,153648,1,8,0:0:0:0:
256,192,154001,1,8,0:0:0:0:
256,192,154354,1,4,0:0:0:0:
256,192,155060,1,8,0:0:0:0:
256,192,155413,1,8,0:0:0:0:
256,192,155766,1,0,0:0:0:0:
256,192,156119,1,0,0:0:0:0:
256,192,156472,1,8,0:0:0:0:
256,192,157178,1,8,0:0:0:0:
256,192,157883,1,8,0:0:0:0:
256,192,158589,1,0,0:0:0:0:
256,192,158942,1,0,0:0:0:0:
256,192,159295,1,8,0:0:0:0:
256,192,159648,1,0,0:0:0:0:
256,192,160001,1,8,0:0:0:0:
256,192,160707,1,8,0:0:0:0:
256,192,161413,1,8,0:0:0:0:
256,192,161766,1,8,0:0:0:0:
256,192,162119,1,0,0:0:0:0:
256,192,162472,1,0,0:0:0:0:
256,192,162825,1,12,0:0:0:0:
256,192,163530,1,12,0:0:0:0:
256,192,164236,1,12,0:0:0:0:
256,192,164942,1,0,0:0:0:0:
256,192,165295,1,0,0:0:0:0:
256,192,165648,1,12,0:0:0:0:
256,192,166354,1,8,0:0:0:0:
256,192,167060,1,0,0:0:0:0:
256,192,167766,1,8,0:0:0:0:
256,192,168119,1,8,0:0:0:0:
256,192,168472,1,0,0:0:0:0:
256,192,168825,1,0,0:0:0:0:
256,192,169178,1,8,0:0:0:0:
256,192,169883,1,0,0:0:0:0:
256,192,170589,1,8,0:0:0:0:
256,192,170942,1,8,0:0:0:0:
256,192,171295,1,0,0:0:0:0:
256,192,172001,1,8,0:0:0:0:
256,192,172354,1,0,0:0:0:0:
256,192,172707,1,8,0:0:0:0:
256,192,173060,1,8,0:0:0:0:
256,192,173413,1,0,0:0:0:0:
256,192,174119,1,4,0:0:0:0:
256,192,174825,1,8,0:0:0:0:
256,192,175530,1,8,0:0:0:0:
256,192,175883,1,8,0:0:0:0:
256,192,176236,1,8,0:0:0:0:
256,192,176589,1,8,0:0:0:0:
256,192,176942,1,0,0:0:0:0:
256,192,177648,1,8,0:0:0:0:
256,192,178354,1,8,0:0:0:0:
256,192,179060,1,8,0:0:0:0:
256,192,179413,1,8,0:0:0:0:
256,192,179766,1,0,0:0:0:0:
256,192,181530,5,0,0:0:0:0:
256,192,181883,1,8,0:0:0:0:
256,192,182236,1,8,0:0:0:0:
256,192,182589,1,0,0:0:0:0:
256,192,183295,1,8,0:0:0:0:
256,192,183648,1,8,0:0:0:0:
256,192,184001,1,0,0:0:0:0:
256,192,184707,1,0,0:0:0:0:
256,192,185413,1,8,0:0:0:0:
256,192,186825,1,8,0:0:0:0:
256,192,187178,1,8,0:0:0:0:
256,192,187530,1,8,0:0:0:0:
256,192,187883,1,8,0:0:0:0:
256,192,188236,1,0,0:0:0:0:
256,192,188942,1,8,0:0:0:0:
256,192,189295,1,8,0:0:0:0:
256,192,189648,1,0,0:0:0:0:
256,192,190354,1,0,0:0:0:0:
256,192,191060,1,8,0:0:0:0:
256,192,192472,1,0,0:0:0:0:
256,192,193530,1,8,0:0:0:0:
256,192,193883,12,0,199530,0:0:0:0:
