osu file format v14

[General]
AudioFilename: audio.mp3
AudioLeadIn: 0
PreviewTime: 132135
Countdown: 0
SampleSet: Soft
StackLeniency: 0.7
Mode: 3
LetterboxInBreaks: 0
SpecialStyle: 0
WidescreenStoryboard: 1

[Editor]
DistanceSpacing: 1.3
BeatDivisor: 12
GridSize: 32
TimelineZoom: 1.5

[Metadata]
Title:Asagao no Chiru Koro ni
TitleUnicode:アサガオの散る頃に
Artist:TUYU
ArtistUnicode:ツユ
Creator:Ihram-San
Version:I Will See The Morning Glory Rising
Source:
Tags:japanese jpop pop pusu ぷす omutatsu おむたつ rei 礼衣 hatsune miku 初音ミク cover じっぷす Zips It's Raining After All j-pop when the morning glory falls angki
BeatmapID:3103501
BeatmapSetID:1515875

[Difficulty]
HPDrainRate:8.5
CircleSize:4
OverallDifficulty:8.5
ApproachRate:5
SliderMultiplier:1.4
SliderTickRate:1

[Events]
//Background and Video events
0,0,"Asa morning.jpg",0,0
//Break Periods
2,36335,38464
//Storyboard Layer 0 (Background)
//Storyboard Layer 1 (Fail)
//Storyboard Layer 2 (Pass)
//Storyboard Layer 3 (Foreground)
//Storyboard Layer 4 (Overlay)
//Storyboard Sound Samples

[TimingPoints]
1547,705.882352941176,4,2,1,50,1,0
1547,-100,4,2,1,50,0,0
41076,-100,4,2,1,50,0,1
66488,-100,4,2,1,50,0,0
104605,705.882352941176,4,2,1,50,1,0
144134,-100,4,2,1,50,0,1
154722,-100,4,2,1,50,0,0
155428,-100,4,2,1,50,0,1
180840,-100,4,2,1,50,0,0

[HitObjects]
192,192,1547,128,0,2252:0:0:0:0:
320,192,1547,1,0,0:0:0:0:
64,192,1899,128,0,2252:0:0:0:0:
320,192,2252,128,0,2958:0:0:0:0:
448,192,2252,1,0,0:0:0:0:
448,192,2605,128,0,2958:0:0:0:0:
64,192,2958,1,0,0:0:0:0:
192,192,2958,128,0,3664:0:0:0:0:
64,192,3311,128,0,3664:0:0:0:0:
320,192,3664,128,0,4370:0:0:0:0:
448,192,3664,1,0,0:0:0:0:
192,192,4017,128,0,4370:0:0:0:0:
64,192,4370,1,0,0:0:0:0:
448,192,4370,128,0,5076:0:0:0:0:
192,192,4723,128,0,5076:0:0:0:0:
320,192,4723,1,0,0:0:0:0:
64,192,5076,128,0,5782:0:0:0:0:
320,192,5076,1,0,0:0:0:0:
192,192,5429,1,0,0:0:0:0:
448,192,5429,128,0,5782:0:0:0:0:
192,192,5782,128,0,6488:0:0:0:0:
320,192,5782,1,0,0:0:0:0:
320,192,6135,128,0,6488:0:0:0:0:
448,192,6135,1,0,0:0:0:0:
64,192,6488,1,0,0:0:0:0:
448,192,6488,128,0,7194:0:0:0:0:
64,192,6841,1,0,0:0:0:0:
320,192,6841,128,0,7194:0:0:0:0:
64,192,7194,128,0,7899:0:0:0:0:
192,192,7194,1,0,0:0:0:0:
192,192,7546,128,0,7899:0:0:0:0:
320,192,7899,128,0,8605:0:0:0:0:
448,192,7899,1,0,0:0:0:0:
448,192,8252,128,0,8605:0:0:0:0:
64,192,8605,1,0,0:0:0:0:
192,192,8605,128,0,9311:0:0:0:0:
64,192,8958,128,0,9311:0:0:0:0:
320,192,9311,1,0,0:0:0:0:
448,192,9311,128,0,10017:0:0:0:0:
320,192,9664,128,0,10017:0:0:0:0:
64,192,10017,128,0,10723:0:0:0:0:
192,192,10017,1,0,0:0:0:0:
192,192,10723,1,0,0:0:0:0:
448,192,10723,1,0,0:0:0:0:
320,192,11076,1,0,0:0:0:0:
64,192,11252,1,8,0:0:0:0:
192,192,11311,1,8,0:0:0:0:
320,192,11370,1,8,0:0:0:0:
64,192,11429,1,8,0:0:0:0:
448,192,11429,1,0,0:0:0:0:
192,192,11605,1,8,0:0:0:0:
320,192,11605,1,0,0:0:0:0:
64,192,11958,1,8,0:0:0:0:
192,192,11958,1,0,0:0:0:0:
320,192,12135,1,8,0:0:0:0:
448,192,12135,1,0,0:0:0:0:
192,192,12488,1,8,0:0:0:0:
320,192,12488,1,0,0:0:0:0:
64,192,12841,1,2,0:0:0:0:
192,192,12841,1,4,0:0:0:0:
448,192,12841,128,0,14252:0:0:0:0:
320,192,13194,1,0,0:0:0:0:
64,192,13546,1,8,0:0:0:0:
192,192,13546,1,0,0:0:0:0:
64,192,13899,1,0,0:0:0:0:
192,192,14252,1,2,0:0:0:0:
320,192,14252,128,0,15664:0:0:0:0:
64,192,14605,1,2,0:0:0:0:
192,192,14958,1,8,0:0:0:0:
448,192,14958,1,0,0:0:0:0:
448,192,15311,1,0,0:0:0:0:
64,192,15664,128,2,17076:0:0:0:0:
192,192,15664,1,0,0:0:0:0:
192,192,16017,1,0,0:0:0:0:
320,192,16370,1,8,0:0:0:0:
448,192,16370,1,0,0:0:0:0:
320,192,16723,1,0,0:0:0:0:
192,192,17076,128,2,18488:0:0:0:0:
448,192,17076,1,0,0:0:0:0:
320,192,17429,1,2,0:0:0:0:
64,192,17782,1,8,0:0:0:0:
448,192,17782,1,0,0:0:0:0:
64,192,18135,1,0,0:0:0:0:
320,192,18488,128,2,19899:0:0:0:0:
448,192,18488,1,0,0:0:0:0:
448,192,18841,1,0,0:0:0:0:
64,192,19194,1,8,0:0:0:0:
192,192,19194,1,0,0:0:0:0:
192,192,19546,1,0,0:0:0:0:
64,192,19899,1,2,0:0:0:0:
448,192,19899,128,0,21311:0:0:0:0:
192,192,20252,1,2,0:0:0:0:
64,192,20605,1,8,0:0:0:0:
320,192,20605,1,0,0:0:0:0:
64,192,20958,1,0,0:0:0:0:
192,192,21311,1,2,0:0:0:0:
320,192,21311,128,0,22723:0:0:0:0:
64,192,21664,1,0,0:0:0:0:
192,192,22017,1,8,0:0:0:0:
448,192,22017,1,0,0:0:0:0:
448,192,22370,1,0,0:0:0:0:
64,192,22723,128,2,23429:0:0:0:0:
192,192,22723,1,0,0:0:0:0:
192,192,23076,128,2,23429:0:0:0:0:
448,192,23076,1,0,0:0:0:0:
320,192,23429,1,8,0:0:0:0:
448,192,23429,128,0,24135:0:0:0:0:
64,192,23782,1,2,0:0:0:0:
320,192,23782,128,0,24135:0:0:0:0:
64,192,24135,128,4,25546:0:0:0:0:
192,192,24135,1,2,0:0:0:0:
192,192,24488,1,0,0:0:0:0:
320,192,24841,1,8,0:0:0:0:
448,192,24841,1,0,0:0:0:0:
320,192,25194,1,0,0:0:0:0:
192,192,25546,128,2,26958:0:0:0:0:
448,192,25546,1,0,0:0:0:0:
320,192,25899,1,2,0:0:0:0:
64,192,26252,1,8,0:0:0:0:
448,192,26252,1,0,0:0:0:0:
64,192,26605,1,0,0:0:0:0:
320,192,26958,1,2,0:0:0:0:
448,192,26958,128,0,28370:0:0:0:0:
320,192,27311,1,0,0:0:0:0:
64,192,27664,1,8,0:0:0:0:
192,192,27664,1,0,0:0:0:0:
192,192,28017,1,0,0:0:0:0:
64,192,28370,1,2,0:0:0:0:
320,192,28370,128,0,29782:0:0:0:0:
192,192,28723,1,2,0:0:0:0:
64,192,29076,1,8,0:0:0:0:
448,192,29076,1,0,0:0:0:0:
448,192,29429,1,0,0:0:0:0:
64,192,29782,1,2,0:0:0:0:
192,192,29782,128,0,31194:0:0:0:0:
448,192,30135,1,0,0:0:0:0:
64,192,30488,1,8,0:0:0:0:
320,192,30488,1,0,0:0:0:0:
320,192,30841,1,0,0:0:0:0:
64,192,31194,128,2,32605:0:0:0:0:
448,192,31194,1,0,0:0:0:0:
320,192,31546,1,2,0:0:0:0:
192,192,31899,1,8,0:0:0:0:
448,192,31899,1,0,0:0:0:0:
192,192,32252,1,0,0:0:0:0:
320,192,32605,1,2,0:0:0:0:
448,192,32605,128,0,34017:0:0:0:0:
192,192,32958,1,0,0:0:0:0:
64,192,33311,1,8,0:0:0:0:
320,192,33311,1,0,0:0:0:0:
192,192,33664,1,0,0:0:0:0:
64,192,34017,128,2,34723:0:0:0:0:
320,192,34017,1,0,0:0:0:0:
320,192,34370,128,2,34723:0:0:0:0:
448,192,34370,1,0,0:0:0:0:
192,192,34723,1,8,0:0:0:0:
448,192,34723,128,0,35429:0:0:0:0:
64,192,35076,1,8,0:0:0:0:
192,192,35076,128,0,35429:0:0:0:0:
320,192,35429,128,0,36135:0:0:0:0:
320,192,39664,5,0,0:0:0:0:
192,192,40370,128,0,40723:0:0:0:0:
320,192,40723,128,0,41076:0:0:0:0:
64,192,41076,1,4,0:0:0:0:
192,192,41076,1,2,0:0:0:0:
448,192,41076,128,0,41782:0:0:0:70:twinkling.wav
192,192,41429,1,0,0:0:0:0:
64,192,41782,128,8,42135:0:0:0:0:
320,192,41782,128,0,42488:0:0:0:0:
448,192,42135,128,0,42488:0:0:0:0:
64,192,42488,128,2,42841:0:0:0:0:
192,192,42488,128,0,43194:0:0:0:0:
320,192,42841,1,2,0:0:0:0:
448,192,42841,128,0,43194:0:0:0:0:
64,192,43194,128,8,43899:0:0:0:0:
320,192,43194,128,0,43370:0:0:0:0:
192,192,43370,128,0,43546:0:0:0:0:
448,192,43546,128,0,43899:0:0:0:0:
192,192,43899,128,2,44605:0:0:0:0:
320,192,43899,1,0,0:0:0:0:
64,192,44252,128,0,44605:0:0:0:0:
320,192,44605,128,8,45311:0:0:0:0:
448,192,44605,1,0,0:0:0:0:
192,192,44958,1,0,0:0:0:0:
64,192,45311,128,2,45664:0:0:0:0:
448,192,45311,128,0,46017:0:0:0:0:
192,192,45664,128,2,46017:0:0:0:0:
320,192,45664,1,0,0:0:0:0:
64,192,46017,128,8,46723:0:0:0:0:
320,192,46017,128,0,46194:0:0:0:0:
448,192,46194,128,0,46370:0:0:0:0:
192,192,46370,128,0,46723:0:0:0:0:
320,192,46723,1,2,0:0:0:0:
448,192,46723,128,0,47429:0:0:0:0:
64,192,47076,128,0,47252:0:0:0:0:
192,192,47252,128,0,47429:0:0:0:0:
64,192,47429,128,8,47782:0:0:0:0:
320,192,47429,128,0,48135:0:0:0:0:
448,192,47782,128,0,48135:0:0:0:0:
64,192,48135,128,2,48841:0:0:0:0:
192,192,48135,128,0,48488:0:0:0:0:
320,192,48488,1,2,0:0:0:0:
448,192,48488,128,0,48841:0:0:0:0:
192,192,48841,128,8,49546:0:0:0:0:
320,192,48841,128,0,49194:0:0:0:0:
64,192,49194,128,0,49546:0:0:0:0:
320,192,49546,128,2,50252:0:0:0:0:
448,192,49546,128,0,49899:0:0:0:0:
192,192,49899,128,0,50252:0:0:0:0:
64,192,50252,128,8,50605:0:0:0:0:
448,192,50252,128,0,50958:0:0:0:0:
192,192,50605,128,0,50958:0:0:0:0:
64,192,50958,128,8,51664:0:0:0:0:
320,192,50958,128,4,51311:0:0:0:0:
192,192,51311,128,0,51664:0:0:0:0:
320,192,51664,128,0,52017:0:0:0:0:
448,192,51664,128,0,52370:0:0:0:0:
64,192,52017,1,2,0:0:0:0:
192,192,52017,128,0,52370:0:0:0:0:
64,192,52370,128,2,53076:0:0:0:0:
320,192,52370,1,4,0:0:0:0:
192,192,53076,128,8,53782:0:0:0:0:
448,192,53076,1,0,0:0:0:0:
64,192,53429,1,0,0:0:0:0:
320,192,53782,128,2,54488:0:0:0:0:
448,192,53782,128,0,54135:0:0:0:0:
64,192,54135,128,2,54488:0:0:0:0:
192,192,54135,1,0,0:0:0:0:
192,192,54488,128,8,54841:0:0:0:0:
448,192,54488,128,0,55194:0:0:0:0:
64,192,54841,128,0,55194:0:0:0:0:
192,192,55194,1,2,0:0:0:0:
320,192,55194,128,0,55899:0:0:0:0:
448,192,55546,128,0,55899:0:0:0:0:
64,192,55899,128,8,56252:0:0:0:0:
192,192,55899,128,0,56605:0:0:0:0:
448,192,56252,1,0,0:0:0:0:
320,192,56429,128,0,56605:0:0:0:0:
64,192,56605,128,2,57311:0:0:0:0:
448,192,56605,128,0,56958:0:0:0:0:
192,192,56958,1,2,0:0:0:0:
320,192,56958,128,0,57311:0:0:0:0:
192,192,57311,128,8,57664:0:0:0:0:
448,192,57311,128,0,58017:0:0:0:0:
320,192,57664,128,0,58017:0:0:0:0:
64,192,58017,128,2,58723:0:0:0:0:
192,192,58017,1,0,0:0:0:0:
320,192,58370,1,0,0:0:0:0:
192,192,58723,128,8,59429:0:0:0:0:
448,192,58723,1,0,0:0:0:0:
448,192,59076,128,0,59252:0:0:0:0:
320,192,59252,128,0,59429:0:0:0:0:
64,192,59429,128,2,59782:0:0:0:0:
448,192,59429,128,0,60135:0:0:0:0:
192,192,59782,128,2,60135:0:0:0:0:
320,192,59782,1,0,0:0:0:0:
64,192,60135,128,8,60488:0:0:0:0:
320,192,60135,128,0,60841:0:0:0:0:
448,192,60488,128,0,60841:0:0:0:0:
64,192,60841,1,4,0:0:0:0:
192,192,60841,128,2,61194:0:0:0:0:
448,192,61194,128,0,61370:0:0:0:0:
320,192,61370,128,0,61546:0:0:0:0:
64,192,61546,1,8,0:0:0:0:
192,192,61546,128,0,61723:0:0:0:0:
320,192,61723,128,0,61899:0:0:0:0:
64,192,61899,128,0,62252:0:0:0:0:
192,192,62252,128,2,62429:0:0:0:0:
448,192,62252,1,4,0:0:0:0:
64,192,62429,1,8,0:0:0:0:
320,192,62429,128,0,62605:0:0:0:0:
448,192,62605,128,0,62782:0:0:0:0:
64,192,62782,1,2,0:0:0:0:
320,192,62782,128,0,62958:0:0:0:0:
192,192,62958,128,8,63135:0:0:0:0:
448,192,62958,1,0,0:0:0:0:
64,192,63135,128,0,63664:0:0:0:0:
320,192,63311,1,2,0:0:0:0:
448,192,63311,1,0,0:0:0:0:
192,192,63664,1,2,0:0:0:0:
448,192,63664,128,0,64370:0:0:0:0:
64,192,64017,1,0,0:0:0:0:
192,192,64370,128,8,65076:0:0:0:0:
320,192,64370,1,0,0:0:0:0:
64,192,64723,1,0,0:0:0:0:
320,192,65076,128,8,65782:0:0:0:0:
448,192,65076,1,0,0:0:0:0:
192,192,65429,1,0,0:0:0:0:
64,192,65782,1,0,0:0:0:0:
448,192,65782,128,0,66488:0:0:0:0:
192,192,66135,1,2,0:0:0:0:
320,192,66135,1,0,0:0:0:0:
64,192,66488,128,2,68252:0:0:0:0:
192,192,66488,1,4,0:0:0:0:
320,192,66488,1,0,0:0:0:0:
192,192,67546,128,0,68252:0:0:0:0:
448,192,68252,128,0,68605:0:0:0:0:
320,192,68605,128,0,68958:0:0:0:0:
192,192,68958,128,0,69311:0:0:0:0:
64,192,69311,128,0,69664:0:0:0:0:
448,192,69311,1,0,0:0:0:0:
448,192,69664,128,0,70017:0:0:0:0:
320,192,69841,128,0,70017:0:0:0:0:
192,192,70017,128,0,70194:0:0:0:0:
64,192,70194,128,0,70370:0:0:0:0:
320,192,70370,128,0,70546:0:0:0:0:
192,192,70546,128,0,70723:0:0:0:0:
448,192,70723,128,0,71076:0:0:0:0:
320,192,71076,128,0,71252:0:0:0:0:
192,192,71252,128,0,71429:0:0:0:0:
64,192,71429,128,0,71605:0:0:0:0:
320,192,71605,128,0,71782:0:0:0:0:
192,192,71782,128,0,71958:0:0:0:0:
448,192,71958,128,0,72135:0:0:0:0:
64,192,72135,128,0,72311:0:0:0:0:
192,192,72311,128,0,72488:0:0:0:0:
320,192,72488,128,0,72664:0:0:0:0:
448,192,72664,128,0,72841:0:0:0:0:
64,192,72841,128,0,73017:0:0:0:0:
192,192,72899,128,0,73017:0:0:0:0:
320,192,73017,128,0,73194:0:0:0:0:
64,192,73194,128,0,73370:0:0:0:0:
448,192,73370,128,0,73546:0:0:0:0:
64,192,73546,128,0,73723:0:0:0:0:
192,192,73605,128,0,73723:0:0:0:0:
320,192,73723,128,0,73899:0:0:0:0:
64,192,73899,128,0,74076:0:0:0:0:
448,192,74076,128,0,74252:0:0:0:0:
64,192,74252,128,0,74429:0:0:0:0:
192,192,74311,128,0,74429:0:0:0:0:
448,192,74429,128,0,74605:0:0:0:0:
320,192,74488,128,0,74605:0:0:0:0:
192,192,74605,128,0,74782:0:0:0:0:
64,192,74782,128,0,75135:0:0:0:0:
192,192,75135,128,0,75311:0:0:0:0:
320,192,75311,128,0,75488:0:0:0:0:
448,192,75488,128,0,75664:0:0:0:0:
64,192,75664,128,0,75841:0:0:0:0:
192,192,75723,128,0,75841:0:0:0:0:
448,192,75841,128,0,76017:0:0:0:0:
320,192,75899,128,0,76017:0:0:0:0:
192,192,76017,128,0,76194:0:0:0:0:
64,192,76194,128,0,76546:0:0:0:0:
448,192,76546,128,0,76723:0:0:0:0:
320,192,76723,128,0,76899:0:0:0:0:
192,192,76899,128,0,77076:0:0:0:0:
64,192,77076,128,0,77252:0:0:0:0:
448,192,77252,128,0,77605:0:0:0:0:
64,192,77429,128,0,77605:0:0:0:0:
192,192,77605,128,0,77782:0:0:0:0:
320,192,77782,128,0,78135:0:0:0:0:
192,192,78135,128,0,78311:0:0:0:0:
64,192,78311,128,0,78488:0:0:0:0:
448,192,78488,128,0,78664:0:0:0:0:
320,192,78546,128,0,78664:0:0:0:0:
64,192,78664,128,0,78841:0:0:0:0:
192,192,78723,128,0,78841:0:0:0:0:
448,192,78841,128,0,79017:0:0:0:0:
64,192,79017,1,8,0:0:0:0:
192,192,79076,1,8,0:0:0:0:
320,192,79135,1,8,0:0:0:0:
64,192,79194,1,8,0:0:0:0:
448,192,79194,128,0,79370:0:0:0:0:
64,192,79370,128,8,79546:0:0:0:0:
320,192,79370,1,0,0:0:0:0:
192,192,79458,128,0,79546:0:0:0:0:
448,192,79546,128,0,79723:0:0:0:0:
320,192,79664,128,0,79723:0:0:0:0:
64,192,79723,1,8,0:0:0:0:
192,192,79723,128,0,79899:0:0:0:0:
320,192,79899,128,8,80429:0:0:0:0:
448,192,79899,1,0,0:0:0:0:
64,192,80252,1,8,0:0:0:0:
448,192,80252,1,0,0:0:0:0:
192,192,80429,1,0,0:0:0:0:
320,192,80517,1,0,0:0:0:0:
64,192,80605,1,2,0:0:0:0:
192,192,80605,1,4,0:0:0:0:
448,192,80605,128,0,81311:0:0:0:0:
64,192,81311,1,8,0:0:0:0:
192,192,81311,1,0,0:0:0:0:
64,192,81664,128,0,82370:0:0:0:0:
320,192,81664,1,0,0:0:0:0:
192,192,82017,128,2,82370:0:0:0:0:
448,192,82017,1,0,0:0:0:0:
320,192,82370,1,2,0:0:0:0:
448,192,82370,1,0,0:0:0:0:
64,192,82723,1,8,0:0:0:0:
192,192,82723,1,0,0:0:0:0:
320,192,82899,1,0,0:0:0:0:
64,192,83076,1,0,0:0:0:0:
448,192,83076,128,0,83782:0:0:0:0:
192,192,83429,1,2,0:0:0:0:
320,192,83429,128,0,83782:0:0:0:0:
64,192,83782,1,0,0:0:0:0:
192,192,84135,1,8,0:0:0:0:
448,192,84135,1,0,0:0:0:0:
64,192,84488,1,0,0:0:0:0:
320,192,84488,128,0,85194:0:0:0:0:
192,192,84841,1,2,0:0:0:0:
448,192,84841,128,0,85194:0:0:0:0:
64,192,85194,1,2,0:0:0:0:
192,192,85194,1,0,0:0:0:0:
320,192,85546,1,8,0:0:0:0:
448,192,85546,1,0,0:0:0:0:
64,192,85723,1,0,0:0:0:0:
192,192,85899,128,0,86605:0:0:0:0:
448,192,85899,1,0,0:0:0:0:
64,192,86252,128,2,86605:0:0:0:0:
320,192,86252,1,0,0:0:0:0:
448,192,86605,1,0,0:0:0:0:
192,192,86958,1,8,0:0:0:0:
320,192,86958,1,0,0:0:0:0:
64,192,87311,128,0,88017:0:0:0:0:
448,192,87311,1,0,0:0:0:0:
192,192,87664,128,2,88017:0:0:0:0:
320,192,87664,1,0,0:0:0:0:
320,192,88017,1,2,0:0:0:0:
448,192,88017,1,0,0:0:0:0:
64,192,88370,1,8,0:0:0:0:
448,192,88370,1,0,0:0:0:0:
192,192,88546,1,0,0:0:0:0:
64,192,88723,1,0,0:0:0:0:
320,192,88723,128,0,89429:0:0:0:0:
192,192,89076,1,2,0:0:0:0:
448,192,89076,128,0,89429:0:0:0:0:
64,192,89429,1,0,0:0:0:0:
320,192,89782,1,8,0:0:0:0:
448,192,89782,1,0,0:0:0:0:
64,192,90135,128,0,90841:0:0:0:0:
320,192,90135,1,0,0:0:0:0:
192,192,90488,128,2,90841:0:0:0:0:
448,192,90488,1,0,0:0:0:0:
320,192,90841,1,2,0:0:0:0:
448,192,90841,1,0,0:0:0:0:
64,192,91017,1,0,0:0:0:0:
192,192,91194,1,8,0:0:0:0:
320,192,91194,1,0,0:0:0:0:
448,192,91370,1,0,0:0:0:0:
64,192,91546,1,2,0:0:0:0:
192,192,91546,128,0,92252:0:0:0:0:
320,192,91723,1,0,0:0:0:0:
64,192,91899,128,4,92252:0:0:0:0:
448,192,91899,1,2,0:0:0:0:
320,192,92252,1,0,0:0:0:0:
64,192,92605,1,8,0:0:0:0:
448,192,92605,1,0,0:0:0:0:
192,192,92958,1,0,0:0:0:0:
448,192,92958,128,0,93664:0:0:0:0:
64,192,93311,1,2,0:0:0:0:
320,192,93311,128,0,93664:0:0:0:0:
64,192,93664,1,2,0:0:0:0:
192,192,93664,1,0,0:0:0:0:
192,192,94017,1,8,0:0:0:0:
448,192,94017,1,0,0:0:0:0:
64,192,94194,1,0,0:0:0:0:
320,192,94370,128,0,95076:0:0:0:0:
448,192,94370,1,0,0:0:0:0:
64,192,94723,128,2,95076:0:0:0:0:
192,192,94723,1,0,0:0:0:0:
448,192,95076,1,0,0:0:0:0:
64,192,95429,1,8,0:0:0:0:
192,192,95429,1,0,0:0:0:0:
320,192,95782,1,0,0:0:0:0:
448,192,95782,128,0,96488:0:0:0:0:
64,192,96135,1,0,0:0:0:0:
320,192,96135,128,2,96488:0:0:0:0:
64,192,96488,1,2,0:0:0:0:
192,192,96488,1,0,0:0:0:0:
320,192,96841,1,8,0:0:0:0:
448,192,96841,1,0,0:0:0:0:
192,192,97017,1,0,0:0:0:0:
64,192,97194,128,0,97899:0:0:0:0:
448,192,97194,1,0,0:0:0:0:
192,192,97546,128,2,97899:0:0:0:0:
320,192,97546,1,0,0:0:0:0:
448,192,97899,1,0,0:0:0:0:
64,192,98252,1,8,0:0:0:0:
320,192,98252,1,0,0:0:0:0:
192,192,98605,1,0,0:0:0:0:
448,192,98605,128,0,99311:0:0:0:0:
64,192,98958,1,2,0:0:0:0:
320,192,98958,128,0,99311:0:0:0:0:
64,192,99311,1,2,0:0:0:0:
192,192,99311,1,0,0:0:0:0:
320,192,99664,1,8,0:0:0:0:
448,192,99664,1,0,0:0:0:0:
64,192,99841,1,0,0:0:0:0:
192,192,100017,128,0,100723:0:0:0:0:
448,192,100017,1,0,0:0:0:0:
64,192,100370,128,2,100723:0:0:0:0:
320,192,100370,1,0,0:0:0:0:
448,192,100723,1,0,0:0:0:0:
64,192,101076,1,8,0:0:0:0:
320,192,101076,1,0,0:0:0:0:
192,192,101429,1,0,0:0:0:0:
448,192,101429,128,0,102135:0:0:0:0:
64,192,101782,1,2,0:0:0:0:
320,192,101782,128,0,102135:0:0:0:0:
64,192,102135,128,2,102488:0:0:0:0:
192,192,102135,1,0,0:0:0:0:
192,192,102488,128,8,102841:0:0:0:0:
448,192,102488,1,0,0:0:0:0:
64,192,102841,1,8,0:0:0:0:
320,192,102841,128,0,103194:0:0:0:0:
448,192,103194,128,0,103899:0:0:0:0:
64,192,104605,128,4,106016:0:0:0:0:
192,192,104605,1,2,0:0:0:0:
448,192,104605,1,0,0:0:0:0:
192,192,105310,1,8,0:0:0:0:
320,192,105310,1,0,0:0:0:0:
192,192,106016,128,2,107428:0:0:0:0:
320,192,106016,1,0,0:0:0:0:
64,192,106369,1,2,0:0:0:0:
448,192,106369,1,0,0:0:0:0:
320,192,106722,1,8,0:0:0:0:
448,192,106722,1,0,0:0:0:0:
64,192,107075,1,0,0:0:0:0:
320,192,107428,128,2,108840:0:0:0:0:
448,192,107428,1,0,0:0:0:0:
64,192,108134,1,8,0:0:0:0:
192,192,108134,1,0,0:0:0:0:
192,192,108840,1,2,0:0:0:0:
448,192,108840,128,0,110252:0:0:0:0:
64,192,109193,1,2,0:0:0:0:
192,192,109193,1,0,0:0:0:0:
64,192,109546,1,8,0:0:0:0:
320,192,109546,1,0,0:0:0:0:
192,192,109722,1,0,0:0:0:0:
320,192,109899,1,0,0:0:0:0:
64,192,110252,1,2,0:0:0:0:
192,192,110252,1,0,0:0:0:0:
320,192,110487,128,0,110957:0:0:0:0:
448,192,110605,128,0,111663:0:0:0:0:
64,192,110957,128,8,111663:0:0:0:0:
192,192,110957,1,0,0:0:0:0:
192,192,111663,128,2,112016:0:0:0:0:
320,192,111663,1,0,0:0:0:0:
64,192,112016,1,2,0:0:0:0:
320,192,112016,128,0,112369:0:0:0:0:
448,192,112193,128,0,112369:0:0:0:0:
64,192,112369,128,8,112722:0:0:0:0:
192,192,112369,1,0,0:0:0:0:
192,192,112722,128,0,113075:0:0:0:0:
64,192,113075,1,2,0:0:0:0:
320,192,113075,128,0,113428:0:0:0:0:
448,192,113428,128,0,113605:0:0:0:0:
320,192,113605,128,0,113781:0:0:0:0:
192,192,113781,128,8,113957:0:0:0:0:
448,192,113781,1,0,0:0:0:0:
64,192,113957,128,0,114134:0:0:0:0:
192,192,114134,128,0,114310:0:0:0:0:
320,192,114310,128,0,114487:0:0:0:0:
192,192,114487,128,2,114663:0:0:0:0:
448,192,114487,128,4,114840:0:0:0:0:
64,192,114575,128,0,114663:0:0:0:0:
320,192,114663,128,0,114840:0:0:0:0:
64,192,114840,128,0,115193:0:0:0:0:
192,192,115016,128,0,115193:0:0:0:0:
448,192,115193,128,0,115281:0:0:0:0:
448,192,115369,128,0,115457:0:0:0:0:
192,192,115546,1,2,0:0:0:0:
448,192,115546,128,0,115722:0:0:0:0:
64,192,115722,128,0,115899:0:0:0:0:
192,192,115781,128,0,115899:0:0:0:0:
320,192,115899,1,2,0:0:0:0:
448,192,115899,128,4,116605:0:0:0:0:
64,192,116605,1,8,0:0:0:0:
192,192,116605,1,0,0:0:0:0:
320,192,116957,128,0,117310:0:0:0:0:
192,192,117310,128,2,117663:0:0:0:0:
448,192,117310,1,0,0:0:0:0:
64,192,117663,128,2,118016:0:0:0:0:
448,192,117663,128,0,117840:0:0:0:0:
320,192,117840,128,0,118016:0:0:0:0:
192,192,118016,128,8,118193:0:0:0:0:
448,192,118016,128,0,118369:0:0:0:0:
64,192,118193,128,0,118369:0:0:0:0:
192,192,118369,128,0,118546:0:0:0:0:
320,192,118369,128,0,118722:0:0:0:0:
448,192,118546,128,0,118722:0:0:0:0:
64,192,118722,128,2,119781:0:0:0:0:
192,192,118722,1,0,0:0:0:0:
320,192,119428,1,8,0:0:0:0:
448,192,119428,1,0,0:0:0:0:
192,192,119781,128,0,119957:0:0:0:0:
320,192,119957,128,0,120134:0:0:0:0:
64,192,120134,1,2,0:0:0:0:
448,192,120134,128,0,120487:0:0:0:0:
64,192,120487,128,2,120840:0:0:0:0:
320,192,120487,128,0,120663:0:0:0:0:
192,192,120663,128,0,120840:0:0:0:0:
320,192,120840,128,8,121016:0:0:0:0:
448,192,120840,128,0,121193:0:0:0:0:
64,192,121016,128,0,121193:0:0:0:0:
192,192,121369,128,0,121899:0:0:0:0:
64,192,121546,1,2,0:0:0:0:
448,192,121546,128,0,121634:0:0:0:0:
448,192,121722,128,0,121899:0:0:0:0:
64,192,121899,128,0,122252:0:0:0:0:
320,192,121899,128,0,122075:0:0:0:0:
192,192,122075,128,0,122252:0:0:0:0:
320,192,122252,128,8,122428:0:0:0:0:
448,192,122252,128,0,122604:0:0:0:0:
64,192,122428,128,0,122604:0:0:0:0:
192,192,122604,128,0,122781:0:0:0:0:
320,192,122781,128,0,122869:0:0:0:0:
448,192,122869,128,0,123134:0:0:0:0:
64,192,122957,128,2,123134:0:0:0:0:
192,192,122957,1,0,0:0:0:0:
320,192,123134,128,0,123222:0:0:0:0:
192,192,123222,128,0,123310:0:0:0:0:
64,192,123310,128,2,123487:0:0:0:0:
448,192,123310,1,0,0:0:0:0:
192,192,123487,128,0,123663:0:0:0:0:
64,192,123663,1,8,0:0:0:0:
320,192,123663,128,0,123840:0:0:0:0:
192,192,123840,128,0,124016:0:0:0:0:
320,192,124016,128,0,124193:0:0:0:0:
448,192,124193,128,0,124369:0:0:0:0:
64,192,124369,128,2,124546:0:0:0:0:
192,192,124369,1,4,0:0:0:0:
320,192,124369,1,0,0:0:0:0:
448,192,124722,128,0,124899:0:0:0:0:
320,192,124899,128,0,125075:0:0:0:0:
64,192,125075,1,8,0:0:0:0:
192,192,125075,128,4,125252:0:0:0:0:
448,192,125075,1,0,0:0:0:0:
320,192,125428,128,0,125663:0:0:0:0:
192,192,125663,128,0,125781:0:0:0:0:
64,192,125781,128,2,125957:0:0:0:0:
320,192,125781,1,4,0:0:0:0:
448,192,125781,1,0,0:0:0:0:
192,192,125957,128,8,126134:0:0:0:0:
448,192,125957,1,0,0:0:0:0:
320,192,126134,128,0,126310:0:0:0:0:
192,192,126310,1,2,0:0:0:0:
448,192,126310,128,0,126487:0:0:0:0:
64,192,126487,1,8,0:0:0:0:
320,192,126487,128,0,126663:0:0:0:0:
192,192,126663,128,0,127193:0:0:0:0:
320,192,126840,1,2,0:0:0:0:
448,192,126840,1,0,0:0:0:0:
64,192,127193,128,2,127546:0:0:0:0:
448,192,127193,128,0,127369:0:0:0:0:
320,192,127369,128,0,127546:0:0:0:0:
192,192,127546,128,0,127722:0:0:0:0:
448,192,127546,128,0,127899:0:0:0:0:
320,192,127722,128,0,127810:0:0:0:0:
192,192,127810,128,0,127899:0:0:0:0:
64,192,127899,128,8,128075:0:0:0:0:
320,192,127899,128,0,128252:0:0:0:0:
448,192,128075,128,0,128252:0:0:0:0:
64,192,128252,128,0,128428:0:0:0:0:
192,192,128252,128,0,128604:0:0:0:0:
320,192,128428,128,0,128604:0:0:0:0:
64,192,128604,128,8,128957:0:0:0:0:
448,192,128604,1,0,0:0:0:0:
192,192,128957,128,0,129046:0:0:0:0:
320,192,129046,128,0,129134:0:0:0:0:
448,192,129134,128,0,129310:0:0:0:0:
64,192,129310,128,0,129663:0:0:0:0:
192,192,129663,1,2,0:0:0:0:
448,192,129663,128,0,129752:0:0:0:0:
448,192,129840,128,0,130016:0:0:0:0:
64,192,130016,128,2,131781:0:0:0:0:
192,192,130016,1,4,0:0:0:0:
320,192,130016,1,0,0:0:0:0:
192,192,131781,128,0,132134:0:0:0:0:
320,192,132134,128,0,132840:0:0:0:0:
448,192,132134,128,0,132487:0:0:0:0:
192,192,132487,128,0,132840:0:0:0:0:
64,192,132840,128,2,134252:0:0:0:0:
448,192,132840,1,0,0:0:0:0:
192,192,133546,1,2,0:0:0:0:
448,192,133899,1,0,0:0:0:0:
192,192,134252,128,2,135663:0:0:0:0:
320,192,134252,1,0,0:0:0:0:
64,192,134604,1,0,0:0:0:0:
320,192,134957,1,2,0:0:0:0:
448,192,135134,1,0,0:0:0:0:
64,192,135310,1,0,0:0:0:0:
320,192,135663,128,2,137075:0:0:0:0:
448,192,135663,1,0,0:0:0:0:
64,192,136016,1,0,0:0:0:0:
448,192,136369,1,2,0:0:0:0:
192,192,136899,1,0,0:0:0:0:
64,192,137075,1,2,0:0:0:0:
448,192,137075,128,0,138487:0:0:0:0:
192,192,137428,1,0,0:0:0:0:
64,192,137781,1,2,0:0:0:0:
192,192,137957,1,0,0:0:0:0:
320,192,138134,1,0,0:0:0:0:
64,192,138487,128,2,139899:0:0:0:0:
320,192,138487,1,0,0:0:0:0:
448,192,138840,1,0,0:0:0:0:
192,192,139016,1,0,0:0:0:0:
320,192,139193,1,2,0:0:0:0:
448,192,139546,1,0,0:0:0:0:
192,192,139899,1,2,0:0:0:0:
448,192,139899,128,0,141310:0:0:0:0:
64,192,140252,1,0,0:0:0:0:
192,192,140604,1,2,0:0:0:0:
320,192,140957,1,0,0:0:0:0:
64,192,141310,1,0,0:0:0:0:
192,192,141663,1,0,0:0:0:0:
448,192,142016,1,0,0:0:0:0:
320,192,142369,1,0,0:0:0:0:
64,192,142722,1,8,0:0:0:0:
192,192,142722,1,0,0:0:0:0:
448,192,142722,1,0,0:0:0:0:
192,192,143075,1,8,0:0:0:0:
320,192,143075,1,0,0:0:0:0:
448,192,143075,1,0,0:0:0:0:
64,192,143428,1,8,0:0:0:0:
192,192,143428,1,0,0:0:0:0:
320,192,143428,1,0,0:0:0:0:
320,192,143781,1,2,0:0:0:0:
448,192,143781,1,0,0:0:0:0:
64,192,144134,1,4,0:0:0:0:
192,192,144134,1,2,0:0:0:0:
448,192,144134,128,0,144840:0:0:0:70:twinkling.wav
192,192,144840,1,8,0:0:0:0:
320,192,144840,128,0,145546:0:0:0:0:
64,192,145193,1,0,0:0:0:0:
192,192,145546,128,2,146252:0:0:0:0:
448,192,145546,128,0,145899:0:0:0:0:
64,192,145899,1,2,0:0:0:0:
320,192,145899,128,0,146252:0:0:0:0:
64,192,146252,128,8,146957:0:0:0:0:
448,192,146252,128,0,146604:0:0:0:0:
192,192,146604,128,0,146957:0:0:0:0:
320,192,146957,1,2,0:0:0:0:
448,192,146957,128,0,147663:0:0:0:0:
192,192,147310,128,0,147663:0:0:0:0:
64,192,147663,1,8,0:0:0:0:
320,192,147663,128,0,148369:0:0:0:0:
64,192,148016,1,0,0:0:0:0:
192,192,148193,128,0,148369:0:0:0:0:
64,192,148369,128,2,148722:0:0:0:0:
448,192,148369,128,0,149075:0:0:0:0:
192,192,148722,128,2,149075:0:0:0:0:
320,192,148722,1,0,0:0:0:0:
64,192,149075,128,8,149781:0:0:0:0:
320,192,149075,128,0,149428:0:0:0:0:
448,192,149428,128,0,149781:0:0:0:0:
192,192,149781,1,2,0:0:0:0:
320,192,149781,128,0,150487:0:0:0:0:
448,192,150134,1,0,0:0:0:0:
64,192,150487,1,8,0:0:0:0:
192,192,150487,128,0,151193:0:0:0:0:
320,192,150840,1,0,0:0:0:0:
64,192,151193,1,2,0:0:0:0:
448,192,151193,128,0,151899:0:0:0:0:
192,192,151546,1,2,0:0:0:0:
320,192,151546,1,0,0:0:0:0:
64,192,151899,1,8,0:0:0:0:
320,192,151899,1,0,0:0:0:0:
192,192,152252,1,0,0:0:0:0:
320,192,152428,1,0,0:0:0:0:
64,192,152604,1,2,0:0:0:0:
192,192,152604,1,4,0:0:0:0:
448,192,152604,128,0,152957:0:0:0:0:
320,192,152781,128,0,152957:0:0:0:0:
64,192,152957,128,0,153134:0:0:0:0:
192,192,153134,128,0,153222:0:0:0:0:
320,192,153222,128,0,153310:0:0:0:0:
64,192,153310,1,8,0:0:0:0:
448,192,153310,128,0,153487:0:0:0:0:
64,192,153487,128,0,153663:0:0:0:0:
448,192,153663,128,0,153840:0:0:0:0:
320,192,153840,128,0,153928:0:0:0:0:
192,192,153928,128,0,154016:0:0:0:0:
64,192,154016,1,2,0:0:0:0:
320,192,154016,1,4,0:0:0:0:
448,192,154016,1,0,0:0:0:0:
64,192,154369,1,8,0:0:0:0:
192,192,154369,1,4,0:0:0:0:
448,192,154369,1,0,0:0:0:0:
192,192,154546,1,2,0:0:0:0:
320,192,154546,1,0,0:0:0:0:
64,192,154722,128,8,154899:0:0:0:0:
448,192,154722,1,0,0:0:0:0:
192,192,154899,1,2,0:0:0:0:
320,192,154899,1,0,0:0:0:0:
64,192,155075,1,8,0:0:0:0:
448,192,155075,128,0,155252:0:0:0:0:
192,192,155252,1,8,0:0:0:0:
320,192,155252,1,0,0:0:0:0:
64,192,155428,128,4,156134:0:0:0:0:
192,192,155428,1,2,0:0:0:0:
448,192,155428,1,0,0:0:0:70:twinkling.wav
320,192,155781,1,0,0:0:0:0:
192,192,156134,128,8,156840:0:0:0:0:
448,192,156134,128,0,156487:0:0:0:0:
64,192,156487,128,0,156840:0:0:0:0:
320,192,156840,128,2,157546:0:0:0:0:
448,192,156840,128,0,157193:0:0:0:0:
64,192,157193,1,2,0:0:0:0:
192,192,157193,128,0,157546:0:0:0:0:
64,192,157546,128,8,157899:0:0:0:0:
448,192,157546,128,0,158252:0:0:0:0:
320,192,157899,128,0,158252:0:0:0:0:
64,192,158252,128,2,158957:0:0:0:0:
192,192,158252,1,0,0:0:0:0:
320,192,158604,128,0,158957:0:0:0:0:
192,192,158957,1,8,0:0:0:0:
448,192,158957,128,0,159663:0:0:0:0:
64,192,159310,1,0,0:0:0:0:
192,192,159663,128,2,160369:0:0:0:0:
320,192,159663,1,0,0:0:0:0:
64,192,160016,1,2,0:0:0:0:
448,192,160016,128,0,160369:0:0:0:0:
64,192,160369,128,8,161075:0:0:0:0:
320,192,160369,128,0,160546:0:0:0:0:
448,192,160546,128,0,160722:0:0:0:0:
192,192,160722,128,0,161075:0:0:0:0:
320,192,161075,1,2,0:0:0:0:
448,192,161075,128,0,161781:0:0:0:0:
320,192,161428,128,0,161604:0:0:0:0:
192,192,161604,128,0,161781:0:0:0:0:
64,192,161781,128,8,162134:0:0:0:0:
320,192,161781,128,0,162487:0:0:0:0:
448,192,162134,128,0,162487:0:0:0:0:
64,192,162487,128,2,162840:0:0:0:0:
192,192,162487,128,0,163193:0:0:0:0:
320,192,162840,128,2,163193:0:0:0:0:
448,192,162840,1,0,0:0:0:0:
64,192,163193,128,8,163899:0:0:0:0:
448,192,163193,128,0,163546:0:0:0:0:
192,192,163546,128,0,163899:0:0:0:0:
320,192,163899,128,2,164252:0:0:0:0:
448,192,163899,128,4,164604:0:0:0:0:
64,192,164252,128,0,164604:0:0:0:0:
192,192,164604,128,8,165310:0:0:0:0:
320,192,164604,128,4,164957:0:0:0:0:
448,192,164957,128,0,165310:0:0:0:0:
64,192,165310,128,8,166016:0:0:0:0:
320,192,165310,128,4,165663:0:0:0:0:
192,192,165663,128,0,166016:0:0:0:0:
320,192,166016,128,0,166369:0:0:0:0:
448,192,166016,128,0,166722:0:0:0:0:
64,192,166369,1,2,0:0:0:0:
192,192,166369,128,0,166722:0:0:0:0:
64,192,166722,128,6,167428:0:0:0:0:
320,192,166722,1,0,0:0:0:70:twinkling.wav
448,192,167075,1,0,0:0:0:0:
192,192,167428,1,8,0:0:0:0:
448,192,167428,128,0,168134:0:0:0:0:
320,192,167781,1,0,0:0:0:0:
64,192,168134,128,2,168487:0:0:0:0:
320,192,168134,128,0,168840:0:0:0:0:
192,192,168487,1,2,0:0:0:0:
448,192,168487,128,0,168840:0:0:0:0:
64,192,168840,128,8,169193:0:0:0:0:
192,192,168840,128,0,169546:0:0:0:0:
448,192,169193,128,0,169546:0:0:0:0:
64,192,169546,128,2,170252:0:0:0:0:
320,192,169546,1,0,0:0:0:0:
320,192,169899,128,0,170252:0:0:0:0:
192,192,170252,128,8,170604:0:0:0:0:
448,192,170252,128,0,170957:0:0:0:0:
64,192,170604,1,0,0:0:0:0:
320,192,170781,128,0,170957:0:0:0:0:
64,192,170957,128,2,171663:0:0:0:0:
192,192,170957,128,0,171310:0:0:0:0:
320,192,171310,128,2,171663:0:0:0:0:
448,192,171310,1,0,0:0:0:0:
192,192,171663,128,8,172369:0:0:0:0:
448,192,171663,1,0,0:0:0:0:
320,192,172016,1,2,0:0:0:0:
448,192,172016,128,0,172369:0:0:0:0:
64,192,172193,1,8,0:0:0:0:
320,192,172369,128,2,173075:0:0:0:0:
192,192,172722,1,0,0:0:0:0:
64,192,173075,1,8,0:0:0:0:
448,192,173075,128,0,173781:0:0:0:0:
192,192,173428,128,0,173604:0:0:0:0:
320,192,173604,128,0,173781:0:0:0:0:
64,192,173781,128,2,174134:0:0:0:0:
192,192,173781,128,0,174487:0:0:0:0:
320,192,174134,1,2,0:0:0:0:
448,192,174134,128,0,174487:0:0:0:0:
64,192,174487,128,8,174840:0:0:0:0:
320,192,174487,128,0,175193:0:0:0:0:
448,192,174840,128,0,175193:0:0:0:0:
64,192,175193,128,4,175546:0:0:0:0:
192,192,175193,1,2,0:0:0:0:
320,192,175546,128,0,175722:0:0:0:0:
64,192,175722,128,0,175899:0:0:0:0:
192,192,175899,128,8,176075:0:0:0:0:
448,192,175899,1,0,0:0:0:0:
320,192,176075,128,0,176252:0:0:0:0:
448,192,176252,128,0,176604:0:0:0:0:
64,192,176604,1,2,0:0:0:0:
320,192,176604,128,4,176781:0:0:0:0:
192,192,176781,128,8,176957:0:0:0:0:
448,192,176781,1,0,0:0:0:0:
64,192,176957,128,0,177134:0:0:0:0:
192,192,177134,128,2,177310:0:0:0:0:
448,192,177134,1,0,0:0:0:0:
64,192,177310,1,8,0:0:0:0:
320,192,177310,128,0,177487:0:0:0:0:
448,192,177487,128,0,178016:0:0:0:0:
64,192,177663,1,2,0:0:0:0:
192,192,177663,1,0,0:0:0:0:
64,192,178016,128,2,178722:0:0:0:0:
320,192,178016,1,0,0:0:0:0:
448,192,178369,1,0,0:0:0:0:
192,192,178722,1,8,0:0:0:0:
320,192,178722,128,0,179428:0:0:0:0:
64,192,179075,1,0,0:0:0:0:
192,192,179428,128,8,180134:0:0:0:0:
448,192,179428,1,0,0:0:0:0:
320,192,179781,1,0,0:0:0:0:
64,192,180134,128,0,180840:0:0:0:0:
448,192,180134,1,0,0:0:0:0:
192,192,180487,1,2,0:0:0:0:
320,192,180487,1,0,0:0:0:0:
192,192,180840,1,2,0:0:0:0:
320,192,180840,1,4,0:0:0:0:
448,192,180840,128,0,182604:0:0:0:0:
320,192,181899,128,0,182604:0:0:0:0:
64,192,182604,128,0,182957:0:0:0:0:
192,192,182957,128,0,183310:0:0:0:0:
320,192,183310,128,0,183663:0:0:0:0:
448,192,183663,128,0,184016:0:0:0:0:
320,192,184369,1,0,0:0:0:0:
192,192,184722,1,0,0:0:0:0:
64,192,185075,1,0,0:0:0:0:
448,192,185781,1,0,0:0:0:0:
64,192,186487,128,0,187546:0:0:0:0:
192,192,187546,1,0,0:0:0:0:
320,192,187722,1,0,0:0:0:0:
448,192,187899,1,0,0:0:0:0:
320,192,188252,1,0,0:0:0:0:
192,192,188604,1,0,0:0:0:0:
64,192,188957,1,0,0:0:0:0:
448,192,189310,1,0,0:0:0:0:
64,192,190016,1,0,0:0:0:0:
192,192,190369,1,0,0:0:0:0:
320,192,190722,1,0,0:0:0:0:
448,192,191428,1,0,0:0:0:0:
64,192,192134,128,0,193546:0:0:0:0:
192,192,193193,128,0,193546:0:0:0:0:
320,192,193369,128,0,193546:0:0:0:0:
448,192,193546,128,0,194604:0:0:0:0:
64,192,194604,128,0,194781:0:0:0:0:
192,192,194604,128,0,194781:0:0:0:0:
320,192,194781,128,0,194957:0:0:0:0:
448,192,194781,128,0,194957:0:0:0:0:
64,192,194957,128,0,200604:0:0:0:0:
192,192,194957,128,0,200604:0:0:0:0:
