osu file format v14

[General]
AudioFilename: audio.mp3
AudioLeadIn: 0
PreviewTime: 153561
Countdown: 0
SampleSet: Soft
StackLeniency: 0.5
Mode: 0
LetterboxInBreaks: 0
WidescreenStoryboard: 1

[Editor]
Bookmarks: 478,10179,11772,34360,39302,40007,48478,49184,49890,50596,51302,65419,68243,78125,79537,102125,103537,113419,114831,123302,126125,128949,129125,129302,129478,129654,129831,130007,130184,130360,130537,130713,130890,131066,131767,140243,141654,142007,142360,142713,143066,151537,152949,154360,162831,163537,164243,164949,165654,179772,182596,193890,194066,194243,194419,194596,194772,194949,195125,195302,195478,195654,195831,196007,196184,196360,196537,196713,196890,197066,197243,197419,197596,197772,197949,198125,198302,198478,198654,198831,199007,199184,199360,199537,199713
DistanceSpacing: 1.3
BeatDivisor: 4
GridSize: 32
TimelineZoom: 1.5

[Metadata]
Title:Asagao no Chiru Koro ni
TitleUnicode:アサガオの散る頃に
Artist:TUYU
ArtistUnicode:ツユ
Creator:Finshie
Version:Normal
Source:
Tags:jpop japanese pusu ぷす omutatsu おむたつ rei 礼衣 hatsune miku 初音ミク cover じっぷす Zips It's Raining After All j-pop pop
BeatmapID:3022841
BeatmapSetID:1468194

[Difficulty]
HPDrainRate:3
CircleSize:3
OverallDifficulty:4
ApproachRate:5
SliderMultiplier:1.4
SliderTickRate:1

[Events]
//Background and Video events
0,0,"asagao.jpg",0,0
//Break Periods
2,34554,38025
2,68437,76849
//Storyboard Layer 0 (Background)
//Storyboard Layer 1 (Fail)
//Storyboard Layer 2 (Pass)
//Storyboard Layer 3 (Foreground)
//Storyboard Layer 4 (Overlay)
//Storyboard Sound Samples

[TimingPoints]
473,705.882352941176,4,2,1,40,1,0
473,-100,4,2,1,40,0,0
10178,-100,4,2,1,40,0,0
11767,-100,4,2,10,60,0,0
12472,-100,4,2,1,60,0,0
14590,-100,4,2,10,60,0,0
14943,-100,4,2,1,60,0,0
17414,-100,4,2,10,60,0,0
17590,-100,4,2,1,60,0,0
20237,-100,4,2,10,60,0,0
20414,-100,4,2,1,60,0,0
25884,-100,4,2,10,60,0,0
26237,-100,4,2,1,60,0,0
28708,-100,4,2,10,60,0,0
28884,-100,4,2,1,60,0,0
31531,-100,4,2,10,60,0,0
31708,-100,4,2,1,60,0,0
38590,-100,4,2,11,30,0,0
39296,-100,4,2,2,60,0,0
40002,-90.9090909090909,4,2,2,70,0,1
40708,-90.9090909090909,4,2,11,70,0,1
41061,-90.9090909090909,4,2,2,70,0,1
41414,-90.9090909090909,4,2,11,70,0,1
41767,-90.9090909090909,4,2,2,70,0,1
42120,-90.9090909090909,4,2,11,70,0,1
42296,-90.9090909090909,4,2,2,70,0,1
42825,-90.9090909090909,4,2,11,70,0,1
43178,-90.9090909090909,4,2,2,70,0,1
44943,-90.9090909090909,4,2,11,70,0,1
45120,-90.9090909090909,4,2,2,70,0,1
45649,-90.9090909090909,4,2,11,70,0,1
46002,-90.9090909090909,4,2,2,70,0,1
47061,-90.9090909090909,4,2,11,70,0,1
47414,-90.9090909090909,4,2,2,70,0,1
47767,-90.9090909090909,4,2,11,70,0,1
48120,-90.9090909090909,4,2,2,70,0,1
48472,-90.9090909090909,4,2,3,70,0,1
49884,-90.9090909090909,4,2,2,70,0,1
50985,-90.9090909090909,4,2,2,70,0,1
51296,-90.9090909090909,4,2,3,80,0,1
52708,-90.9090909090909,4,2,11,80,0,1
53061,-90.9090909090909,4,2,3,80,0,1
53414,-90.9090909090909,4,2,11,80,0,1
53767,-90.9090909090909,4,2,3,80,0,1
54120,-90.9090909090909,4,2,11,80,0,1
54472,-90.9090909090909,4,2,3,80,0,1
55531,-90.9090909090909,4,2,11,80,0,1
55884,-90.9090909090909,4,2,3,80,0,1
56237,-90.9090909090909,4,2,11,80,0,1
56590,-90.9090909090909,4,2,3,80,0,1
56943,-90.9090909090909,4,2,11,80,0,1
57296,-90.9090909090909,4,2,3,80,0,1
58355,-90.9090909090909,4,2,11,80,0,1
58708,-90.9090909090909,4,2,3,80,0,1
59061,-90.9090909090909,4,2,11,80,0,1
59414,-90.9090909090909,4,2,3,80,0,1
59767,-90.9090909090909,4,2,3,80,0,1
64708,-90.9090909090909,4,2,10,80,0,1
65414,-100,4,2,1,50,0,0
77943,-100,4,2,1,40,0,0
79531,-100,4,2,1,60,0,0
103531,705.882352941176,4,2,3,80,1,0
103531,-90.9090909090909,4,2,3,80,0,1
104236,-90.9090909090909,4,2,11,80,0,1
106354,-90.9090909090909,4,2,3,80,0,1
107060,-90.9090909090909,4,2,11,80,0,1
109178,-90.9090909090909,4,2,3,80,0,1
112354,-90.9090909090909,4,2,3,80,0,1
128942,-100,4,2,1,60,0,0
131766,-100,4,2,11,60,0,0
140236,-100,4,2,1,30,0,0
141648,-100,4,2,1,70,0,0
143060,-100,4,2,2,80,0,0
144472,-100,4,2,11,80,0,0
144825,-100,4,2,2,80,0,0
145178,-100,4,2,11,80,0,0
145530,-100,4,2,2,80,0,0
145883,-100,4,2,11,80,0,0
146236,-100,4,2,2,80,0,0
151530,-100,4,2,3,80,0,0
154354,-90.9090909090909,4,2,3,90,0,1
157178,-90.9090909090909,4,2,10,90,0,1
157530,-90.9090909090909,4,2,3,90,0,1
160001,-90.9090909090909,4,2,10,90,0,1
160354,-90.9090909090909,4,2,3,90,0,1
162825,-90.9090909090909,4,2,3,90,0,1
163178,-90.9090909090909,4,2,3,90,0,1
164236,-90.9090909090909,4,2,2,90,0,1
165648,-90.9090909090909,4,2,3,90,0,1
168472,-90.9090909090909,4,2,10,90,0,1
168825,-90.9090909090909,4,2,3,90,0,1
179060,-90.9090909090909,4,2,10,90,0,1
179766,-100,4,2,1,60,0,0
182589,-100,4,2,1,50,0,0
193883,-100,4,2,1,50,0,0
194589,-100,4,2,1,45,0,0
195295,-100,4,2,1,40,0,0
196001,-100,4,2,1,35,0,0
196707,-100,4,2,1,30,0,0
197413,-100,4,2,1,25,0,0
198119,-100,4,2,1,20,0,0
198825,-100,4,2,1,15,0,0
199530,-100,4,2,1,10,0,0
199707,-100,4,2,1,5,0,0

[Colours]
Combo1 : 67,172,194
Combo2 : 214,88,114
Combo3 : 40,119,183
Combo4 : 140,57,208

[HitObjects]
50,78,10355,5,8,0:1:0:0:
50,78,10531,2,0,L|62:170,1,70,8|8,0:1|0:1,0:0:0:0:
65,192,11061,2,0,L|77:284,1,70,12|12,0:1|0:1,0:0:0:0:
92,350,11767,6,0,P|134:326|229:342,1,140,2|10,1:1|0:1,0:0:0:0:
402,362,13178,2,0,P|452:292|455:279,1,70,2|0,1:2|1:0,0:0:0:0:
395,232,13884,1,10,0:1:0:0:
454,163,14237,2,0,P|504:93|507:80,1,70,2|2,3:2|1:1,0:0:0:0:
417,66,14943,6,0,L|398:-4,2,70,0|10|2,3:0|0:1|3:2,0:0:0:0:
329,92,16002,2,0,P|283:113|257:112,1,70,2|0,1:2|1:2,0:0:0:0:
173,108,16708,1,10,0:1:0:0:
105,47,17061,1,2,3:2:0:0:
48,118,17414,5,2,1:1:0:0:
48,118,17590,2,0,P|21:181|25:203,1,70,2|0,0:0|0:0,0:0:0:0:
52,213,18120,2,0,P|77:251|83:277,1,70,10|2,0:1|3:2,0:0:0:0:
173,274,18825,2,0,P|195:223|216:201,2,70,2|0|10,1:2|1:0|0:1,0:0:0:0:
119,355,19884,1,2,3:2:0:0:
28,343,20237,5,2,1:1:0:0:
28,343,20414,2,0,P|17:291|3:268,1,70,2|0,0:0|0:0,0:0:0:0:
42,245,20943,2,0,P|54:193|66:169,1,70,10|0,0:1|3:0,0:0:0:0:
152,179,21649,2,0,P|166:230|165:269,2,70,2|0|10,1:2|1:0|0:1,0:0:0:0:
108,99,22708,1,2,1:2:0:0:
50,28,23061,6,0,P|122:29|196:0,1,140,6|10,1:2|0:1,0:0:0:0:
361,53,24472,2,0,P|392:37|426:30,1,70,2|0,1:2|1:0,0:0:0:0:
486,98,25178,1,10,0:1:0:0:
463,186,25531,2,0,P|428:193|397:208,1,70,2|2,3:2|1:1,0:0:0:0:
400,299,26237,6,0,P|388:330|341:368,2,70,0|10|2,3:0|0:1|3:2,0:0:0:0:
319,256,27296,2,0,P|281:271|237:262,1,70,2|0,1:2|1:0,0:0:0:0:
194,197,28002,1,10,0:1:0:0:
206,106,28355,1,2,3:2:0:0:
299,129,28708,5,2,1:1:0:0:
299,129,28884,2,0,P|340:151|388:146,1,70,2|0,0:0|0:0,0:0:0:0:
409,149,29414,2,0,P|439:140|471:104,1,70,10|0,0:1|3:0,0:0:0:0:
434,29,30120,2,0,P|388:28|346:13,2,70,2|0|10,1:2|1:0|0:1,0:0:0:0:
500,90,31178,1,2,3:2:0:0:
457,170,31531,5,2,1:1:0:0:
457,170,31708,2,0,P|407:191|386:219,1,70,2|0,0:0|0:0,0:0:0:0:
366,236,32237,2,0,P|347:278|345:315,1,70,10|0,0:1|3:0,0:0:0:0:
419,353,32943,2,0,P|454:336|499:340,2,70,2|0|10,1:2|1:0|0:1,0:0:0:0:
335,315,34002,2,0,P|303:285|269:277,1,70,10|2,0:1|0:0,0:0:0:0:
74,95,39296,6,0,L|88:195,1,70,2|2,0:0|0:0,0:0:0:0:
176,202,40002,6,0,L|206:49,1,154.000004699707,6|10,1:2|0:1,0:0:0:0:
302,23,41061,1,2,3:2:0:0:
366,99,41414,2,0,P|403:120|444:125,1,77.0000023498536,2|2,1:1|1:2,0:0:0:0:
416,223,42120,2,0,P|386:212|362:216,1,38.5000011749268,10|2,0:1|0:0,0:0:0:0:
332,228,42472,1,2,3:2:0:0:
233,241,42825,6,0,P|197:209|168:203,1,77.0000023498536,2|2,1:1|3:2,0:0:0:0:
82,253,43531,2,0,P|76:309|101:349,1,77.0000023498536,8|0,0:1|3:0,0:0:0:0:
163,384,44237,1,2,1:2:0:0:
252,338,44590,1,2,1:2:0:0:
334,281,44943,2,0,P|324:245|312:225,1,38.5000011749268,10|2,0:1|0:0,0:0:0:0:
303,197,45296,1,2,3:2:0:0:
399,170,45649,6,0,P|413:125|430:99,1,77.0000023498536,2|2,1:1|3:2,0:0:0:0:
459,62,46178,1,2,0:0:0:0:
459,62,46355,2,0,L|361:37,1,77.0000023498536,8|2,0:1|3:2,0:0:0:0:
289,75,47061,2,0,L|191:50,1,77.0000023498536,2|2,1:1|1:2,0:0:0:0:
117,85,47767,2,0,L|51:68,1,38.5000011749268,10|0,0:1|0:0,0:0:0:0:
31,62,48120,1,2,3:2:0:0:
48,166,48472,6,0,P|7:207|2:219,1,38.5000011749268,6|0,1:2|0:0,0:0:0:0:
-2,235,48825,1,2,3:2:0:0:
63,310,49178,2,0,P|113:281|121:270,1,38.5000011749268,8|0,0:1|0:0,0:0:0:0:
130,257,49531,1,2,3:2:0:0:
190,177,49884,1,8,0:1:0:0:
253,254,50237,1,2,3:2:0:0:
352,242,50590,1,2,3:2:0:0:
374,144,50943,1,2,1:2:0:0:
334,55,51296,6,0,P|422:77|492:61,2,154.000004699707,6|10|2,1:2|0:1|1:1,0:0:0:0:
240,18,53061,1,2,1:2:0:0:
209,113,53414,2,0,P|179:94|145:88,1,38.5000011749268,10|0,0:1|0:0,0:0:0:0:
126,89,53767,1,2,3:2:0:0:
59,15,54120,6,0,P|17:37|-17:36,1,77.0000023498536,2|2,1:1|3:2,0:0:0:0:
0,138,54825,2,0,P|37:155|80:235,1,115.50000352478,10|2,0:1|0:0,0:0:0:0:
77,266,55531,1,2,1:1:0:0:
126,352,55884,1,2,1:2:0:0:
225,360,56237,1,10,0:1:0:0:
296,290,56590,1,2,3:2:0:0:
268,193,56943,6,0,P|260:138|273:105,1,77.0000023498536,2|0,1:1|3:0,0:0:0:0:
365,127,57649,2,0,P|377:202|366:229,1,77.0000023498536,8|2,3:1|3:2,0:0:0:0:
349,243,58178,1,2,0:0:0:0:
349,243,58355,2,0,L|312:280,1,38.5000011749268,2|0,1:1|0:0,0:0:0:0:
286,305,58708,1,2,1:2:0:0:
196,260,59061,1,10,0:1:0:0:
217,162,59414,1,2,3:2:0:0:
234,63,59767,6,0,P|263:10|288:-7,1,77.0000023498536,6|2,1:1|3:2,0:0:0:0:
329,10,60296,1,2,0:0:0:0:
329,10,60472,2,0,L|407:29,1,77.0000023498536,10|2,0:1|3:2,0:0:0:0:
431,124,61178,2,0,L|387:143,2,38.5000011749268,6|8|2,1:2|0:1|3:2,0:0:0:0:
484,117,61708,1,2,1:2:0:0:
484,117,61884,2,0,L|467:213,1,77.0000023498536,8|2,0:1|1:2,0:0:0:0:
455,292,62590,6,0,P|405:255|367:245,1,77.0000023498536,2|0,1:2|3:0,0:0:0:0:
328,327,63296,2,0,P|278:364|240:374,1,77.0000023498536,10|0,1:1|3:0,0:0:0:0:
201,292,64002,2,0,P|151:255|113:245,1,77.0000023498536,10|0,1:1|0:0,0:0:0:0:
74,327,64708,2,0,P|24:364|-14:374,1,77.0000023498536,2|0,0:1|1:0,0:0:0:0:
256,192,65414,12,2,68237,0:0:0:0:
99,313,78120,5,8,0:1:0:0:
99,313,78296,2,0,L|89:232,1,70,8|8,0:1|0:1,0:0:0:0:
86,198,78825,2,0,L|76:117,1,70,12|12,0:1|0:1,0:0:0:0:
115,45,79531,6,0,P|178:93|244:99,1,140,4|10,1:2|0:1,0:0:0:0:
303,37,80590,1,2,3:2:0:0:
370,98,80943,2,0,P|424:68|451:68,1,70,2|0,1:2|1:0,0:0:0:0:
485,139,81649,2,0,L|493:199,1,35,10|2,0:1|0:0,0:0:0:0:
474,216,82002,2,0,P|422:198|382:202,1,70,2|0,3:2|1:0,0:0:0:0:
328,244,82708,5,0,3:2:0:0:
321,334,83061,1,10,0:1:0:0:
400,378,83414,2,0,P|454:381|482:374,1,70,2|2,3:2|1:2,0:0:0:0:
497,291,84120,1,0,1:0:0:0:
450,213,84472,2,0,P|425:210|404:202,1,35,10|2,0:1|0:0,0:0:0:0:
374,187,84825,1,2,3:2:0:0:
410,105,85178,1,2,1:2:0:0:
410,105,85355,6,0,P|418:58|412:3,1,70,2|0,0:0|0:0,0:0:0:0:
388,1,85884,1,10,0:1:0:0:
296,0,86237,1,2,3:2:0:0:
220,52,86590,2,0,P|159:63|134:52,1,70,2|0,1:2|1:0,0:0:0:0:
63,46,87296,2,0,L|47:80,1,35,10|2,0:1|0:0,0:0:0:0:
31,120,87649,1,2,3:2:0:0:
110,175,88002,5,2,1:2:0:0:
110,175,88178,2,0,L|125:256,1,70,2|0,0:0|0:0,0:0:0:0:
132,288,88708,1,10,0:1:0:0:
222,294,89061,2,0,L|236:214,1,70,2|2,3:2|1:2,0:0:0:0:
214,136,89767,1,2,1:2:0:0:
292,89,90120,1,8,0:1:0:0:
366,145,90472,1,2,1:2:0:0:
449,109,90825,6,0,L|487:245,1,140,6|10,1:2|0:1,0:0:0:0:
432,317,91884,1,2,3:2:0:0:
354,268,92237,2,0,P|327:290|295:304,1,70,2|0,1:2|1:0,0:0:0:0:
225,244,92943,2,0,P|205:193|201:187,1,35,10|2,0:1|0:0,0:0:0:0:
192,170,93296,1,2,3:2:0:0:
126,233,93649,5,2,1:2:0:0:
37,205,94002,1,0,3:0:0:0:
16,116,94355,1,10,0:1:0:0:
87,59,94708,2,0,P|123:80|178:88,1,70,2|2,3:2|1:2,0:0:0:0:
241,92,95414,1,0,1:0:0:0:
311,34,95767,2,0,L|345:26,1,35,10|2,0:1|0:0,0:0:0:0:
390,31,96120,1,2,3:2:0:0:
376,120,96472,5,2,1:2:0:0:
376,120,96649,2,0,P|401:181|402:198,1,70,2|0,0:0|0:0,0:0:0:0:
392,229,97178,1,10,0:1:0:0:
472,269,97531,2,0,P|445:335|446:349,1,70,2|2,3:2|1:2,0:0:0:0:
361,369,98237,1,0,1:0:0:0:
279,329,98590,2,0,P|253:297|241:289,1,35,10|2,0:1|0:0,0:0:0:0:
219,276,98943,1,2,3:2:0:0:
146,331,99296,5,2,1:2:0:0:
146,331,99472,2,0,P|118:303|75:295,1,70,2|0,0:0|0:0,0:0:0:0:
43,293,100002,1,10,0:1:0:0:
28,203,100355,1,2,3:2:0:0:
98,145,100708,2,0,P|128:119|141:78,1,70,2|0,1:2|1:0,0:0:0:0:
127,1,101414,1,10,1:0:0:0:
36,14,101767,1,10,0:1:0:0:
0,97,102120,1,2,0:0:0:0:
61,371,103531,6,0,L|37:208,1,154.000004699707,4|10,1:2|0:1,0:0:0:0:
156,56,104942,1,2,1:1:0:0:
165,155,105295,1,2,1:1:0:0:
241,219,105648,1,10,0:1:0:0:
340,212,106001,1,2,0:1:0:0:
418,150,106354,6,0,L|450:0,1,154.000004699707,2|10,1:2|0:1,0:0:0:0:
511,191,107766,1,2,0:1:0:0:
418,150,108119,1,2,1:1:0:0:
323,183,108472,2,0,L|273:199,1,38.5000011749268,10|2,0:1|0:1,0:0:0:0:
239,211,108825,1,2,0:1:0:0:
149,165,109178,6,0,L|90:152,1,38.5000011749268,2|0,1:2|0:0,0:0:0:0:
62,145,109531,1,2,0:0:0:0:
86,52,109883,1,8,0:1:0:0:
86,52,110060,2,0,P|120:22|165:16,1,77.0000023498536,2|0,0:0|0:0,0:0:0:0:
198,29,110589,2,0,P|255:67|267:66,1,77.0000023498536,2|2,1:2|1:2,0:0:0:0:
310,65,111119,1,2,0:0:0:0:
310,65,111295,2,0,P|341:40|376:36,1,77.0000023498536,8|2,0:1|0:0,0:0:0:0:
426,123,112001,6,0,P|401:184|409:208,1,77.0000023498536,2|2,1:2|0:0,0:0:0:0:
404,246,112531,1,2,0:0:0:0:
404,246,112707,2,0,L|352:236,1,38.5000011749268,8|2,0:1|0:0,0:0:0:0:
320,258,113060,2,0,L|268:248,1,38.5000011749268,2|2,0:0|0:0,0:0:0:0:
235,267,113413,2,0,L|151:255,1,77.0000023498536,8|2,0:1|0:0,0:0:0:0:
94,334,114119,1,2,0:0:0:0:
94,334,114295,2,0,L|10:322,1,77.0000023498536,2|2,0:0|0:0,0:0:0:0:
0,277,114825,6,0,P|-6:194|2:119,1,154.000004699707,6|8,1:2|0:1,0:0:0:0:
80,62,115883,1,2,0:0:0:0:
132,147,116236,2,0,P|161:199|177:217,1,77.0000023498536,2|2,1:2|1:2,0:0:0:0:
226,217,116766,1,2,0:0:0:0:
226,217,116942,2,0,P|254:177|257:165,1,38.5000011749268,8|2,0:1|0:0,0:0:0:0:
263,138,117295,1,2,0:0:0:0:
223,48,117648,6,0,P|265:34|387:37,1,154.000004699707,2|8,1:2|0:1,0:0:0:0:
461,82,118707,2,0,P|443:127|445:139,1,38.5000011749268,2|2,0:0|0:0,0:0:0:0:
438,165,119060,2,0,L|457:257,1,77.0000023498536,2|2,1:2|1:2,0:0:0:0:
359,260,119766,1,8,0:1:0:0:
359,260,119942,2,0,L|333:355,1,77.0000023498536,2|2,0:0|0:0,0:0:0:0:
326,383,120472,5,2,1:2:0:0:
255,314,120825,2,0,P|234:297|217:292,1,38.5000011749268,2|2,0:0|0:0,0:0:0:0:
173,294,121178,1,8,0:1:0:0:
74,310,121530,2,0,P|30:287|3:250,1,77.0000023498536,2|2,0:0|1:2,0:0:0:0:
26,221,122060,1,2,0:0:0:0:
26,221,122236,2,0,P|48:194|53:176,1,38.5000011749268,2|2,1:2|0:0,0:0:0:0:
74,147,122589,1,8,0:1:0:0:
54,48,122942,1,2,0:0:0:0:
146,9,123295,6,0,P|203:28|216:42,1,77.0000023498536,6|2,1:2|0:0,0:0:0:0:
223,93,123825,1,2,0:0:0:0:
223,93,124001,2,0,P|165:112|152:126,1,77.0000023498536,8|2,0:1|0:0,0:0:0:0:
142,222,124707,2,0,P|196:242|205:251,1,38.5000011749268,6|8,1:2|0:1,0:0:0:0:
215,265,125060,1,2,0:0:0:0:
306,220,125413,1,8,0:1:0:0:
306,220,125589,2,0,P|343:271|347:309,1,77.0000023498536,2|0,0:0|0:0,0:0:0:0:
355,333,126119,6,0,L|439:359,1,77.0000023498536,2|2,1:2|0:0,0:0:0:0:
482,357,126648,1,2,0:0:0:0:
482,357,126825,2,0,L|462:259,1,77.0000023498536,8|2,0:1|0:0,0:0:0:0:
497,186,127530,1,8,0:1:0:0:
457,93,127883,1,2,0:0:0:0:
372,146,128236,1,2,0:0:0:0:
332,53,128589,2,0,P|290:22|270:17,1,38.5000011749268,2|0,1:2|0:0,0:0:0:0:
258,16,128942,1,6,1:2:0:0:
256,192,129119,12,0,131766,1:0:0:0:
61,12,132472,6,0,P|40:68|49:173,1,140,2|2,1:1|1:1,0:0:0:0:
87,323,133883,1,2,1:1:0:0:
185,169,134589,6,0,P|213:105|282:46,2,140,2|0|2,0:1|1:0|1:1,0:0:0:0:
340,263,136707,2,0,P|384:238|410:195,1,70,2|2,1:1|0:1,0:0:0:0:
452,152,137413,6,0,L|416:-8,2,140,2|0|2,1:1|1:0|1:1,0:0:0:0:
274,192,139530,2,0,L|259:260,1,70,0|0,1:0|0:0,0:0:0:0:
320,327,140236,1,0,1:0:0:0:
153,0,141648,5,10,1:1:0:0:
207,72,142001,1,10,1:1:0:0:
155,147,142354,1,10,1:1:0:0:
199,226,142707,1,2,1:2:0:0:
157,307,143060,6,0,P|120:271|29:275,2,140,4|10|2,1:2|0:1|1:1,0:0:0:0:
225,366,144825,1,2,1:2:0:0:
257,280,145178,2,0,P|291:234|333:236,1,70,10|2,0:1|3:2,0:0:0:0:
363,296,145883,6,0,L|450:323,1,70,2|2,1:1|3:2,0:0:0:0:
465,232,146589,2,0,P|429:163|429:117,1,105,10|2,0:1|0:0,0:0:0:0:
425,91,147295,1,6,1:2:0:0:
337,116,147648,1,2,1:2:0:0:
314,27,148001,1,10,0:1:0:0:
226,52,148354,1,2,3:2:0:0:
138,76,148707,6,0,P|100:48|43:53,1,105,2|0,1:1|0:0,0:0:0:0:
40,97,149413,2,0,L|72:193,1,70,8|2,0:1|3:1,0:0:0:0:
30,246,150119,2,0,L|61:338,1,70,2|0,1:2|1:0,0:0:0:0:
132,356,150825,2,0,P|169:314|220:301,1,105,10|0,0:1|0:0,0:0:0:0:
259,296,151530,6,0,P|283:315|324:319,1,70,6|2,1:2|3:2,0:0:0:0:
367,240,152236,2,0,P|316:204|288:203,1,70,8|2,0:1|3:2,0:0:0:0:
353,122,152942,1,4,1:2:0:0:
312,40,153295,1,8,0:1:0:0:
222,53,153648,1,10,0:1:0:0:
234,152,154001,1,10,0:1:0:0:
234,152,154178,1,8,1:1:0:0:
234,152,154354,6,0,P|237:205|213:301,1,154.000004699707,6|10,1:2|0:1,0:0:0:0:
114,323,155413,1,2,3:2:0:0:
28,271,155766,1,2,1:2:0:0:
47,172,156119,1,2,1:2:0:0:
140,136,156472,2,0,P|159:99|155:71,1,38.5000011749268,10|0,0:1|0:0,0:0:0:0:
143,54,156825,1,2,3:2:0:0:
242,40,157178,6,0,P|262:104|284:122,1,77.0000023498536,2|2,1:1|3:2,0:0:0:0:
365,88,157883,2,0,L|484:102,1,115.50000352478,10|0,0:1|0:0,0:0:0:0:
507,143,158589,2,0,P|469:171|450:213,1,77.0000023498536,2|0,1:2|1:0,0:0:0:0:
439,295,159295,2,0,P|454:312|463:339,1,38.5000011749268,10|2,0:1|0:0,0:0:0:0:
460,376,159648,1,2,3:2:0:0:
362,351,160001,5,2,1:1:0:0:
265,324,160354,2,0,L|212:336,1,38.5000011749268,2|0,3:2|0:0,0:0:0:0:
177,330,160707,2,0,P|142:372|97:382,1,77.0000023498536,10|0,0:1|3:0,0:0:0:0:
28,343,161413,2,0,P|16:302|25:255,1,77.0000023498536,2|2,1:2|1:0,0:0:0:0:
109,219,162119,2,0,P|125:266|139:287,1,38.5000011749268,10|0,0:1|0:0,0:0:0:0:
150,295,162472,1,2,3:2:0:0:
228,233,162825,6,0,P|214:185|214:164,1,38.5000011749268,6|0,1:2|0:0,0:0:0:0:
209,146,163178,1,2,3:2:0:0:
308,130,163530,2,0,P|321:177|322:199,1,38.5000011749268,10|0,0:1|0:0,0:0:0:0:
327,217,163883,1,2,3:2:0:0:
427,220,164236,1,10,1:1:0:0:
493,143,164589,1,2,3:2:0:0:
450,52,164942,1,2,1:2:0:0:
350,39,165295,1,2,1:2:0:0:
308,130,165648,6,0,P|238:80|165:74,2,154.000004699707,6|10|2,1:2|0:1|1:2,0:0:0:0:
284,227,167413,1,2,1:2:0:0:
183,225,167766,2,0,P|151:241|137:264,1,38.5000011749268,10|0,0:1|0:0,0:0:0:0:
115,279,168119,1,2,3:2:0:0:
153,371,168472,5,2,1:1:0:0:
255,370,168825,1,2,3:2:0:0:
275,272,169178,2,0,P|325:276|353:310,1,77.0000023498536,10|2,0:1|3:2,0:0:0:0:
363,343,169707,1,2,0:0:0:0:
363,343,169883,1,2,1:2:0:0:
444,284,170236,1,2,1:2:0:0:
433,184,170589,1,10,0:1:0:0:
345,162,170942,1,2,1:1:0:0:
345,162,171119,1,10,1:1:0:0:
345,162,171295,6,0,P|270:187|248:185,1,77.0000023498536,2|0,1:1|3:0,0:0:0:0:
227,97,172001,2,0,P|152:72|130:74,1,77.0000023498536,8|2,0:1|3:2,0:0:0:0:
110,83,172530,1,2,0:0:0:0:
110,83,172707,1,2,1:2:0:0:
79,178,173060,1,2,1:2:0:0:
138,258,173413,1,10,0:1:0:0:
238,255,173766,1,2,3:2:0:0:
291,339,174119,6,0,P|332:335|373:347,1,77.0000023498536,6|2,1:2|3:2,0:0:0:0:
394,304,174648,1,2,0:0:0:0:
394,304,174825,2,0,P|374:266|369:230,1,77.0000023498536,10|0,0:1|3:2,0:0:0:0:
451,175,175530,2,0,L|496:188,2,38.5000011749268,6|8|2,1:2|0:1|3:2,0:0:0:0:
418,136,176060,1,2,1:2:0:0:
418,136,176236,2,0,L|339:120,1,77.0000023498536,8|2,0:1|1:2,0:0:0:0:
250,87,176942,6,0,P|223:39|183:22,1,77.0000023498536,2|0,1:2|3:0,0:0:0:0:
112,67,177648,2,0,P|114:122|140:159,1,77.0000023498536,10|0,3:1|3:0,0:0:0:0:
162,233,178354,2,0,P|176:268|206:291,1,77.0000023498536,10|0,3:1|3:0,0:0:0:0:
301,254,179060,2,0,P|303:215|289:180,1,77.0000023498536,2|0,0:1|1:0,0:0:0:0:
203,148,179766,1,6,1:2:0:0:
256,192,179942,12,2,182589,0:0:0:0:
73,63,183295,6,0,L|80:140,1,70,2|2,0:0|0:0,0:0:0:0:
14,196,184001,2,0,L|21:273,1,70,2|0,0:0|0:0,0:0:0:0:
29,356,184707,1,2,0:0:0:0:
197,289,185413,6,0,P|234:267|330:270,1,140,2|0,0:0|0:0,0:0:0:0:
411,306,186472,2,0,L|422:340,2,35,2|2|2,0:0|0:0|0:0,0:0:0:0:
400,215,187178,2,0,L|379:136,2,70,2|2|2,0:0|0:0|0:0,0:0:0:0:
486,242,188236,5,2,0:0:0:0:
308,258,188942,2,0,L|219:283,1,70,2|2,0:0|0:0,0:0:0:0:
154,305,189648,2,0,P|156:240|110:150,1,140,2|2,0:0|0:0,0:0:0:0:
49,7,191060,6,0,P|122:72|199:51,1,175,2|0,0:0|0:0,0:0:0:0:
231,36,192119,1,2,0:0:0:0:
251,124,192472,2,0,P|334:113|392:174,1,175,2|0,0:0|0:0,0:0:0:0:
393,219,193530,1,2,0:0:0:0:
342,294,193883,1,2,0:0:0:0:
256,192,194060,12,2,199707,0:0:0:0:
