osu file format v14

[General]
AudioFilename: bus.ogg
AudioLeadIn: 0
PreviewTime: 226
Countdown: 0
SampleSet: Normal
StackLeniency: 0.7
Mode: 1
LetterboxInBreaks: 0
WidescreenStoryboard: 0

[Editor]
Bookmarks: 351,4351,8351,12351,20351,28351,36351,48351,56351,62351,66351,74351,82351,90351,110351,118351,124351,144351,152351,160351,168351
DistanceSpacing: 1.1
BeatDivisor: 4
GridSize: 32
TimelineZoom: 2.4

[Metadata]
Title:Anoyo-iki no Bus ni Notte Saraba.
TitleUnicode:あの世行きのバスに乗ってさらば。
Artist:TUYU
ArtistUnicode:ツユ
Creator:gaston_2199
Version:Sayonara
Source:
Tags:ぷす Pusu 礼衣 Rei おむたつ omutatsu AzyuN jpop j-pop japanese pop rock j-rock female vocals やっぱり雨は降るんだね yappari ame wa ha furun da ne its it's raining after all farewell on that bus I'm getting on the bus to the other world, see ya! オンゲキ 音撃 R.E.D. PLUS o.n.g.e.k.i ongeki red video game sega KTYN KitajimaYN yuni Stingy
BeatmapID:2858717
BeatmapSetID:1383875

[Difficulty]
HPDrainRate:6
CircleSize:2
OverallDifficulty:7
ApproachRate:10
SliderMultiplier:1.4
SliderTickRate:1

[Events]
//Background and Video events
0,0,"BG.jpg",0,0
//Break Periods
//Storyboard Layer 0 (Background)
//Storyboard Layer 1 (Fail)
//Storyboard Layer 2 (Pass)
//Storyboard Layer 3 (Foreground)
//Storyboard Layer 4 (Overlay)
//Storyboard Sound Samples

[TimingPoints]
351,250,4,1,0,60,1,0
351,-125,4,1,0,60,0,0
3346,-125,4,1,0,80,0,0
3846,-100,4,1,0,80,0,0
10471,-95.2380952380952,4,1,0,80,0,0
10721,-90.9090909090909,4,1,0,80,0,0
10971,-86.9565217391304,4,1,0,80,0,0
11033,-86.3309352517986,4,1,0,80,0,0
11096,-85.7142857142857,4,1,0,80,0,0
11158,-85.1063829787234,4,1,0,80,0,0
11221,-84.5070422535211,4,1,0,80,0,0
11283,-83.9160839160839,4,1,0,80,0,0
11346,-83.3333333333333,4,1,0,80,0,0
12346,-125,4,1,0,70,0,0
27596,-119.047619047619,4,1,0,70,0,0
27846,-113.636363636364,4,1,0,70,0,0
28096,-108.695652173913,4,1,0,70,0,0
28221,-104.166666666667,4,1,0,70,0,0
28346,-100,4,1,0,80,0,0
36596,-125,4,1,0,70,0,0
40346,-111.111111111111,4,1,0,70,0,0
40471,-125,4,1,0,70,0,0
43846,-119.047619047619,4,1,0,70,0,0
43971,-113.636363636364,4,1,0,70,0,0
44096,-108.695652173913,4,1,0,70,0,0
44221,-104.166666666667,4,1,0,70,0,0
44346,-100,4,1,0,80,0,0
46471,-97.5609756097561,4,1,0,80,0,0
46533,-96.3855421686747,4,1,0,80,0,0
46596,-95.2380952380952,4,1,0,80,0,0
46721,-93.0232558139535,4,1,0,80,0,0
46783,-91.9540229885058,4,1,0,80,0,0
46846,-90.9090909090909,4,1,0,80,0,0
46908,-89.8876404494382,4,1,0,80,0,0
46971,-88.8888888888889,4,1,0,80,0,0
47033,-87.9120879120879,4,1,0,80,0,0
47096,-86.9565217391304,4,1,0,80,0,0
47221,-85.1063829787234,4,1,0,80,0,0
47346,-83.3333333333333,4,1,0,80,0,0
48351,-100,4,1,0,90,0,1
54346,-95.2380952380952,4,1,0,90,0,1
54471,-100,4,1,0,90,0,1
54846,-90.9090909090909,4,1,0,90,0,1
54971,-100,4,1,0,90,0,1
55346,-86.9565217391304,4,1,0,90,0,1
55471,-100,4,1,0,90,0,1
60351,-83.3333333333333,4,1,0,80,0,0
61346,-76.9230769230769,4,1,0,80,0,0
62346,-125,4,1,0,60,0,0
65346,-125,4,1,0,80,0,0
65846,-100,4,1,0,80,0,0
72471,-95.2380952380952,4,1,0,80,0,0
72721,-90.9090909090909,4,1,0,80,0,0
72971,-86.9565217391304,4,1,0,80,0,0
73033,-86.3309352517986,4,1,0,80,0,0
73096,-85.7142857142857,4,1,0,80,0,0
73158,-85.1063829787234,4,1,0,80,0,0
73221,-84.5070422535211,4,1,0,80,0,0
73283,-83.9160839160839,4,1,0,80,0,0
73346,-83.3333333333333,4,1,0,80,0,0
74346,-125,4,1,0,70,0,0
89596,-119.047619047619,4,1,0,70,0,0
89846,-113.636363636364,4,1,0,70,0,0
90096,-108.695652173913,4,1,0,70,0,0
90221,-104.166666666667,4,1,0,70,0,0
90346,-100,4,1,0,80,0,0
98596,-125,4,1,0,70,0,0
102346,-111.111111111111,4,1,0,70,0,0
102471,-125,4,1,0,70,0,0
105846,-119.047619047619,4,1,0,70,0,0
105971,-113.636363636364,4,1,0,70,0,0
106096,-108.695652173913,4,1,0,70,0,0
106221,-104.166666666667,4,1,0,70,0,0
106346,-100,4,1,0,80,0,0
108471,-97.5609756097561,4,1,0,80,0,0
108533,-96.3855421686747,4,1,0,80,0,0
108596,-95.2380952380952,4,1,0,80,0,0
108721,-93.0232558139535,4,1,0,80,0,0
108783,-91.9540229885058,4,1,0,80,0,0
108846,-90.9090909090909,4,1,0,80,0,0
108908,-89.8876404494382,4,1,0,80,0,0
108971,-88.8888888888889,4,1,0,80,0,0
109033,-87.9120879120879,4,1,0,80,0,0
109096,-86.9565217391304,4,1,0,80,0,0
109221,-85.1063829787234,4,1,0,80,0,0
109346,-83.3333333333333,4,1,0,80,0,0
110351,-100,4,1,0,90,0,1
116346,-95.2380952380952,4,1,0,90,0,1
116471,-100,4,1,0,90,0,1
116846,-90.9090909090909,4,1,0,90,0,1
116971,-100,4,1,0,90,0,1
117346,-86.9565217391304,4,1,0,90,0,1
117471,-100,4,1,0,90,0,1
122351,-83.3333333333333,4,1,0,80,0,0
123346,-76.9230769230769,4,1,0,80,0,0
124351,-111.111111111111,4,1,0,70,0,0
141846,-105.263157894737,4,1,0,70,0,0
141971,-103.896103896104,4,1,0,70,0,0
142096,-102.564102564103,4,1,0,70,0,0
142221,-101.26582278481,4,1,0,70,0,0
142346,-100,4,1,0,80,0,0
144346,-125,4,1,0,60,0,0
147846,-111.111111111111,4,1,0,70,0,0
152596,-125,4,1,0,60,0,0
155846,-111.111111111111,4,1,0,70,0,0
158346,-100,4,1,0,80,0,0
158596,-95.8904109589041,4,1,0,80,0,0
158721,-92.1052631578947,4,1,0,80,0,0
158846,-88.6075949367089,4,1,0,80,0,0
158971,-85.3658536585366,4,1,0,80,0,0
159096,-82.3529411764706,4,1,0,80,0,0
159221,-79.5454545454545,4,1,0,80,0,0
159346,-76.9230769230769,4,1,0,80,0,0
160351,-90.9090909090909,4,1,0,90,0,1
166346,-86.9565217391304,4,1,0,90,0,1
166471,-90.9090909090909,4,1,0,90,0,1
166846,-83.3333333333333,4,1,0,90,0,1
166971,-90.9090909090909,4,1,0,90,0,1
167346,-80,4,1,0,90,0,1
167471,-90.9090909090909,4,1,0,90,0,1
172351,-76.9230769230769,4,1,0,80,0,0
173346,-71.4285714285714,4,1,0,80,0,0
174346,-125,4,1,0,60,0,0
176351,-90.9090909090909,4,1,0,90,0,1
180351,-76.9230769230769,4,1,0,80,0,0
181345,-71.4285714285714,4,1,0,80,0,0
182351,250,4,1,0,80,1,8
182851,250,4,1,0,60,1,0
182851,-125,4,1,0,60,0,0
185846,-125,4,1,0,80,0,0
186851,-83.3333333333333,4,1,0,90,0,1
188726,-83.3333333333333,4,1,0,80,0,0
189851,-100,4,1,0,70,0,0
190851,-100,4,1,0,60,0,0
191851,-100,4,1,0,50,0,0
192851,-100,4,1,0,40,0,0

[HitObjects]
225,251,351,5,4,0:0:0:0:
180,155,601,1,0,0:0:0:0:
253,184,726,1,8,0:0:0:0:
253,184,851,1,0,0:0:0:0:
253,184,1101,1,8,0:0:0:0:
234,30,1226,1,8,0:0:0:0:
225,251,1351,1,0,0:0:0:0:
253,184,1601,1,0,0:0:0:0:
253,184,1726,1,8,0:0:0:0:
225,251,1851,1,0,0:0:0:0:
224,8,1976,1,0,0:0:0:0:
253,184,2101,1,8,0:0:0:0:
193,187,2351,1,0,0:0:0:0:
253,184,2601,1,8,0:0:0:0:
207,26,2726,1,8,0:0:0:0:
253,184,2851,1,0,0:0:0:0:
207,26,2976,1,0,0:0:0:0:
253,184,3101,1,8,0:0:0:0:
253,184,3226,1,0,0:0:0:0:
225,251,3351,1,12,0:0:0:0:
225,219,3851,5,8,0:0:0:0:
353,123,3934,1,8,0:0:0:0:
353,123,4017,1,0,0:0:0:0:
353,123,4101,1,8,0:0:0:0:
353,123,4184,1,0,0:0:0:0:
353,123,4267,1,0,0:0:0:0:
353,123,4351,1,8,0:0:0:0:
353,123,4434,1,8,0:0:0:0:
353,123,4517,1,0,0:0:0:0:
353,123,4601,1,8,0:0:0:0:
353,123,4684,1,0,0:0:0:0:
353,123,4767,1,0,0:0:0:0:
353,123,4851,1,8,0:0:0:0:
353,123,4934,1,8,0:0:0:0:
353,123,5017,1,8,0:0:0:0:
353,123,5101,1,8,0:0:0:0:
353,123,5184,1,0,0:0:0:0:
353,123,5267,1,0,0:0:0:0:
353,123,5351,1,8,0:0:0:0:
353,123,5434,1,8,0:0:0:0:
353,123,5517,1,0,0:0:0:0:
353,123,5601,1,8,0:0:0:0:
353,123,5684,1,0,0:0:0:0:
353,123,5767,1,0,0:0:0:0:
353,123,5851,1,8,0:0:0:0:
353,123,5934,1,8,0:0:0:0:
353,123,6017,1,0,0:0:0:0:
353,123,6101,1,8,0:0:0:0:
353,123,6184,1,0,0:0:0:0:
353,123,6267,1,0,0:0:0:0:
353,123,6351,1,8,0:0:0:0:
385,91,6601,5,8,0:0:0:0:
385,91,6726,1,8,0:0:0:0:
417,187,6788,1,8,0:0:0:0:
385,91,6851,1,0,0:0:0:0:
417,187,6976,1,0,0:0:0:0:
417,187,7101,1,8,0:0:0:0:
417,187,7226,1,0,0:0:0:0:
417,187,7288,1,0,0:0:0:0:
417,187,7351,1,8,0:0:0:0:
417,187,7476,1,0,0:0:0:0:
417,187,7601,1,8,0:0:0:0:
417,187,7726,1,8,0:0:0:0:
417,187,7788,1,8,0:0:0:0:
417,187,7851,1,0,0:0:0:0:
387,158,7913,1,0,0:0:0:0:
417,187,7976,1,0,0:0:0:0:
417,187,8101,1,8,0:0:0:0:
417,187,8226,1,0,0:0:0:0:
417,187,8351,1,12,0:0:0:0:
417,187,8601,5,8,0:0:0:0:
417,187,8726,1,0,0:0:0:0:
417,187,8788,1,0,0:0:0:0:
417,187,8851,1,8,0:0:0:0:
417,187,8976,1,0,0:0:0:0:
417,187,9101,1,8,0:0:0:0:
417,187,9226,1,8,0:0:0:0:
417,187,9288,1,0,0:0:0:0:
417,187,9351,1,8,0:0:0:0:
383,153,9413,1,8,0:0:0:0:
417,187,9476,1,0,0:0:0:0:
417,187,9601,1,8,0:0:0:0:
417,187,9726,1,0,0:0:0:0:
417,187,9788,1,0,0:0:0:0:
417,187,9851,1,8,0:0:0:0:
417,187,9913,1,8,0:0:0:0:
417,187,9976,1,0,0:0:0:0:
417,187,10038,1,0,0:0:0:0:
417,187,10101,1,8,0:0:0:0:
417,187,10226,1,0,0:0:0:0:
417,187,10351,1,12,0:0:0:0:
417,155,10476,5,0,0:0:0:0:
417,155,10538,1,0,0:0:0:0:
417,155,10601,1,8,0:0:0:0:
417,155,10726,5,0,0:0:0:0:
289,155,10788,1,0,0:0:0:0:
417,155,10851,1,8,0:0:0:0:
417,155,10976,5,0,0:0:0:0:
417,155,11038,1,0,0:0:0:0:
417,155,11101,1,8,0:0:0:0:
257,42,11163,1,0,0:0:0:0:
289,155,11226,1,8,0:0:0:0:
417,155,11288,1,8,0:0:0:0:
417,155,11351,1,0,0:0:0:0:
321,123,12351,5,4,0:0:0:0:
321,123,12601,1,0,0:0:0:0:
321,123,12851,1,8,0:0:0:0:
321,123,13101,1,8,0:0:0:0:
321,123,13351,1,0,0:0:0:0:
321,123,13601,1,8,0:0:0:0:
357,90,13726,1,0,0:0:0:0:
321,123,13851,1,8,0:0:0:0:
321,123,13976,1,0,0:0:0:0:
321,123,14101,1,8,0:0:0:0:
321,123,14351,1,0,0:0:0:0:
321,123,14601,1,0,0:0:0:0:
321,123,14851,1,8,0:0:0:0:
321,123,15101,1,0,0:0:0:0:
321,123,15226,1,8,0:0:0:0:
321,123,15351,1,0,0:0:0:0:
321,123,15601,1,0,0:0:0:0:
281,143,15726,1,0,0:0:0:0:
321,123,15851,1,8,0:0:0:0:
321,123,16101,1,8,0:0:0:0:
321,123,16226,1,8,0:0:0:0:
321,123,16351,5,4,0:0:0:0:
289,123,16601,1,8,0:0:0:0:
289,123,16726,1,0,0:0:0:0:
289,123,16851,1,8,0:0:0:0:
289,123,17101,1,8,0:0:0:0:
289,123,17351,1,0,0:0:0:0:
289,123,17601,1,0,0:0:0:0:
289,123,17726,1,0,0:0:0:0:
289,123,17851,1,8,0:0:0:0:
289,123,18101,1,0,0:0:0:0:
289,123,18351,1,8,0:0:0:0:
225,123,18601,1,8,0:0:0:0:
225,123,18726,1,0,0:0:0:0:
225,123,18851,1,8,0:0:0:0:
281,143,19101,1,8,0:0:0:0:
225,123,19226,1,8,0:0:0:0:
225,123,19351,1,0,0:0:0:0:
281,143,19476,1,8,0:0:0:0:
281,143,19601,1,0,0:0:0:0:
225,123,19726,1,0,0:0:0:0:
225,123,19851,1,8,0:0:0:0:
225,123,20101,1,8,0:0:0:0:
225,123,20226,1,8,0:0:0:0:
225,123,20351,5,4,0:0:0:0:
225,123,20601,1,0,0:0:0:0:
225,123,20851,1,8,0:0:0:0:
225,123,21101,1,8,0:0:0:0:
225,123,21351,1,0,0:0:0:0:
265,86,21601,1,8,0:0:0:0:
275,94,21726,1,0,0:0:0:0:
225,123,21851,1,8,0:0:0:0:
225,123,22101,1,8,0:0:0:0:
225,123,22226,1,8,0:0:0:0:
225,123,22351,1,0,0:0:0:0:
225,123,22601,1,0,0:0:0:0:
225,123,22851,1,8,0:0:0:0:
225,123,23101,1,0,0:0:0:0:
225,123,23226,1,8,0:0:0:0:
225,123,23351,1,0,0:0:0:0:
225,123,23601,1,0,0:0:0:0:
281,143,23726,1,0,0:0:0:0:
225,123,23851,1,8,0:0:0:0:
225,123,24101,1,8,0:0:0:0:
225,123,24226,1,8,0:0:0:0:
225,123,24351,5,4,0:0:0:0:
257,123,24601,1,0,0:0:0:0:
257,123,24851,1,8,0:0:0:0:
210,11,24976,1,0,0:0:0:0:
225,187,25101,1,8,0:0:0:0:
257,123,25351,1,0,0:0:0:0:
149,64,25476,1,0,0:0:0:0:
257,123,25601,1,8,0:0:0:0:
257,123,25726,1,0,0:0:0:0:
257,123,25851,1,8,0:0:0:0:
257,123,25976,1,8,0:0:0:0:
257,123,26226,1,8,0:0:0:0:
257,123,26351,1,0,0:0:0:0:
206,33,26476,1,8,0:0:0:0:
257,123,26601,1,0,0:0:0:0:
257,123,26726,1,0,0:0:0:0:
257,123,26851,1,8,0:0:0:0:
225,123,26976,1,0,0:0:0:0:
257,123,27101,1,8,0:0:0:0:
257,123,27226,1,8,0:0:0:0:
257,123,27351,1,0,0:0:0:0:
257,123,27601,1,0,0:0:0:0:
257,123,27851,1,8,0:0:0:0:
257,123,28101,1,8,0:0:0:0:
257,123,28226,1,8,0:0:0:0:
257,123,28351,5,4,0:0:0:0:
257,123,28601,1,8,0:0:0:0:
257,123,28726,1,8,0:0:0:0:
257,123,28851,1,0,0:0:0:0:
257,123,29101,1,8,0:0:0:0:
257,123,29226,1,8,0:0:0:0:
257,123,29351,1,0,0:0:0:0:
257,123,29601,1,8,0:0:0:0:
257,123,29726,1,8,0:0:0:0:
257,123,29851,1,0,0:0:0:0:
257,123,29976,1,8,0:0:0:0:
257,123,30101,1,8,0:0:0:0:
257,123,30226,1,8,0:0:0:0:
257,123,30351,5,0,0:0:0:0:
185,127,30476,1,0,0:0:0:0:
323,213,30601,1,8,0:0:0:0:
225,123,30726,1,8,0:0:0:0:
257,123,30851,1,0,0:0:0:0:
257,123,31101,1,8,0:0:0:0:
225,123,31226,1,8,0:0:0:0:
257,123,31351,1,0,0:0:0:0:
257,123,31601,1,8,0:0:0:0:
259,126,31726,1,8,0:0:0:0:
257,123,31851,1,0,0:0:0:0:
225,123,31976,1,0,0:0:0:0:
257,123,32101,1,8,0:0:0:0:
257,123,32226,1,8,0:0:0:0:
257,123,32351,5,0,0:0:0:0:
257,123,32600,1,8,0:0:0:0:
257,123,32725,1,8,0:0:0:0:
257,123,32851,1,0,0:0:0:0:
257,123,33101,1,8,0:0:0:0:
257,123,33226,1,8,0:0:0:0:
257,123,33351,1,0,0:0:0:0:
257,123,33601,1,8,0:0:0:0:
257,123,33726,1,8,0:0:0:0:
257,123,33851,1,0,0:0:0:0:
257,123,33976,1,8,0:0:0:0:
257,123,34101,1,0,0:0:0:0:
257,123,34226,1,8,0:0:0:0:
257,123,34351,5,0,0:0:0:0:
180,94,34476,1,0,0:0:0:0:
257,123,34601,1,8,0:0:0:0:
257,123,34726,1,8,0:0:0:0:
257,123,34851,1,0,0:0:0:0:
336,45,34976,1,8,0:0:0:0:
257,123,35101,1,8,0:0:0:0:
257,123,35226,1,8,0:0:0:0:
257,123,35351,1,0,0:0:0:0:
257,123,35601,1,8,0:0:0:0:
257,123,35726,1,8,0:0:0:0:
257,123,35851,1,0,0:0:0:0:
225,123,35976,1,8,0:0:0:0:
257,123,36101,1,8,0:0:0:0:
257,123,36226,1,8,0:0:0:0:
257,123,36351,1,4,0:0:0:0:
281,143,36601,5,8,0:0:0:0:
281,143,36726,1,0,0:0:0:0:
225,123,36851,1,8,0:0:0:0:
281,143,36976,1,8,0:0:0:0:
225,123,37101,1,0,0:0:0:0:
225,123,37226,1,8,0:0:0:0:
225,123,37288,1,8,0:0:0:0:
225,123,37351,1,0,0:0:0:0:
281,143,37476,1,8,0:0:0:0:
225,123,37601,1,0,0:0:0:0:
225,123,37851,1,8,0:0:0:0:
281,143,37976,1,8,0:0:0:0:
225,123,38101,1,0,0:0:0:0:
225,123,38226,1,8,0:0:0:0:
225,123,38351,1,0,0:0:0:0:
281,143,38476,1,0,0:0:0:0:
281,143,38601,1,8,0:0:0:0:
281,143,38726,1,0,0:0:0:0:
225,123,38851,1,8,0:0:0:0:
281,143,38976,1,8,0:0:0:0:
225,123,39101,1,0,0:0:0:0:
225,123,39226,1,8,0:0:0:0:
225,123,39288,1,8,0:0:0:0:
225,123,39351,1,0,0:0:0:0:
225,123,39601,1,8,0:0:0:0:
260,67,39726,1,0,0:0:0:0:
225,123,39851,1,8,0:0:0:0:
225,123,39976,1,0,0:0:0:0:
225,123,40101,1,8,0:0:0:0:
225,123,40226,1,8,0:0:0:0:
225,123,40351,1,4,0:0:0:0:
260,67,40601,5,8,0:0:0:0:
260,67,40726,1,0,0:0:0:0:
225,123,40851,1,8,0:0:0:0:
260,67,40976,1,8,0:0:0:0:
225,123,41101,1,0,0:0:0:0:
225,123,41226,1,8,0:0:0:0:
225,123,41288,1,8,0:0:0:0:
225,123,41351,1,0,0:0:0:0:
225,123,41601,1,0,0:0:0:0:
260,67,41726,1,0,0:0:0:0:
225,123,41851,1,8,0:0:0:0:
225,123,42101,1,0,0:0:0:0:
225,123,42226,1,8,0:0:0:0:
225,123,42351,1,0,0:0:0:0:
222,130,42601,1,0,0:0:0:0:
225,123,42851,1,8,0:0:0:0:
260,67,42976,1,0,0:0:0:0:
260,67,43101,1,8,0:0:0:0:
225,123,43226,1,8,0:0:0:0:
225,123,43288,1,8,0:0:0:0:
225,123,43351,1,0,0:0:0:0:
225,123,43476,1,0,0:0:0:0:
225,123,43601,1,8,0:0:0:0:
225,123,43851,1,8,0:0:0:0:
225,123,43976,1,0,0:0:0:0:
225,123,44101,1,8,0:0:0:0:
225,123,44226,1,8,0:0:0:0:
225,123,44351,1,4,0:0:0:0:
225,123,44601,5,8,0:0:0:0:
225,123,44726,1,0,0:0:0:0:
225,123,44788,1,0,0:0:0:0:
225,123,44851,1,0,0:0:0:0:
225,123,44976,1,0,0:0:0:0:
225,123,45101,1,8,0:0:0:0:
225,123,45226,1,0,0:0:0:0:
225,123,45288,1,0,0:0:0:0:
225,123,45351,1,8,0:0:0:0:
225,123,45476,1,0,0:0:0:0:
225,123,45601,1,8,0:0:0:0:
239,125,45663,1,0,0:0:0:0:
225,123,45726,1,8,0:0:0:0:
225,123,45788,1,8,0:0:0:0:
225,123,45851,1,0,0:0:0:0:
225,123,45976,1,0,0:0:0:0:
225,91,46038,1,0,0:0:0:0:
225,123,46101,1,8,0:0:0:0:
225,123,46226,1,0,0:0:0:0:
225,123,46351,5,12,0:0:0:0:
225,123,46476,1,0,0:0:0:0:
225,91,46538,1,0,0:0:0:0:
225,123,46601,1,8,0:0:0:0:
225,123,46726,1,0,0:0:0:0:
284,93,46788,1,0,0:0:0:0:
225,123,46851,1,8,0:0:0:0:
225,123,46913,1,8,0:0:0:0:
225,123,46976,1,0,0:0:0:0:
257,123,47038,1,0,0:0:0:0:
225,123,47101,1,8,0:0:0:0:
225,123,47226,1,0,0:0:0:0:
225,123,47351,1,12,0:0:0:0:
225,155,48351,5,4,0:0:0:0:
280,133,48476,1,0,0:0:0:0:
257,91,48538,1,0,0:0:0:0:
257,123,48601,1,8,0:0:0:0:
257,91,48726,1,0,0:0:0:0:
257,123,48851,1,8,0:0:0:0:
257,91,48913,1,8,0:0:0:0:
257,123,48976,1,0,0:0:0:0:
225,91,49038,1,0,0:0:0:0:
257,123,49101,1,8,0:0:0:0:
257,123,49226,1,0,0:0:0:0:
257,91,49288,1,0,0:0:0:0:
257,123,49351,1,8,0:0:0:0:
257,123,49476,1,0,0:0:0:0:
257,123,49601,1,8,0:0:0:0:
257,123,49663,1,0,0:0:0:0:
257,123,49726,1,8,0:0:0:0:
257,123,49788,1,8,0:0:0:0:
257,123,49851,1,0,0:0:0:0:
257,123,49913,1,8,0:0:0:0:
257,123,49976,1,0,0:0:0:0:
257,123,50101,1,8,0:0:0:0:
257,123,50226,1,0,0:0:0:0:
257,123,50288,1,0,0:0:0:0:
257,123,50351,1,8,0:0:0:0:
225,123,50476,1,0,0:0:0:0:
225,123,50601,1,8,0:0:0:0:
225,123,50663,1,0,0:0:0:0:
225,123,50726,1,8,0:0:0:0:
225,123,50788,1,8,0:0:0:0:
225,123,50851,1,0,0:0:0:0:
225,123,50976,1,0,0:0:0:0:
225,123,51101,1,8,0:0:0:0:
257,91,51226,1,8,0:0:0:0:
257,91,51288,1,8,0:0:0:0:
225,123,51351,1,8,0:0:0:0:
225,123,51413,1,8,0:0:0:0:
225,123,51476,1,0,0:0:0:0:
225,123,51601,1,8,0:0:0:0:
225,123,51726,1,0,0:0:0:0:
225,123,51788,1,0,0:0:0:0:
225,123,51851,1,8,0:0:0:0:
225,123,51976,1,0,0:0:0:0:
225,123,52101,1,8,0:0:0:0:
225,123,52163,1,0,0:0:0:0:
225,123,52226,1,8,0:0:0:0:
225,123,52351,1,4,0:0:0:0:
257,155,52476,5,0,0:0:0:0:
257,155,52538,1,0,0:0:0:0:
257,123,52601,1,8,0:0:0:0:
257,123,52726,1,0,0:0:0:0:
257,123,52851,1,0,0:0:0:0:
257,91,52913,1,8,0:0:0:0:
257,91,52976,1,0,0:0:0:0:
257,91,53038,1,0,0:0:0:0:
257,91,53101,1,8,0:0:0:0:
257,91,53226,1,0,0:0:0:0:
257,91,53351,1,8,0:0:0:0:
257,91,53413,1,8,0:0:0:0:
257,91,53476,1,0,0:0:0:0:
257,91,53601,1,8,0:0:0:0:
257,91,53726,1,8,0:0:0:0:
257,91,53788,1,8,0:0:0:0:
257,91,53851,1,0,0:0:0:0:
243,97,53913,1,0,0:0:0:0:
257,91,53976,1,8,0:0:0:0:
236,125,54038,1,0,0:0:0:0:
257,91,54101,1,8,0:0:0:0:
257,91,54226,1,0,0:0:0:0:
257,91,54351,5,12,0:0:0:0:
257,91,54476,1,0,0:0:0:0:
228,102,54538,1,0,0:0:0:0:
257,91,54601,1,8,0:0:0:0:
258,138,54663,1,0,0:0:0:0:
257,91,54726,1,0,0:0:0:0:
257,91,54851,5,12,0:0:0:0:
225,91,54976,1,0,0:0:0:0:
218,99,55038,1,0,0:0:0:0:
257,91,55101,1,8,0:0:0:0:
203,83,55163,1,8,0:0:0:0:
257,91,55226,1,0,0:0:0:0:
257,91,55351,5,12,0:0:0:0:
257,91,55476,1,0,0:0:0:0:
235,91,55538,1,0,0:0:0:0:
257,91,55601,1,8,0:0:0:0:
225,91,55726,1,0,0:0:0:0:
225,91,55851,5,8,0:0:0:0:
225,91,55913,1,0,0:0:0:0:
225,91,55976,1,8,0:0:0:0:
225,91,56038,1,8,0:0:0:0:
225,91,56101,1,0,0:0:0:0:
225,91,56163,1,0,0:0:0:0:
225,91,56226,1,8,0:0:0:0:
225,91,56351,5,4,0:0:0:0:
280,133,56476,1,0,0:0:0:0:
257,91,56538,1,0,0:0:0:0:
193,123,56601,1,8,0:0:0:0:
193,123,56726,1,0,0:0:0:0:
193,123,56851,1,8,0:0:0:0:
257,91,56913,1,0,0:0:0:0:
193,123,56976,1,0,0:0:0:0:
257,91,57038,1,0,0:0:0:0:
193,123,57101,1,8,0:0:0:0:
193,123,57226,1,0,0:0:0:0:
193,123,57288,1,0,0:0:0:0:
193,123,57351,1,8,0:0:0:0:
193,123,57476,1,0,0:0:0:0:
193,123,57601,1,8,0:0:0:0:
193,123,57663,1,0,0:0:0:0:
193,123,57726,1,8,0:0:0:0:
193,123,57788,1,8,0:0:0:0:
193,123,57851,1,0,0:0:0:0:
193,123,57976,1,0,0:0:0:0:
193,123,58101,1,8,0:0:0:0:
224,96,58163,1,0,0:0:0:0:
193,123,58226,1,8,0:0:0:0:
193,123,58351,1,0,0:0:0:0:
257,91,58476,1,0,0:0:0:0:
257,91,58538,1,0,0:0:0:0:
257,91,58601,1,8,0:0:0:0:
257,91,58726,1,8,0:0:0:0:
257,91,58788,1,8,0:0:0:0:
257,91,58851,1,0,0:0:0:0:
257,91,58976,1,0,0:0:0:0:
257,91,59101,1,8,0:0:0:0:
257,91,59226,1,8,0:0:0:0:
257,91,59288,1,8,0:0:0:0:
257,91,59351,1,8,0:0:0:0:
257,91,59413,1,8,0:0:0:0:
257,91,59476,1,0,0:0:0:0:
225,91,59601,1,8,0:0:0:0:
225,91,59726,1,0,0:0:0:0:
225,91,59788,1,0,0:0:0:0:
225,91,59851,1,8,0:0:0:0:
225,91,59976,1,0,0:0:0:0:
225,91,60101,1,8,0:0:0:0:
225,91,60163,1,0,0:0:0:0:
225,91,60226,1,8,0:0:0:0:
225,91,60351,5,4,0:0:0:0:
193,91,60476,1,4,0:0:0:0:
225,91,61351,5,12,0:0:0:0:
193,91,61476,1,12,0:0:0:0:
225,251,62351,5,4,0:0:0:0:
253,184,62601,1,0,0:0:0:0:
253,184,62726,1,8,0:0:0:0:
253,184,62851,1,0,0:0:0:0:
253,184,63101,1,8,0:0:0:0:
234,30,63226,1,8,0:0:0:0:
225,251,63351,1,0,0:0:0:0:
253,184,63601,1,0,0:0:0:0:
253,184,63726,1,8,0:0:0:0:
225,251,63851,1,0,0:0:0:0:
248,31,63976,1,0,0:0:0:0:
253,184,64101,1,8,0:0:0:0:
234,30,64351,1,0,0:0:0:0:
234,30,64601,1,8,0:0:0:0:
234,30,64726,1,8,0:0:0:0:
234,30,64851,1,0,0:0:0:0:
234,30,64976,1,0,0:0:0:0:
234,30,65101,1,8,0:0:0:0:
253,184,65226,1,0,0:0:0:0:
225,251,65351,1,12,0:0:0:0:
225,219,65851,5,8,0:0:0:0:
353,123,65934,1,8,0:0:0:0:
353,123,66017,1,0,0:0:0:0:
353,123,66101,1,8,0:0:0:0:
353,123,66184,1,0,0:0:0:0:
353,123,66267,1,0,0:0:0:0:
353,123,66351,1,8,0:0:0:0:
353,123,66434,1,8,0:0:0:0:
353,123,66517,1,0,0:0:0:0:
353,123,66601,1,8,0:0:0:0:
353,123,66684,1,0,0:0:0:0:
353,123,66767,1,0,0:0:0:0:
353,123,66851,1,8,0:0:0:0:
353,123,66934,1,8,0:0:0:0:
353,123,67017,1,8,0:0:0:0:
353,123,67101,1,8,0:0:0:0:
353,123,67184,1,0,0:0:0:0:
353,123,67267,1,0,0:0:0:0:
353,123,67351,1,8,0:0:0:0:
353,123,67434,1,8,0:0:0:0:
353,123,67517,1,0,0:0:0:0:
353,123,67601,1,8,0:0:0:0:
353,123,67684,1,0,0:0:0:0:
353,123,67767,1,0,0:0:0:0:
353,123,67851,1,8,0:0:0:0:
353,123,67934,1,8,0:0:0:0:
353,123,68017,1,0,0:0:0:0:
353,123,68101,1,8,0:0:0:0:
353,123,68184,1,0,0:0:0:0:
353,123,68267,1,0,0:0:0:0:
353,123,68351,1,8,0:0:0:0:
385,91,68601,5,8,0:0:0:0:
385,91,68726,1,8,0:0:0:0:
417,187,68788,1,8,0:0:0:0:
385,91,68851,1,0,0:0:0:0:
417,187,68976,1,0,0:0:0:0:
417,187,69101,1,8,0:0:0:0:
417,187,69226,1,0,0:0:0:0:
417,187,69288,1,0,0:0:0:0:
417,187,69351,1,8,0:0:0:0:
417,187,69476,1,0,0:0:0:0:
417,187,69601,1,8,0:0:0:0:
417,187,69726,1,8,0:0:0:0:
417,187,69788,1,8,0:0:0:0:
417,187,69851,1,0,0:0:0:0:
417,187,69913,1,0,0:0:0:0:
417,187,69976,1,0,0:0:0:0:
417,187,70101,1,8,0:0:0:0:
417,187,70226,1,0,0:0:0:0:
417,187,70351,1,12,0:0:0:0:
417,187,70601,5,8,0:0:0:0:
417,187,70726,1,0,0:0:0:0:
417,187,70788,1,0,0:0:0:0:
417,187,70851,1,8,0:0:0:0:
417,187,70976,1,0,0:0:0:0:
417,187,71101,1,8,0:0:0:0:
417,187,71226,1,8,0:0:0:0:
417,187,71288,1,0,0:0:0:0:
417,187,71351,1,8,0:0:0:0:
415,182,71413,1,8,0:0:0:0:
417,187,71476,1,0,0:0:0:0:
417,187,71601,1,8,0:0:0:0:
417,187,71726,1,0,0:0:0:0:
417,187,71788,1,0,0:0:0:0:
417,187,71851,1,8,0:0:0:0:
417,187,71913,1,8,0:0:0:0:
417,187,71976,1,0,0:0:0:0:
417,187,72038,1,0,0:0:0:0:
417,187,72101,1,8,0:0:0:0:
417,187,72226,1,0,0:0:0:0:
417,187,72351,1,12,0:0:0:0:
417,155,72476,5,0,0:0:0:0:
417,155,72538,1,0,0:0:0:0:
417,155,72601,1,8,0:0:0:0:
417,155,72726,5,0,0:0:0:0:
289,155,72788,1,0,0:0:0:0:
417,155,72851,1,8,0:0:0:0:
417,155,72976,5,0,0:0:0:0:
417,155,73038,1,0,0:0:0:0:
417,155,73101,1,8,0:0:0:0:
257,42,73163,1,0,0:0:0:0:
417,155,73226,1,8,0:0:0:0:
417,155,73288,1,8,0:0:0:0:
289,155,73351,1,0,0:0:0:0:
321,123,74351,5,4,0:0:0:0:
321,123,74601,1,0,0:0:0:0:
321,123,74851,1,8,0:0:0:0:
321,123,75101,1,8,0:0:0:0:
321,123,75351,1,0,0:0:0:0:
321,123,75601,1,8,0:0:0:0:
175,214,75726,1,0,0:0:0:0:
321,123,75851,1,8,0:0:0:0:
321,123,75976,1,0,0:0:0:0:
321,123,76101,1,8,0:0:0:0:
97,219,76226,1,8,0:0:0:0:
321,123,76351,1,0,0:0:0:0:
321,123,76601,1,0,0:0:0:0:
321,123,76851,1,8,0:0:0:0:
321,123,77101,1,0,0:0:0:0:
321,123,77226,1,8,0:0:0:0:
321,123,77351,1,0,0:0:0:0:
321,123,77601,1,0,0:0:0:0:
227,138,77726,1,0,0:0:0:0:
321,123,77851,1,8,0:0:0:0:
321,123,78101,1,8,0:0:0:0:
321,123,78226,1,8,0:0:0:0:
321,123,78351,5,4,0:0:0:0:
289,123,78601,1,8,0:0:0:0:
289,123,78726,1,0,0:0:0:0:
289,123,78851,1,8,0:0:0:0:
310,47,79101,1,8,0:0:0:0:
310,47,79226,1,8,0:0:0:0:
310,47,79351,1,0,0:0:0:0:
310,47,79601,1,0,0:0:0:0:
289,123,79726,1,0,0:0:0:0:
289,123,79851,1,8,0:0:0:0:
310,47,80101,1,8,0:0:0:0:
97,219,80226,1,0,0:0:0:0:
289,123,80351,1,8,0:0:0:0:
289,123,80476,1,8,0:0:0:0:
289,123,80601,1,8,0:0:0:0:
289,123,80726,1,0,0:0:0:0:
225,123,80851,1,8,0:0:0:0:
289,123,80976,1,0,0:0:0:0:
289,123,81101,1,8,0:0:0:0:
225,123,81226,1,8,0:0:0:0:
225,123,81351,1,0,0:0:0:0:
227,138,81476,1,8,0:0:0:0:
227,138,81601,1,0,0:0:0:0:
337,166,81726,1,0,0:0:0:0:
225,123,81851,1,8,0:0:0:0:
225,123,82101,1,8,0:0:0:0:
225,123,82226,1,8,0:0:0:0:
225,123,82351,5,4,0:0:0:0:
225,123,82601,1,0,0:0:0:0:
225,123,82851,1,8,0:0:0:0:
225,123,83101,1,8,0:0:0:0:
225,123,83351,1,0,0:0:0:0:
227,138,83601,1,8,0:0:0:0:
227,138,83726,1,0,0:0:0:0:
225,123,83851,1,8,0:0:0:0:
225,123,84101,1,8,0:0:0:0:
225,123,84226,1,8,0:0:0:0:
225,123,84351,1,0,0:0:0:0:
225,123,84601,1,0,0:0:0:0:
225,123,84851,1,8,0:0:0:0:
225,123,85101,1,0,0:0:0:0:
225,123,85226,1,8,0:0:0:0:
225,123,85351,1,0,0:0:0:0:
225,123,85601,1,0,0:0:0:0:
227,138,85726,1,0,0:0:0:0:
225,123,85851,1,8,0:0:0:0:
225,123,86101,1,8,0:0:0:0:
225,123,86226,1,8,0:0:0:0:
225,123,86351,5,4,0:0:0:0:
257,123,86601,1,0,0:0:0:0:
257,123,86851,1,8,0:0:0:0:
222,13,86976,1,0,0:0:0:0:
289,123,87101,1,8,0:0:0:0:
221,24,87226,1,8,0:0:0:0:
257,123,87351,1,0,0:0:0:0:
289,123,87476,1,0,0:0:0:0:
257,123,87601,1,8,0:0:0:0:
257,123,87726,1,0,0:0:0:0:
257,123,87851,1,8,0:0:0:0:
221,24,87976,1,8,0:0:0:0:
257,123,88226,1,8,0:0:0:0:
257,123,88351,1,0,0:0:0:0:
225,123,88476,1,8,0:0:0:0:
257,123,88601,1,0,0:0:0:0:
257,123,88726,1,0,0:0:0:0:
257,123,88851,1,8,0:0:0:0:
225,123,88976,1,0,0:0:0:0:
257,123,89101,1,8,0:0:0:0:
257,123,89226,1,8,0:0:0:0:
257,123,89351,1,0,0:0:0:0:
257,123,89601,1,0,0:0:0:0:
257,123,89851,1,8,0:0:0:0:
257,123,90101,1,8,0:0:0:0:
257,123,90226,1,8,0:0:0:0:
257,123,90351,5,4,0:0:0:0:
257,123,90601,1,8,0:0:0:0:
257,123,90726,1,8,0:0:0:0:
257,123,90851,1,0,0:0:0:0:
257,123,91101,1,8,0:0:0:0:
257,123,91226,1,8,0:0:0:0:
257,123,91351,1,0,0:0:0:0:
257,123,91601,1,8,0:0:0:0:
257,123,91726,1,8,0:0:0:0:
257,123,91851,1,0,0:0:0:0:
257,123,91976,1,8,0:0:0:0:
257,123,92101,1,8,0:0:0:0:
257,123,92226,1,8,0:0:0:0:
257,123,92351,5,0,0:0:0:0:
227,51,92476,1,0,0:0:0:0:
257,123,92601,1,8,0:0:0:0:
225,123,92726,1,8,0:0:0:0:
257,123,92851,1,0,0:0:0:0:
257,123,93101,1,8,0:0:0:0:
225,123,93226,1,8,0:0:0:0:
257,123,93351,1,0,0:0:0:0:
257,123,93601,1,8,0:0:0:0:
257,123,93726,1,8,0:0:0:0:
257,123,93851,1,0,0:0:0:0:
225,123,93976,1,0,0:0:0:0:
257,123,94101,1,8,0:0:0:0:
257,123,94226,1,8,0:0:0:0:
257,123,94351,5,0,0:0:0:0:
257,123,94601,1,8,0:0:0:0:
257,123,94726,1,8,0:0:0:0:
257,123,94851,1,0,0:0:0:0:
257,123,95101,1,8,0:0:0:0:
257,123,95226,1,8,0:0:0:0:
257,123,95351,1,0,0:0:0:0:
257,123,95601,1,8,0:0:0:0:
257,123,95726,1,8,0:0:0:0:
257,123,95851,1,0,0:0:0:0:
257,123,95976,1,8,0:0:0:0:
257,123,96101,1,0,0:0:0:0:
257,123,96226,1,8,0:0:0:0:
257,123,96351,5,0,0:0:0:0:
216,80,96476,1,0,0:0:0:0:
257,123,96601,1,8,0:0:0:0:
257,123,96726,1,8,0:0:0:0:
257,123,96851,1,0,0:0:0:0:
154,130,96976,1,8,0:0:0:0:
257,123,97101,1,8,0:0:0:0:
257,123,97226,1,8,0:0:0:0:
257,123,97351,1,0,0:0:0:0:
257,123,97601,1,8,0:0:0:0:
257,123,97726,1,8,0:0:0:0:
257,123,97851,1,0,0:0:0:0:
225,123,97976,1,8,0:0:0:0:
257,123,98101,1,8,0:0:0:0:
257,123,98226,1,8,0:0:0:0:
257,123,98351,1,4,0:0:0:0:
227,138,98601,5,8,0:0:0:0:
227,138,98726,1,0,0:0:0:0:
225,123,98851,1,8,0:0:0:0:
227,138,98976,1,8,0:0:0:0:
225,123,99101,1,0,0:0:0:0:
225,123,99226,1,8,0:0:0:0:
225,123,99288,1,8,0:0:0:0:
225,123,99351,1,0,0:0:0:0:
227,138,99476,1,8,0:0:0:0:
225,123,99601,1,0,0:0:0:0:
225,123,99851,1,8,0:0:0:0:
227,138,99976,1,8,0:0:0:0:
225,123,100101,1,0,0:0:0:0:
225,123,100226,1,8,0:0:0:0:
225,123,100351,1,0,0:0:0:0:
246,88,100476,1,0,0:0:0:0:
246,88,100601,1,8,0:0:0:0:
246,88,100726,1,0,0:0:0:0:
225,123,100851,1,8,0:0:0:0:
246,88,100976,1,8,0:0:0:0:
225,123,101101,1,0,0:0:0:0:
225,123,101226,1,8,0:0:0:0:
225,123,101288,1,8,0:0:0:0:
225,123,101351,1,0,0:0:0:0:
225,123,101601,1,8,0:0:0:0:
224,45,101726,1,0,0:0:0:0:
225,123,101851,1,8,0:0:0:0:
225,123,101976,1,0,0:0:0:0:
225,123,102101,1,8,0:0:0:0:
225,123,102226,1,8,0:0:0:0:
225,123,102351,1,4,0:0:0:0:
224,45,102601,5,8,0:0:0:0:
224,45,102726,1,0,0:0:0:0:
225,123,102851,1,8,0:0:0:0:
224,45,102976,1,8,0:0:0:0:
225,123,103101,1,0,0:0:0:0:
225,123,103226,1,8,0:0:0:0:
225,123,103288,1,8,0:0:0:0:
225,123,103351,1,0,0:0:0:0:
225,123,103601,1,0,0:0:0:0:
224,45,103726,1,0,0:0:0:0:
225,123,103851,1,8,0:0:0:0:
225,123,104101,1,0,0:0:0:0:
225,123,104226,1,8,0:0:0:0:
225,123,104351,1,0,0:0:0:0:
152,88,104601,1,0,0:0:0:0:
225,123,104851,1,8,0:0:0:0:
224,45,104976,1,0,0:0:0:0:
224,45,105101,1,8,0:0:0:0:
225,123,105226,1,8,0:0:0:0:
225,123,105288,1,8,0:0:0:0:
225,123,105351,1,0,0:0:0:0:
225,123,105476,1,0,0:0:0:0:
225,123,105601,1,8,0:0:0:0:
225,123,105851,1,8,0:0:0:0:
225,123,105976,1,0,0:0:0:0:
225,123,106101,1,8,0:0:0:0:
225,123,106226,1,8,0:0:0:0:
225,123,106351,1,4,0:0:0:0:
225,123,106601,5,8,0:0:0:0:
225,123,106726,1,0,0:0:0:0:
225,123,106788,1,0,0:0:0:0:
225,123,106851,1,0,0:0:0:0:
225,123,106976,1,0,0:0:0:0:
225,123,107101,1,8,0:0:0:0:
225,123,107226,1,0,0:0:0:0:
225,123,107288,1,0,0:0:0:0:
225,123,107351,1,8,0:0:0:0:
225,123,107476,1,0,0:0:0:0:
225,123,107601,1,8,0:0:0:0:
239,125,107663,1,0,0:0:0:0:
225,123,107726,1,8,0:0:0:0:
225,123,107788,1,8,0:0:0:0:
225,123,107851,1,0,0:0:0:0:
225,123,107976,1,0,0:0:0:0:
225,91,108038,1,0,0:0:0:0:
225,123,108101,1,8,0:0:0:0:
225,123,108226,1,0,0:0:0:0:
225,123,108351,5,12,0:0:0:0:
225,91,108476,1,0,0:0:0:0:
225,91,108538,1,0,0:0:0:0:
225,123,108601,1,8,0:0:0:0:
225,123,108726,1,0,0:0:0:0:
253,90,108788,1,0,0:0:0:0:
225,123,108851,1,8,0:0:0:0:
225,123,108913,1,8,0:0:0:0:
225,123,108976,1,0,0:0:0:0:
257,123,109038,1,0,0:0:0:0:
225,123,109101,1,8,0:0:0:0:
225,123,109226,1,0,0:0:0:0:
225,123,109351,1,12,0:0:0:0:
225,155,110351,5,4,0:0:0:0:
280,133,110476,1,0,0:0:0:0:
280,133,110538,1,0,0:0:0:0:
257,123,110601,1,8,0:0:0:0:
257,91,110726,1,0,0:0:0:0:
257,123,110851,1,8,0:0:0:0:
257,91,110913,1,8,0:0:0:0:
257,123,110976,1,0,0:0:0:0:
225,91,111038,1,0,0:0:0:0:
257,123,111101,1,8,0:0:0:0:
257,123,111226,1,0,0:0:0:0:
257,91,111288,1,0,0:0:0:0:
257,123,111351,1,8,0:0:0:0:
257,123,111476,1,0,0:0:0:0:
257,123,111601,1,8,0:0:0:0:
257,123,111663,1,0,0:0:0:0:
257,123,111726,1,8,0:0:0:0:
257,123,111788,1,8,0:0:0:0:
257,123,111851,1,0,0:0:0:0:
257,123,111913,1,8,0:0:0:0:
257,123,111976,1,0,0:0:0:0:
257,123,112101,1,8,0:0:0:0:
257,123,112226,1,0,0:0:0:0:
257,123,112288,1,0,0:0:0:0:
257,123,112351,1,8,0:0:0:0:
225,123,112476,1,0,0:0:0:0:
225,123,112601,1,8,0:0:0:0:
225,123,112726,1,8,0:0:0:0:
225,123,112788,1,8,0:0:0:0:
225,123,112851,1,0,0:0:0:0:
225,91,112913,1,8,0:0:0:0:
225,123,112976,1,0,0:0:0:0:
225,123,113101,1,8,0:0:0:0:
257,91,113226,1,0,0:0:0:0:
257,91,113288,1,8,0:0:0:0:
225,123,113351,1,8,0:0:0:0:
225,91,113413,1,8,0:0:0:0:
225,123,113476,1,0,0:0:0:0:
225,123,113601,1,8,0:0:0:0:
225,123,113726,1,0,0:0:0:0:
225,123,113788,1,0,0:0:0:0:
225,123,113851,1,8,0:0:0:0:
225,123,113976,1,0,0:0:0:0:
225,123,114101,1,8,0:0:0:0:
225,123,114163,1,0,0:0:0:0:
225,123,114226,1,8,0:0:0:0:
225,123,114351,1,4,0:0:0:0:
257,155,114476,5,0,0:0:0:0:
257,155,114538,1,0,0:0:0:0:
257,123,114601,1,8,0:0:0:0:
257,123,114726,1,0,0:0:0:0:
257,123,114851,1,8,0:0:0:0:
257,91,114913,1,0,0:0:0:0:
257,91,114976,1,0,0:0:0:0:
257,91,115038,1,0,0:0:0:0:
257,91,115101,1,8,0:0:0:0:
257,91,115226,1,0,0:0:0:0:
257,91,115351,1,8,0:0:0:0:
257,91,115413,1,8,0:0:0:0:
257,91,115476,1,0,0:0:0:0:
257,91,115601,1,8,0:0:0:0:
257,91,115726,1,8,0:0:0:0:
225,91,115788,1,8,0:0:0:0:
257,91,115851,1,0,0:0:0:0:
193,91,115913,1,8,0:0:0:0:
193,91,115976,1,0,0:0:0:0:
249,142,116038,1,0,0:0:0:0:
257,91,116101,1,8,0:0:0:0:
257,91,116226,1,0,0:0:0:0:
257,91,116351,5,12,0:0:0:0:
257,91,116476,1,0,0:0:0:0:
217,86,116538,1,0,0:0:0:0:
257,91,116601,1,8,0:0:0:0:
267,125,116663,1,0,0:0:0:0:
257,91,116726,1,0,0:0:0:0:
257,91,116851,5,12,0:0:0:0:
225,91,116976,1,0,0:0:0:0:
155,79,117038,1,0,0:0:0:0:
217,78,117101,1,8,0:0:0:0:
257,91,117163,1,8,0:0:0:0:
257,91,117226,1,0,0:0:0:0:
257,91,117351,5,12,0:0:0:0:
257,91,117476,1,0,0:0:0:0:
197,69,117538,1,0,0:0:0:0:
257,91,117601,1,8,0:0:0:0:
225,91,117726,1,0,0:0:0:0:
225,91,117851,5,8,0:0:0:0:
225,91,117913,1,0,0:0:0:0:
225,91,117976,1,8,0:0:0:0:
225,91,118038,1,8,0:0:0:0:
225,91,118101,1,0,0:0:0:0:
225,91,118163,1,0,0:0:0:0:
225,91,118226,1,8,0:0:0:0:
225,91,118351,1,4,0:0:0:0:
280,133,118476,5,0,0:0:0:0:
257,91,118538,1,0,0:0:0:0:
193,123,118601,1,8,0:0:0:0:
193,123,118726,1,0,0:0:0:0:
193,123,118851,1,8,0:0:0:0:
257,91,118913,1,0,0:0:0:0:
193,123,118976,1,0,0:0:0:0:
257,91,119038,1,0,0:0:0:0:
193,123,119101,1,8,0:0:0:0:
193,123,119226,1,0,0:0:0:0:
193,123,119288,1,0,0:0:0:0:
193,123,119351,1,8,0:0:0:0:
193,123,119476,1,0,0:0:0:0:
193,123,119601,1,8,0:0:0:0:
193,123,119663,1,0,0:0:0:0:
193,123,119726,1,8,0:0:0:0:
193,123,119788,1,8,0:0:0:0:
193,123,119851,1,0,0:0:0:0:
193,123,119976,1,0,0:0:0:0:
193,123,120101,1,8,0:0:0:0:
193,123,120163,1,0,0:0:0:0:
193,123,120226,1,8,0:0:0:0:
193,123,120351,1,0,0:0:0:0:
257,91,120476,1,0,0:0:0:0:
257,91,120538,1,0,0:0:0:0:
257,91,120601,1,8,0:0:0:0:
225,91,120726,1,0,0:0:0:0:
257,91,120788,1,8,0:0:0:0:
257,91,120851,1,0,0:0:0:0:
257,91,120976,1,0,0:0:0:0:
257,91,121101,1,8,0:0:0:0:
257,91,121226,1,8,0:0:0:0:
257,91,121288,1,8,0:0:0:0:
257,91,121351,1,8,0:0:0:0:
257,91,121413,1,8,0:0:0:0:
257,91,121476,1,0,0:0:0:0:
225,91,121601,1,8,0:0:0:0:
225,91,121726,1,0,0:0:0:0:
225,91,121788,1,0,0:0:0:0:
225,91,121851,1,8,0:0:0:0:
225,91,121976,1,0,0:0:0:0:
225,91,122101,1,8,0:0:0:0:
225,91,122163,1,0,0:0:0:0:
225,91,122226,1,8,0:0:0:0:
225,91,122351,5,4,0:0:0:0:
193,91,122476,1,4,0:0:0:0:
225,91,123351,5,12,0:0:0:0:
193,91,123476,1,12,0:0:0:0:
225,251,124351,5,8,0:0:0:0:
225,251,124851,1,8,0:0:0:0:
225,251,125351,1,8,0:0:0:0:
225,251,125476,1,8,0:0:0:0:
225,251,125601,1,0,0:0:0:0:
225,251,125726,1,8,0:0:0:0:
225,251,125851,1,0,0:0:0:0:
225,251,125976,1,0,0:0:0:0:
225,251,126351,1,0,0:0:0:0:
225,251,126601,1,0,0:0:0:0:
225,251,126851,1,8,0:0:0:0:
225,251,127101,1,8,0:0:0:0:
140,116,127351,1,0,0:0:0:0:
225,251,127601,1,8,0:0:0:0:
225,251,127726,1,8,0:0:0:0:
225,251,127851,1,0,0:0:0:0:
225,251,127976,1,0,0:0:0:0:
225,251,128101,1,8,0:0:0:0:
225,251,128226,1,0,0:0:0:0:
225,251,128351,1,8,0:0:0:0:
225,251,128601,5,0,0:0:0:0:
93,155,128726,1,8,0:0:0:0:
140,116,128851,1,0,0:0:0:0:
225,251,129101,1,8,0:0:0:0:
225,251,129351,1,0,0:0:0:0:
225,219,129601,1,8,0:0:0:0:
225,219,129684,1,0,0:0:0:0:
225,219,129767,1,0,0:0:0:0:
225,219,129851,1,8,0:0:0:0:
225,219,129976,1,0,0:0:0:0:
257,251,130101,1,8,0:0:0:0:
257,251,130226,1,8,0:0:0:0:
257,251,130351,1,0,0:0:0:0:
257,251,130476,1,0,0:0:0:0:
257,251,130601,1,8,0:0:0:0:
257,251,130726,1,0,0:0:0:0:
257,251,131351,1,0,0:0:0:0:
257,251,131601,1,8,0:0:0:0:
257,251,131726,1,0,0:0:0:0:
257,251,131851,1,8,0:0:0:0:
257,251,131976,1,8,0:0:0:0:
257,251,132101,1,0,0:0:0:0:
257,251,132226,1,0,0:0:0:0:
257,251,132351,5,8,0:0:0:0:
257,251,132476,1,0,0:0:0:0:
257,251,132601,1,8,0:0:0:0:
257,251,132726,1,8,0:0:0:0:
257,251,132851,1,8,0:0:0:0:
257,251,132976,1,0,0:0:0:0:
257,251,133101,1,8,0:0:0:0:
257,251,133226,1,0,0:0:0:0:
257,251,133351,1,8,0:0:0:0:
417,123,133434,1,0,0:0:0:0:
417,123,133517,1,0,0:0:0:0:
417,123,133601,1,8,0:0:0:0:
353,123,133684,1,0,0:0:0:0:
353,155,133767,1,0,0:0:0:0:
353,155,133851,1,8,0:0:0:0:
353,155,133976,1,0,0:0:0:0:
353,155,134101,1,8,0:0:0:0:
353,91,134184,1,8,0:0:0:0:
353,155,134267,1,8,0:0:0:0:
289,91,134351,1,0,0:0:0:0:
289,123,134476,1,0,0:0:0:0:
289,123,134601,1,8,0:0:0:0:
289,123,134726,1,0,0:0:0:0:
289,123,134851,1,8,0:0:0:0:
289,123,134976,1,8,0:0:0:0:
289,123,135101,1,0,0:0:0:0:
289,123,135226,1,0,0:0:0:0:
289,123,135351,1,8,0:0:0:0:
289,123,135476,1,0,0:0:0:0:
289,123,135601,1,8,0:0:0:0:
289,123,135851,1,8,0:0:0:0:
289,123,135976,1,0,0:0:0:0:
225,187,136351,5,8,0:0:0:0:
225,187,136434,1,8,0:0:0:0:
225,187,136517,1,0,0:0:0:0:
225,187,136601,1,8,0:0:0:0:
97,219,136684,1,0,0:0:0:0:
225,187,136767,1,0,0:0:0:0:
225,187,136851,1,8,0:0:0:0:
225,187,136934,1,8,0:0:0:0:
225,187,137017,1,0,0:0:0:0:
225,187,137101,1,8,0:0:0:0:
225,187,137184,1,0,0:0:0:0:
225,187,137267,1,0,0:0:0:0:
225,187,137351,1,8,0:0:0:0:
32,32,137851,1,0,0:0:0:0:
289,123,138101,1,8,0:0:0:0:
289,123,138351,5,8,0:0:0:0:
289,123,138434,1,8,0:0:0:0:
289,123,138517,1,0,0:0:0:0:
289,123,138601,1,8,0:0:0:0:
289,123,138684,1,0,0:0:0:0:
289,123,138767,1,0,0:0:0:0:
289,123,138851,1,8,0:0:0:0:
289,123,139101,1,8,0:0:0:0:
257,155,139351,1,0,0:0:0:0:
257,155,139601,1,8,0:0:0:0:
257,155,139851,1,8,0:0:0:0:
257,155,140101,1,8,0:0:0:0:
257,155,140351,5,0,0:0:0:0:
257,219,140851,1,0,0:0:0:0:
225,219,141101,1,8,0:0:0:0:
225,219,141226,1,8,0:0:0:0:
160,160,141351,1,0,0:0:0:0:
257,219,141851,1,0,0:0:0:0:
257,219,141976,1,0,0:0:0:0:
257,219,142101,1,8,0:0:0:0:
257,219,142226,1,0,0:0:0:0:
257,219,142351,5,12,0:0:0:0:
257,219,142601,1,12,0:0:0:0:
257,219,142851,5,12,0:0:0:0:
257,219,143101,1,12,0:0:0:0:
257,219,143351,5,4,0:0:0:0:
225,219,144351,5,4,0:0:0:0:
193,187,144851,1,8,0:0:0:0:
193,187,145351,1,0,0:0:0:0:
193,187,145851,1,8,0:0:0:0:
193,187,146351,1,0,0:0:0:0:
225,91,146851,1,8,0:0:0:0:
193,187,147351,1,0,0:0:0:0:
193,187,147851,5,8,0:0:0:0:
193,187,147976,1,0,0:0:0:0:
193,187,148101,1,8,0:0:0:0:
193,187,148226,1,8,0:0:0:0:
193,187,148351,1,0,0:0:0:0:
193,187,148476,1,8,0:0:0:0:
193,187,148601,1,0,0:0:0:0:
193,187,148851,1,8,0:0:0:0:
193,187,148976,1,0,0:0:0:0:
193,187,149226,1,0,0:0:0:0:
193,187,149351,1,8,0:0:0:0:
193,187,149476,1,8,0:0:0:0:
193,187,149601,1,0,0:0:0:0:
193,187,149726,1,8,0:0:0:0:
193,187,149851,1,0,0:0:0:0:
193,187,149976,1,0,0:0:0:0:
193,187,150101,1,8,0:0:0:0:
193,187,150226,1,8,0:0:0:0:
193,187,150351,1,0,0:0:0:0:
193,187,150476,1,0,0:0:0:0:
193,187,150601,1,8,0:0:0:0:
193,187,150726,1,0,0:0:0:0:
193,187,150851,1,8,0:0:0:0:
193,187,150976,1,8,0:0:0:0:
193,187,151101,1,0,0:0:0:0:
193,187,151226,1,8,0:0:0:0:
193,187,151351,1,0,0:0:0:0:
193,187,151476,1,0,0:0:0:0:
193,187,151601,1,8,0:0:0:0:
193,187,151851,1,8,0:0:0:0:
225,187,151976,1,0,0:0:0:0:
193,187,152101,1,8,0:0:0:0:
193,187,152226,1,8,0:0:0:0:
193,187,152351,5,4,0:0:0:0:
193,123,152851,1,8,0:0:0:0:
193,123,153351,1,0,0:0:0:0:
193,123,153851,1,8,0:0:0:0:
193,123,154351,1,0,0:0:0:0:
193,123,154851,1,8,0:0:0:0:
193,123,155351,1,0,0:0:0:0:
225,155,155851,5,8,0:0:0:0:
225,155,156101,1,0,0:0:0:0:
353,187,156351,1,8,0:0:0:0:
353,187,156434,1,8,0:0:0:0:
353,187,156517,1,0,0:0:0:0:
353,187,156601,1,8,0:0:0:0:
353,187,156684,1,0,0:0:0:0:
353,187,156767,1,0,0:0:0:0:
353,187,156851,1,8,0:0:0:0:
385,123,156976,1,0,0:0:0:0:
385,123,157101,1,8,0:0:0:0:
385,123,157226,1,8,0:0:0:0:
385,123,157351,1,0,0:0:0:0:
385,123,157476,1,0,0:0:0:0:
385,123,157601,1,8,0:0:0:0:
385,123,157726,1,0,0:0:0:0:
289,123,158101,1,0,0:0:0:0:
289,123,158351,1,12,0:0:0:0:
289,123,158601,5,4,0:0:0:0:
289,123,158726,5,4,0:0:0:0:
289,123,158851,5,4,0:0:0:0:
289,123,158976,5,4,0:0:0:0:
289,123,159101,5,4,0:0:0:0:
289,123,159226,5,4,0:0:0:0:
289,123,159351,5,12,0:0:0:0:
225,155,160351,5,4,0:0:0:0:
280,133,160476,1,0,0:0:0:0:
257,91,160538,1,0,0:0:0:0:
257,123,160601,1,8,0:0:0:0:
257,91,160726,1,0,0:0:0:0:
279,121,160788,1,0,0:0:0:0:
257,123,160851,1,8,0:0:0:0:
257,91,160913,1,8,0:0:0:0:
257,123,160976,1,0,0:0:0:0:
225,91,161038,1,0,0:0:0:0:
257,123,161101,1,8,0:0:0:0:
257,123,161226,1,0,0:0:0:0:
257,91,161288,1,0,0:0:0:0:
257,123,161351,1,8,0:0:0:0:
257,123,161476,1,0,0:0:0:0:
257,123,161601,1,8,0:0:0:0:
257,123,161663,1,0,0:0:0:0:
257,123,161726,1,8,0:0:0:0:
257,123,161788,1,8,0:0:0:0:
257,123,161851,1,0,0:0:0:0:
257,123,161913,1,8,0:0:0:0:
257,123,161976,1,0,0:0:0:0:
193,123,162038,1,0,0:0:0:0:
257,123,162101,1,8,0:0:0:0:
257,123,162226,1,0,0:0:0:0:
257,123,162288,1,0,0:0:0:0:
257,123,162351,1,8,0:0:0:0:
225,123,162476,1,0,0:0:0:0:
225,123,162601,1,8,0:0:0:0:
225,123,162663,1,0,0:0:0:0:
225,123,162726,1,8,0:0:0:0:
225,123,162788,1,8,0:0:0:0:
225,123,162851,1,0,0:0:0:0:
225,123,162976,1,0,0:0:0:0:
225,123,163101,1,8,0:0:0:0:
257,91,163226,1,8,0:0:0:0:
257,91,163288,1,8,0:0:0:0:
225,123,163351,1,8,0:0:0:0:
225,123,163413,1,8,0:0:0:0:
225,123,163476,1,0,0:0:0:0:
193,123,163538,1,0,0:0:0:0:
225,123,163601,1,8,0:0:0:0:
225,123,163726,1,0,0:0:0:0:
225,123,163788,1,0,0:0:0:0:
225,123,163851,1,8,0:0:0:0:
243,102,163976,1,0,0:0:0:0:
243,102,164038,1,0,0:0:0:0:
225,123,164101,1,8,0:0:0:0:
225,123,164163,1,0,0:0:0:0:
225,123,164226,1,8,0:0:0:0:
225,123,164351,1,4,0:0:0:0:
257,155,164476,5,0,0:0:0:0:
257,155,164538,1,0,0:0:0:0:
257,123,164601,1,8,0:0:0:0:
257,123,164726,1,0,0:0:0:0:
257,123,164851,1,0,0:0:0:0:
257,91,164913,1,8,0:0:0:0:
257,91,164976,1,0,0:0:0:0:
257,91,165038,1,0,0:0:0:0:
257,91,165101,1,8,0:0:0:0:
193,123,165163,1,8,0:0:0:0:
257,91,165226,1,0,0:0:0:0:
257,91,165351,1,8,0:0:0:0:
257,91,165413,1,8,0:0:0:0:
257,91,165476,1,0,0:0:0:0:
257,91,165601,1,8,0:0:0:0:
204,118,165663,1,0,0:0:0:0:
257,91,165726,1,8,0:0:0:0:
257,91,165788,1,8,0:0:0:0:
231,88,165851,1,0,0:0:0:0:
203,73,165913,1,0,0:0:0:0:
257,91,165976,1,8,0:0:0:0:
195,68,166038,1,0,0:0:0:0:
257,91,166101,1,8,0:0:0:0:
257,91,166226,1,0,0:0:0:0:
257,91,166351,5,12,0:0:0:0:
257,91,166476,1,0,0:0:0:0:
223,90,166538,1,0,0:0:0:0:
257,91,166601,1,8,0:0:0:0:
242,100,166663,1,0,0:0:0:0:
257,91,166726,1,0,0:0:0:0:
257,91,166851,5,12,0:0:0:0:
220,80,166976,1,0,0:0:0:0:
220,80,167038,1,0,0:0:0:0:
257,91,167101,1,8,0:0:0:0:
213,79,167163,1,8,0:0:0:0:
257,91,167226,1,0,0:0:0:0:
257,91,167351,5,12,0:0:0:0:
257,91,167476,1,0,0:0:0:0:
193,123,167538,1,0,0:0:0:0:
257,91,167601,1,8,0:0:0:0:
225,91,167726,1,0,0:0:0:0:
225,91,167851,5,8,0:0:0:0:
225,91,167913,1,0,0:0:0:0:
225,91,167976,1,8,0:0:0:0:
225,91,168038,1,8,0:0:0:0:
225,91,168101,1,0,0:0:0:0:
225,91,168163,1,0,0:0:0:0:
225,91,168226,1,8,0:0:0:0:
225,91,168351,1,4,0:0:0:0:
280,133,168476,5,0,0:0:0:0:
257,91,168538,1,0,0:0:0:0:
193,123,168601,1,8,0:0:0:0:
193,123,168726,1,0,0:0:0:0:
279,121,168788,1,0,0:0:0:0:
193,123,168851,1,8,0:0:0:0:
193,123,168913,1,0,0:0:0:0:
193,123,168976,1,0,0:0:0:0:
257,91,169038,1,0,0:0:0:0:
193,123,169101,1,8,0:0:0:0:
193,123,169226,1,0,0:0:0:0:
193,123,169288,1,0,0:0:0:0:
193,123,169351,1,8,0:0:0:0:
192,128,169476,1,0,0:0:0:0:
224,128,169538,1,0,0:0:0:0:
193,123,169601,1,8,0:0:0:0:
193,123,169663,1,0,0:0:0:0:
193,123,169726,1,8,0:0:0:0:
193,123,169788,1,8,0:0:0:0:
193,123,169851,1,0,0:0:0:0:
193,123,169976,1,0,0:0:0:0:
193,123,170101,1,8,0:0:0:0:
193,123,170163,1,0,0:0:0:0:
193,123,170226,1,8,0:0:0:0:
193,123,170351,1,0,0:0:0:0:
257,91,170476,1,0,0:0:0:0:
257,91,170538,1,0,0:0:0:0:
257,91,170601,1,8,0:0:0:0:
257,91,170726,1,8,0:0:0:0:
257,91,170788,1,8,0:0:0:0:
187,33,170851,1,0,0:0:0:0:
257,91,170976,1,0,0:0:0:0:
257,91,171101,1,8,0:0:0:0:
257,91,171226,1,8,0:0:0:0:
257,91,171288,1,8,0:0:0:0:
257,91,171351,1,8,0:0:0:0:
257,91,171413,1,8,0:0:0:0:
257,91,171476,1,0,0:0:0:0:
227,227,171538,1,0,0:0:0:0:
225,91,171601,1,8,0:0:0:0:
225,91,171726,1,0,0:0:0:0:
225,91,171788,1,0,0:0:0:0:
225,91,171851,1,8,0:0:0:0:
225,91,171976,1,0,0:0:0:0:
225,91,172101,1,8,0:0:0:0:
225,91,172163,1,0,0:0:0:0:
225,91,172226,1,8,0:0:0:0:
225,91,172351,5,4,0:0:0:0:
193,91,172476,1,4,0:0:0:0:
225,155,173351,5,12,0:0:0:0:
225,155,173476,1,12,0:0:0:0:
257,187,174351,5,0,0:0:0:0:
478,256,174851,1,8,0:0:0:0:
243,182,175351,1,0,0:0:0:0:
472,256,175851,1,8,0:0:0:0:
361,220,176101,1,0,0:0:0:0:
243,182,176226,1,0,0:0:0:0:
257,187,176351,5,12,0:0:0:0:
257,123,176476,1,0,0:0:0:0:
257,123,176538,1,0,0:0:0:0:
257,123,176601,1,8,0:0:0:0:
257,123,176726,1,0,0:0:0:0:
257,123,176851,1,8,0:0:0:0:
193,59,176913,1,0,0:0:0:0:
201,232,176976,1,0,0:0:0:0:
257,123,177101,1,8,0:0:0:0:
282,72,177163,1,8,0:0:0:0:
257,123,177226,1,0,0:0:0:0:
257,123,177288,1,0,0:0:0:0:
257,123,177351,1,8,0:0:0:0:
257,123,177413,1,0,0:0:0:0:
263,120,177476,1,0,0:0:0:0:
257,123,177601,1,8,0:0:0:0:
257,123,177726,1,0,0:0:0:0:
257,123,177851,1,8,0:0:0:0:
257,123,177913,1,8,0:0:0:0:
257,123,177976,1,0,0:0:0:0:
257,123,178101,1,8,0:0:0:0:
257,123,178226,1,0,0:0:0:0:
225,123,178288,1,0,0:0:0:0:
257,123,178351,1,8,0:0:0:0:
273,83,178413,1,0,0:0:0:0:
225,123,178476,1,0,0:0:0:0:
225,123,178601,1,8,0:0:0:0:
225,123,178726,1,0,0:0:0:0:
225,123,178851,1,8,0:0:0:0:
239,110,178913,1,8,0:0:0:0:
225,123,178976,1,0,0:0:0:0:
225,123,179038,1,0,0:0:0:0:
225,123,179101,1,8,0:0:0:0:
241,42,179163,1,8,0:0:0:0:
225,123,179226,1,8,0:0:0:0:
273,83,179288,1,8,0:0:0:0:
225,123,179351,1,0,0:0:0:0:
225,123,179476,1,0,0:0:0:0:
225,123,179601,1,8,0:0:0:0:
225,123,179726,1,0,0:0:0:0:
225,123,179788,1,0,0:0:0:0:
225,123,179851,1,8,0:0:0:0:
225,123,179913,1,8,0:0:0:0:
225,123,179976,1,0,0:0:0:0:
225,123,180038,1,0,0:0:0:0:
225,123,180101,1,8,0:0:0:0:
225,123,180163,1,0,0:0:0:0:
225,123,180226,1,8,0:0:0:0:
225,123,180351,5,4,0:0:0:0:
193,123,180476,1,4,0:0:0:0:
161,91,181351,5,12,0:0:0:0:
161,91,181476,1,12,0:0:0:0:
161,123,182851,5,4,0:0:0:0:
248,179,183101,1,0,0:0:0:0:
209,193,183226,1,8,0:0:0:0:
209,193,183351,1,0,0:0:0:0:
209,193,183601,1,8,0:0:0:0:
209,193,183726,1,8,0:0:0:0:
161,123,183851,1,0,0:0:0:0:
234,30,184101,1,0,0:0:0:0:
234,30,184226,1,8,0:0:0:0:
234,30,184351,1,0,0:0:0:0:
234,30,184476,1,0,0:0:0:0:
233,176,184601,1,8,0:0:0:0:
227,50,184851,1,0,0:0:0:0:
227,50,185101,1,8,0:0:0:0:
227,50,185226,1,8,0:0:0:0:
227,50,185351,1,0,0:0:0:0:
227,50,185476,1,0,0:0:0:0:
227,50,185601,1,8,0:0:0:0:
238,129,185726,1,0,0:0:0:0:
225,155,185851,1,12,0:0:0:0:
257,155,186851,5,12,0:0:0:0:
257,155,186976,1,0,0:0:0:0:
257,123,187038,1,0,0:0:0:0:
257,123,187101,1,8,0:0:0:0:
257,123,187226,1,8,0:0:0:0:
257,123,187288,1,0,0:0:0:0:
257,123,187351,1,8,0:0:0:0:
257,123,187413,1,8,0:0:0:0:
257,123,187476,1,0,0:0:0:0:
257,123,187538,1,0,0:0:0:0:
257,123,187601,1,8,0:0:0:0:
257,123,187663,1,0,0:0:0:0:
257,123,187726,1,8,0:0:0:0:
257,123,187851,1,4,0:0:0:0:
257,123,187976,1,0,0:0:0:0:
257,123,188038,1,0,0:0:0:0:
257,123,188101,1,8,0:0:0:0:
257,123,188226,5,4,0:0:0:0:
257,123,188476,1,4,0:0:0:0:
256,192,188726,8,0,192851,0:0:0:0:
