osu file format v14

[General]
AudioFilename: bus.ogg
AudioLeadIn: 0
PreviewTime: 226
Countdown: 0
SampleSet: Normal
StackLeniency: 0.7
Mode: 1
LetterboxInBreaks: 0
WidescreenStoryboard: 1

[Editor]
Bookmarks: 351,4351,8351,12351,28351,36351,48351,56351,66351,74351,90351,110351,118351,124351,144351,152351,160351,168351
DistanceSpacing: 1.1
BeatDivisor: 1
GridSize: 32
TimelineZoom: 0.9000002

[Metadata]
Title:Anoyo-iki no Bus ni Notte Saraba.
TitleUnicode:あの世行きのバスに乗ってさらば。
Artist:TUYU
ArtistUnicode:ツユ
Creator:gaston_2199
Version:Kantan
Source:
Tags:ぷす Pusu 礼衣 Rei おむたつ omutatsu AzyuN jpop j-pop japanese pop rock j-rock female vocals やっぱり雨は降るんだね yappari ame wa ha furun da ne its it's raining after all farewell on that bus I'm getting on the bus to the other world, see ya! オンゲキ 音撃 R.E.D. PLUS o.n.g.e.k.i ongeki red video game sega KTYN KitajimaYN yuni Stingy
BeatmapID:2866297
BeatmapSetID:1383875

[Difficulty]
HPDrainRate:8
CircleSize:2
OverallDifficulty:3
ApproachRate:10
SliderMultiplier:1.4
SliderTickRate:1

[Events]
//Background and Video events
0,0,"BG.jpg",0,0
//Break Periods
//Storyboard Layer 0 (Background)
//Storyboard Layer 1 (Fail)
//Storyboard Layer 2 (Pass)
//Storyboard Layer 3 (Foreground)
//Storyboard Layer 4 (Overlay)
//Storyboard Sound Samples

[TimingPoints]
351,250,4,1,0,60,1,0
351,-111.111111111111,4,1,0,60,0,0
3351,-111.111111111111,4,1,0,80,0,0
12351,-111.111111111111,4,1,0,70,0,0
28351,-111.111111111111,4,1,0,80,0,0
36601,-111.111111111111,4,1,0,70,0,0
44351,-111.111111111111,4,1,0,80,0,0
48351,-111.111111111111,4,1,0,90,0,1
60351,-111.111111111111,4,1,0,80,0,0
62351,-111.111111111111,4,1,0,60,0,0
65351,-111.111111111111,4,1,0,80,0,0
74351,-111.111111111111,4,1,0,70,0,0
90351,-111.111111111111,4,1,0,80,0,0
98601,-111.111111111111,4,1,0,70,0,0
106351,-111.111111111111,4,1,0,80,0,0
110351,-111.111111111111,4,1,0,90,0,1
122351,-111.111111111111,4,1,0,80,0,0
124351,-111.111111111111,4,1,0,70,0,0
142351,-111.111111111111,4,1,0,80,0,0
144351,-111.111111111111,4,1,0,60,0,0
147851,-111.111111111111,4,1,0,70,0,0
152601,-111.111111111111,4,1,0,60,0,0
155851,-111.111111111111,4,1,0,70,0,0
158351,-111.111111111111,4,1,0,80,0,0
160351,-111.111111111111,4,1,0,90,0,1
172351,-111.111111111111,4,1,0,80,0,0
174351,-111.111111111111,4,1,0,60,0,0
176351,-111.111111111111,4,1,0,90,0,1
180351,-111.111111111111,4,1,0,80,0,0
182351,250,4,1,0,80,1,8
182851,250,4,1,0,60,1,0
182851,-111.111111111111,4,1,0,60,0,0
185851,-111.111111111111,4,1,0,80,0,0
186851,-111.111111111111,4,1,0,90,0,1
188726,-111.111111111111,4,1,0,80,0,0
189851,-111.111111111111,4,1,0,70,0,0
190851,-111.111111111111,4,1,0,60,0,0
191851,-111.111111111111,4,1,0,50,0,0
192851,-111.111111111111,4,1,0,40,0,0

[HitObjects]
256,192,351,5,4,0:0:0:0:
256,192,1351,1,8,0:0:0:0:
224,128,2351,1,0,0:0:0:0:
256,192,3351,1,12,0:0:0:0:
384,64,4351,1,4,0:0:0:0:
384,64,5101,1,8,0:0:0:0:
384,64,5351,1,0,0:0:0:0:
384,64,6351,1,8,0:0:0:0:
240,27,7101,1,0,0:0:0:0:
448,128,7351,1,8,0:0:0:0:
448,128,8351,1,4,0:0:0:0:
448,128,9351,1,8,0:0:0:0:
448,128,9851,1,0,0:0:0:0:
448,128,10351,1,12,0:0:0:0:
448,96,10851,1,0,0:0:0:0:
448,96,11101,1,0,0:0:0:0:
448,96,11351,1,12,0:0:0:0:
352,64,12351,1,4,0:0:0:0:
352,64,13351,1,0,0:0:0:0:
352,64,13851,1,8,0:0:0:0:
352,64,14351,1,0,0:0:0:0:
352,64,15351,1,8,0:0:0:0:
352,64,16351,1,4,0:0:0:0:
320,64,17351,1,0,0:0:0:0:
320,64,17851,1,8,0:0:0:0:
320,64,18351,1,0,0:0:0:0:
256,64,19351,1,8,0:0:0:0:
256,64,19851,1,8,0:0:0:0:
256,64,20351,1,4,0:0:0:0:
256,64,21351,1,0,0:0:0:0:
256,64,21851,1,8,0:0:0:0:
256,64,22351,1,0,0:0:0:0:
256,64,23351,1,8,0:0:0:0:
256,64,24351,1,4,0:0:0:0:
288,64,25351,1,0,0:0:0:0:
288,64,25851,1,8,0:0:0:0:
288,64,26351,1,0,0:0:0:0:
288,64,27351,1,8,0:0:0:0:
288,64,27851,1,8,0:0:0:0:
288,64,28351,1,4,0:0:0:0:
288,64,28851,1,8,0:0:0:0:
288,64,29351,1,0,0:0:0:0:
288,64,30351,1,0,0:0:0:0:
288,64,30851,1,8,0:0:0:0:
288,64,31351,1,0,0:0:0:0:
183,16,31851,1,8,0:0:0:0:
288,64,32351,1,0,0:0:0:0:
288,64,33351,1,8,0:0:0:0:
288,64,33851,1,8,0:0:0:0:
288,64,34351,1,0,0:0:0:0:
239,26,34851,1,8,0:0:0:0:
288,64,35351,1,0,0:0:0:0:
288,64,35601,1,8,0:0:0:0:
288,64,35851,1,0,0:0:0:0:
288,64,36351,1,4,0:0:0:0:
256,64,37351,1,0,0:0:0:0:
256,64,37851,1,8,0:0:0:0:
256,64,38351,1,0,0:0:0:0:
256,64,39351,1,8,0:0:0:0:
256,64,39851,1,8,0:0:0:0:
256,64,40351,1,4,0:0:0:0:
256,64,41351,1,0,0:0:0:0:
256,64,41851,1,8,0:0:0:0:
256,64,42351,1,0,0:0:0:0:
256,64,43351,1,8,0:0:0:0:
256,192,43851,1,8,0:0:0:0:
256,64,44351,1,4,0:0:0:0:
256,64,45101,1,0,0:0:0:0:
256,64,45351,1,8,0:0:0:0:
256,64,45851,1,8,0:0:0:0:
256,64,46351,1,4,0:0:0:0:
256,64,46851,1,8,0:0:0:0:
256,64,47101,1,0,0:0:0:0:
256,64,47351,1,12,0:0:0:0:
256,96,48351,1,4,0:0:0:0:
288,64,48851,1,8,0:0:0:0:
288,64,49351,1,0,0:0:0:0:
288,64,49601,1,8,0:0:0:0:
288,64,49851,1,0,0:0:0:0:
288,64,50351,1,8,0:0:0:0:
181,35,50851,1,0,0:0:0:0:
181,49,51351,1,8,0:0:0:0:
256,64,52351,1,4,0:0:0:0:
288,64,52851,1,8,0:0:0:0:
288,32,53351,1,0,0:0:0:0:
288,32,53601,1,8,0:0:0:0:
256,160,53851,1,0,0:0:0:0:
288,32,54351,1,12,0:0:0:0:
180,93,54851,1,4,0:0:0:0:
288,32,55351,1,12,0:0:0:0:
256,32,56351,1,4,0:0:0:0:
224,64,56851,1,0,0:0:0:0:
224,64,57351,1,8,0:0:0:0:
224,33,57601,1,0,0:0:0:0:
214,60,57851,1,8,0:0:0:0:
224,64,58351,1,0,0:0:0:0:
224,64,58851,1,8,0:0:0:0:
288,32,59351,1,0,0:0:0:0:
164,107,59851,1,8,0:0:0:0:
256,32,60351,1,4,0:0:0:0:
256,192,62351,5,4,0:0:0:0:
256,192,63351,1,8,0:0:0:0:
224,128,64351,1,0,0:0:0:0:
256,192,65351,1,12,0:0:0:0:
384,64,66351,1,4,0:0:0:0:
384,64,67101,1,8,0:0:0:0:
384,64,67351,1,0,0:0:0:0:
384,64,68351,1,8,0:0:0:0:
448,128,69101,1,0,0:0:0:0:
448,128,69351,1,8,0:0:0:0:
448,128,70351,1,4,0:0:0:0:
448,128,71351,1,8,0:0:0:0:
448,128,71851,1,0,0:0:0:0:
448,128,72351,1,12,0:0:0:0:
448,96,72851,1,0,0:0:0:0:
448,96,73101,1,0,0:0:0:0:
448,96,73351,1,12,0:0:0:0:
352,64,74351,1,4,0:0:0:0:
352,64,75351,1,0,0:0:0:0:
352,64,75851,1,8,0:0:0:0:
352,64,76351,1,0,0:0:0:0:
352,64,77351,1,8,0:0:0:0:
352,64,78351,1,4,0:0:0:0:
320,64,79351,1,0,0:0:0:0:
320,64,79851,1,8,0:0:0:0:
320,64,80351,1,0,0:0:0:0:
256,64,81351,1,8,0:0:0:0:
256,64,81851,1,8,0:0:0:0:
256,64,82351,1,4,0:0:0:0:
256,64,83351,1,0,0:0:0:0:
256,64,83851,1,8,0:0:0:0:
256,64,84351,1,0,0:0:0:0:
256,64,85351,1,8,0:0:0:0:
256,64,86351,1,4,0:0:0:0:
288,64,87351,1,0,0:0:0:0:
288,64,87851,1,8,0:0:0:0:
288,64,88351,1,0,0:0:0:0:
288,64,89351,1,8,0:0:0:0:
288,64,89851,1,8,0:0:0:0:
288,64,90351,1,4,0:0:0:0:
288,64,90851,1,8,0:0:0:0:
288,64,91351,1,0,0:0:0:0:
288,64,92351,1,0,0:0:0:0:
288,64,92851,1,8,0:0:0:0:
288,64,93351,1,0,0:0:0:0:
172,79,93851,1,8,0:0:0:0:
288,64,94351,1,0,0:0:0:0:
288,64,95351,1,8,0:0:0:0:
288,64,95851,1,8,0:0:0:0:
288,64,96351,1,0,0:0:0:0:
288,64,96851,1,8,0:0:0:0:
288,64,97351,1,0,0:0:0:0:
288,64,97601,1,8,0:0:0:0:
288,64,97851,1,0,0:0:0:0:
288,64,98351,1,4,0:0:0:0:
256,64,99351,1,0,0:0:0:0:
256,64,99851,1,8,0:0:0:0:
256,64,100351,1,0,0:0:0:0:
256,64,101351,1,8,0:0:0:0:
256,64,101851,1,8,0:0:0:0:
256,64,102351,1,4,0:0:0:0:
256,64,103351,1,0,0:0:0:0:
256,64,103851,1,8,0:0:0:0:
256,64,104351,1,0,0:0:0:0:
256,192,105351,1,8,0:0:0:0:
256,64,105851,1,8,0:0:0:0:
256,64,106351,1,4,0:0:0:0:
256,64,107101,1,0,0:0:0:0:
256,64,107351,1,8,0:0:0:0:
256,64,107851,1,8,0:0:0:0:
256,64,108351,1,4,0:0:0:0:
256,64,108851,1,8,0:0:0:0:
256,64,109101,1,0,0:0:0:0:
256,64,109351,1,12,0:0:0:0:
256,96,110351,1,4,0:0:0:0:
288,64,110851,1,8,0:0:0:0:
288,64,111351,1,0,0:0:0:0:
288,64,111601,1,8,0:0:0:0:
288,64,111851,1,0,0:0:0:0:
288,64,112351,1,8,0:0:0:0:
189,22,112851,1,8,0:0:0:0:
256,64,113351,1,0,0:0:0:0:
256,64,114351,1,4,0:0:0:0:
288,64,114851,1,8,0:0:0:0:
288,32,115351,1,0,0:0:0:0:
257,54,115601,1,8,0:0:0:0:
256,192,115851,1,0,0:0:0:0:
288,32,116351,1,12,0:0:0:0:
188,35,116851,1,4,0:0:0:0:
288,32,117351,1,12,0:0:0:0:
256,32,118351,1,4,0:0:0:0:
224,64,118851,1,0,0:0:0:0:
224,64,119351,1,8,0:0:0:0:
206,64,119601,1,0,0:0:0:0:
224,64,119851,1,8,0:0:0:0:
224,64,120351,1,0,0:0:0:0:
229,136,120851,1,8,0:0:0:0:
288,32,121351,1,0,0:0:0:0:
167,90,121851,1,8,0:0:0:0:
256,32,122351,1,4,0:0:0:0:
256,192,124351,1,8,0:0:0:0:
256,192,125351,1,0,0:0:0:0:
256,192,125851,1,8,0:0:0:0:
256,192,126351,1,0,0:0:0:0:
256,192,127851,1,0,0:0:0:0:
256,192,128351,1,8,0:0:0:0:
159,69,128851,1,8,0:0:0:0:
256,160,129851,1,8,0:0:0:0:
288,192,130351,1,0,0:0:0:0:
288,192,130851,1,0,0:0:0:0:
288,192,131851,1,8,0:0:0:0:
288,192,132351,1,0,0:0:0:0:
288,192,132851,1,0,0:0:0:0:
288,192,133351,1,8,0:0:0:0:
384,96,133851,1,8,0:0:0:0:
320,32,134351,1,0,0:0:0:0:
320,64,135351,1,8,0:0:0:0:
256,128,136351,1,8,0:0:0:0:
256,128,136851,1,0,0:0:0:0:
256,128,137351,1,0,0:0:0:0:
320,64,138351,1,8,0:0:0:0:
320,64,138851,1,0,0:0:0:0:
288,96,139351,1,0,0:0:0:0:
288,96,139851,1,8,0:0:0:0:
288,96,140351,1,0,0:0:0:0:
256,160,141351,1,0,0:0:0:0:
288,160,142351,1,12,0:0:0:0:
288,160,142851,1,0,0:0:0:0:
288,160,143351,1,12,0:0:0:0:
256,160,144351,1,4,0:0:0:0:
224,128,145351,1,0,0:0:0:0:
224,128,146351,1,0,0:0:0:0:
224,128,147351,1,0,0:0:0:0:
224,128,148351,1,0,0:0:0:0:
224,128,149351,1,8,0:0:0:0:
224,128,149851,1,0,0:0:0:0:
224,128,150351,1,0,0:0:0:0:
224,128,151351,1,0,0:0:0:0:
224,128,151851,1,8,0:0:0:0:
224,128,152351,1,4,0:0:0:0:
224,64,153351,1,0,0:0:0:0:
224,64,154351,1,0,0:0:0:0:
224,64,155351,1,0,0:0:0:0:
384,128,156351,1,8,0:0:0:0:
384,128,156851,1,0,0:0:0:0:
416,64,157351,1,0,0:0:0:0:
320,64,158351,1,12,0:0:0:0:
320,64,158851,1,0,0:0:0:0:
320,64,159101,1,0,0:0:0:0:
320,64,159351,1,12,0:0:0:0:
256,96,160351,1,4,0:0:0:0:
288,64,160851,1,8,0:0:0:0:
288,64,161351,1,0,0:0:0:0:
288,64,161601,1,8,0:0:0:0:
288,64,161851,1,0,0:0:0:0:
288,64,162351,1,8,0:0:0:0:
181,35,162851,1,0,0:0:0:0:
140,183,163101,1,0,0:0:0:0:
180,49,163351,1,8,0:0:0:0:
256,64,164351,1,4,0:0:0:0:
288,64,164851,1,8,0:0:0:0:
288,32,165351,1,0,0:0:0:0:
288,32,165601,1,8,0:0:0:0:
256,160,165851,1,0,0:0:0:0:
288,32,166351,1,12,0:0:0:0:
9,240,166851,1,4,0:0:0:0:
288,32,167351,1,12,0:0:0:0:
256,32,168351,1,4,0:0:0:0:
224,64,168851,1,0,0:0:0:0:
224,64,169351,1,8,0:0:0:0:
224,33,169601,1,0,0:0:0:0:
214,60,169851,1,8,0:0:0:0:
224,64,170351,1,0,0:0:0:0:
240,158,170851,1,8,0:0:0:0:
152,46,171101,1,8,0:0:0:0:
288,32,171351,1,0,0:0:0:0:
158,86,171851,1,8,0:0:0:0:
256,32,172351,1,4,0:0:0:0:
288,128,174351,1,0,0:0:0:0:
288,128,176351,1,12,0:0:0:0:
288,64,177101,1,8,0:0:0:0:
288,64,177351,1,8,0:0:0:0:
288,64,177851,1,8,0:0:0:0:
154,72,178101,1,0,0:0:0:0:
288,64,178351,1,8,0:0:0:0:
256,64,178851,1,0,0:0:0:0:
256,64,179351,1,8,0:0:0:0:
256,64,179851,1,0,0:0:0:0:
256,64,180101,1,8,0:0:0:0:
256,64,180351,1,4,0:0:0:0:
192,64,182851,1,4,0:0:0:0:
192,64,183851,1,8,0:0:0:0:
256,96,184851,1,0,0:0:0:0:
256,96,185851,1,12,0:0:0:0:
288,96,186851,1,12,0:0:0:0:
288,64,187351,1,0,0:0:0:0:
288,64,187601,1,0,0:0:0:0:
288,64,187851,1,12,0:0:0:0:
288,64,188226,1,4,0:0:0:0:
256,192,188726,12,0,192851,0:0:0:0:
