osu file format v14

[General]
AudioFilename: bus.ogg
AudioLeadIn: 0
PreviewTime: 226
Countdown: 0
SampleSet: Normal
StackLeniency: 0.7
Mode: 1
LetterboxInBreaks: 0
WidescreenStoryboard: 1

[Editor]
Bookmarks: 351,4351,8351,12351,28351,36351,48351,56351,66351,74351,90351,110351,118351,124351,144351,152351,160351,168351
DistanceSpacing: 1.1
BeatDivisor: 4
GridSize: 32
TimelineZoom: 2.4

[Metadata]
Title:Anoyo-iki no Bus ni Notte Saraba.
TitleUnicode:あの世行きのバスに乗ってさらば。
Artist:TUYU
ArtistUnicode:ツユ
Creator:gaston_2199
Version:KTYN's Inner Oni
Source:
Tags:ぷす Pusu 礼衣 Rei おむたつ omutatsu AzyuN jpop j-pop japanese pop rock j-rock female vocals やっぱり雨は降るんだね yappari ame wa ha furun da ne its it's raining after all farewell on that bus I'm getting on the bus to the other world, see ya! オンゲキ 音撃 R.E.D. PLUS o.n.g.e.k.i ongeki red video game sega KTYN KitajimaYN yuni Stingy
BeatmapID:2885444
BeatmapSetID:1383875

[Difficulty]
HPDrainRate:5.7
CircleSize:2
OverallDifficulty:6.3
ApproachRate:10
SliderMultiplier:1.4
SliderTickRate:1

[Events]
//Background and Video events
0,0,"BG.jpg",0,0
//Break Periods
//Storyboard Layer 0 (Background)
//Storyboard Layer 1 (Fail)
//Storyboard Layer 2 (Pass)
//Storyboard Layer 3 (Foreground)
//Storyboard Layer 4 (Overlay)
//Storyboard Sound Samples

[TimingPoints]
351,250,4,1,0,60,1,0
351,-125,4,1,0,60,0,0
3351,-125,4,1,0,80,0,0
3851,-100,4,1,0,80,0,0
12351,-125,4,1,0,70,0,0
27601,-119.047619047619,4,1,0,70,0,0
27726,-116.279069767442,4,1,0,70,0,0
27851,-113.636363636364,4,1,0,70,0,0
28101,-108.695652173913,4,1,0,70,0,0
28226,-104.166666666667,4,1,0,70,0,0
28351,-100,4,1,0,80,0,0
36601,-125,4,1,0,70,0,0
43851,-119.047619047619,4,1,0,70,0,0
43976,-113.636363636364,4,1,0,70,0,0
44101,-108.695652173913,4,1,0,70,0,0
44226,-104.166666666667,4,1,0,70,0,0
44351,-100,4,1,0,80,0,0
48351,-100,4,1,0,90,0,1
60351,-83.3333333333333,4,1,0,80,0,0
62351,-125,4,1,0,60,0,0
65351,-125,4,1,0,80,0,0
65851,-100,4,1,0,80,0,0
74351,-125,4,1,0,70,0,0
89601,-119.047619047619,4,1,0,70,0,0
89726,-116.279069767442,4,1,0,70,0,0
89851,-113.636363636364,4,1,0,70,0,0
90101,-108.695652173913,4,1,0,70,0,0
90226,-104.166666666667,4,1,0,70,0,0
90351,-100,4,1,0,80,0,0
98601,-125,4,1,0,70,0,0
105851,-119.047619047619,4,1,0,70,0,0
105976,-113.636363636364,4,1,0,70,0,0
106101,-108.695652173913,4,1,0,70,0,0
106226,-104.166666666667,4,1,0,70,0,0
106351,-100,4,1,0,80,0,0
110351,-100,4,1,0,90,0,1
122351,-83.3333333333333,4,1,0,80,0,0
124351,-111.111111111111,4,1,0,70,0,0
141851,-105.263157894737,4,1,0,70,0,0
141976,-103.896103896104,4,1,0,70,0,0
142101,-102.564102564103,4,1,0,70,0,0
142226,-101.26582278481,4,1,0,70,0,0
142351,-100,4,1,0,80,0,0
144351,-125,4,1,0,60,0,0
147851,-111.111111111111,4,1,0,70,0,0
152601,-125,4,1,0,60,0,0
155851,-111.111111111111,4,1,0,70,0,0
158351,-100,4,1,0,80,0,0
160351,-90.9090909090909,4,1,0,90,0,1
172351,-76.9230769230769,4,1,0,80,0,0
174351,-125,4,1,0,60,0,0
176351,-90.9090909090909,4,1,0,90,0,1
180351,-76.9230769230769,4,1,0,80,0,0
182351,250,4,1,0,44,1,8
182851,250,4,1,0,60,1,0
182851,-125,4,1,0,60,0,0
185851,-125,4,1,0,80,0,0
186851,-83.3333333333333,4,1,0,90,0,1
188726,-83.3333333333333,4,1,0,80,0,0
189851,-100,4,1,0,70,0,0
190851,-100,4,1,0,60,0,0
191851,-100,4,1,0,50,0,0
192851,-100,4,1,0,40,0,0

[HitObjects]
225,165,351,5,4,0:0:0:0:
225,165,851,1,0,0:0:0:0:
211,151,1101,1,0,0:0:0:0:
211,151,1226,1,0,0:0:0:0:
211,150,1351,1,8,0:0:0:0:
216,186,1601,1,0,0:0:0:0:
211,151,1726,1,8,0:0:0:0:
211,151,1851,1,0,0:0:0:0:
211,151,1976,1,0,0:0:0:0:
211,151,2101,1,8,0:0:0:0:
216,186,2351,1,8,0:0:0:0:
196,136,2601,1,0,0:0:0:0:
196,136,2726,1,0,0:0:0:0:
196,144,2851,1,8,0:0:0:0:
196,144,2976,1,8,0:0:0:0:
194,152,3101,1,0,0:0:0:0:
194,152,3351,1,6,0:0:0:0:
236,129,3851,1,8,0:0:0:0:
160,116,3934,1,8,0:0:0:0:
160,116,4017,1,0,0:0:0:0:
160,116,4101,1,8,0:0:0:0:
160,116,4184,1,8,0:0:0:0:
160,116,4267,1,8,0:0:0:0:
161,104,4351,1,0,0:0:0:0:
162,133,4601,1,8,0:0:0:0:
153,155,4726,1,0,0:0:0:0:
153,155,4788,1,0,0:0:0:0:
176,137,4851,1,8,0:0:0:0:
153,155,4976,1,0,0:0:0:0:
162,133,5101,1,8,0:0:0:0:
153,155,5226,1,8,0:0:0:0:
168,117,5288,1,8,0:0:0:0:
153,155,5351,1,0,0:0:0:0:
169,93,5476,1,0,0:0:0:0:
162,133,5601,1,8,0:0:0:0:
175,141,5726,1,0,0:0:0:0:
169,106,5788,1,0,0:0:0:0:
174,143,5851,1,8,0:0:0:0:
174,143,5976,1,0,0:0:0:0:
162,133,6101,1,8,0:0:0:0:
174,143,6163,1,0,0:0:0:0:
173,146,6226,1,8,0:0:0:0:
173,146,6288,1,8,0:0:0:0:
174,143,6351,1,0,0:0:0:0:
162,133,6601,1,8,0:0:0:0:
211,106,6726,1,0,0:0:0:0:
147,139,6788,1,8,0:0:0:0:
163,107,6851,1,0,0:0:0:0:
163,100,6976,1,0,0:0:0:0:
162,133,7101,1,8,0:0:0:0:
163,100,7163,1,8,0:0:0:0:
163,107,7226,1,0,0:0:0:0:
169,106,7288,1,0,0:0:0:0:
163,107,7351,1,8,0:0:0:0:
163,100,7476,1,0,0:0:0:0:
162,133,7601,1,8,0:0:0:0:
163,100,7726,1,8,0:0:0:0:
168,106,7788,1,0,0:0:0:0:
168,106,7851,1,0,0:0:0:0:
181,124,7976,1,0,0:0:0:0:
162,133,8101,1,8,0:0:0:0:
181,124,8351,1,4,0:0:0:0:
168,107,8601,1,8,0:0:0:0:
147,139,8726,1,0,0:0:0:0:
168,115,8788,1,0,0:0:0:0:
147,139,8851,1,8,0:0:0:0:
168,114,8976,1,0,0:0:0:0:
168,107,9101,1,8,0:0:0:0:
168,114,9163,1,8,0:0:0:0:
168,117,9226,1,0,0:0:0:0:
182,114,9351,1,8,0:0:0:0:
177,89,9476,1,0,0:0:0:0:
168,114,9538,1,0,0:0:0:0:
168,107,9601,1,8,0:0:0:0:
168,114,9726,1,8,0:0:0:0:
168,114,9851,1,0,0:0:0:0:
168,114,9913,1,0,0:0:0:0:
168,114,9976,1,8,0:0:0:0:
211,106,10038,1,0,0:0:0:0:
168,107,10101,1,8,0:0:0:0:
168,114,10163,1,8,0:0:0:0:
168,114,10226,1,0,0:0:0:0:
168,114,10351,1,8,0:0:0:0:
168,114,10476,1,0,0:0:0:0:
168,121,10538,1,0,0:0:0:0:
168,107,10601,1,8,0:0:0:0:
168,121,10726,1,0,0:0:0:0:
168,122,10788,1,0,0:0:0:0:
168,107,10851,1,8,0:0:0:0:
168,121,10976,1,0,0:0:0:0:
168,122,11038,1,0,0:0:0:0:
168,107,11101,1,8,0:0:0:0:
168,122,11226,1,8,0:0:0:0:
168,122,11288,1,8,0:0:0:0:
169,114,11351,1,0,0:0:0:0:
190,146,12351,1,4,0:0:0:0:
163,127,12601,1,0,0:0:0:0:
190,146,12851,1,8,0:0:0:0:
206,102,13101,1,8,0:0:0:0:
177,178,13351,1,0,0:0:0:0:
177,178,13601,1,0,0:0:0:0:
190,146,13851,1,8,0:0:0:0:
177,178,13976,1,8,0:0:0:0:
170,125,14101,1,8,0:0:0:0:
170,132,14351,1,0,0:0:0:0:
163,127,14601,1,0,0:0:0:0:
190,146,14851,1,8,0:0:0:0:
160,148,15101,1,0,0:0:0:0:
190,146,15226,1,8,0:0:0:0:
170,132,15351,1,0,0:0:0:0:
170,132,15601,1,0,0:0:0:0:
190,146,15851,1,8,0:0:0:0:
190,146,16101,1,8,0:0:0:0:
190,146,16226,1,8,0:0:0:0:
141,149,16351,1,4,0:0:0:0:
206,102,16601,1,0,0:0:0:0:
190,146,16851,1,8,0:0:0:0:
156,117,17101,1,8,0:0:0:0:
152,100,17351,1,0,0:0:0:0:
234,120,17601,1,0,0:0:0:0:
234,120,17726,1,0,0:0:0:0:
190,146,17851,1,8,0:0:0:0:
158,223,18101,1,8,0:0:0:0:
158,223,18351,1,0,0:0:0:0:
181,97,18601,1,0,0:0:0:0:
190,146,18851,1,8,0:0:0:0:
206,102,19101,1,0,0:0:0:0:
190,146,19226,1,8,0:0:0:0:
190,125,19351,1,0,0:0:0:0:
206,102,19476,1,8,0:0:0:0:
169,92,19601,1,0,0:0:0:0:
190,146,19851,1,8,0:0:0:0:
190,146,20101,1,8,0:0:0:0:
190,146,20226,1,8,0:0:0:0:
190,146,20351,1,4,0:0:0:0:
171,180,20851,1,8,0:0:0:0:
177,178,21101,1,8,0:0:0:0:
177,178,21351,1,0,0:0:0:0:
204,182,21601,1,0,0:0:0:0:
190,146,21851,1,8,0:0:0:0:
170,125,22101,1,8,0:0:0:0:
181,108,22226,1,8,0:0:0:0:
170,132,22351,1,0,0:0:0:0:
187,148,22601,1,0,0:0:0:0:
190,146,22851,1,8,0:0:0:0:
172,147,23101,1,0,0:0:0:0:
190,146,23226,1,8,0:0:0:0:
170,132,23351,1,0,0:0:0:0:
170,132,23601,1,0,0:0:0:0:
190,146,23851,1,8,0:0:0:0:
184,139,23976,1,0,0:0:0:0:
190,146,24101,1,8,0:0:0:0:
190,146,24226,1,8,0:0:0:0:
165,122,24351,1,4,0:0:0:0:
190,146,24851,1,8,0:0:0:0:
170,132,25101,1,8,0:0:0:0:
170,132,25351,1,0,0:0:0:0:
188,113,25476,1,8,0:0:0:0:
234,120,25601,1,0,0:0:0:0:
234,120,25726,1,0,0:0:0:0:
190,146,25851,1,8,0:0:0:0:
188,113,25976,1,8,0:0:0:0:
148,108,26226,1,8,0:0:0:0:
148,108,26351,1,0,0:0:0:0:
183,124,26601,1,0,0:0:0:0:
177,101,26726,1,0,0:0:0:0:
190,146,26851,1,8,0:0:0:0:
163,113,26976,1,0,0:0:0:0:
129,113,27101,1,8,0:0:0:0:
190,146,27226,1,8,0:0:0:0:
190,125,27351,1,0,0:0:0:0:
207,126,27601,1,0,0:0:0:0:
162,113,27726,1,0,0:0:0:0:
190,146,27851,1,8,0:0:0:0:
162,113,28101,1,8,0:0:0:0:
164,86,28226,1,8,0:0:0:0:
164,101,28351,1,4,0:0:0:0:
171,174,28601,1,8,0:0:0:0:
171,174,28726,1,8,0:0:0:0:
163,101,28851,1,0,0:0:0:0:
171,174,29101,1,8,0:0:0:0:
171,174,29226,1,8,0:0:0:0:
162,102,29351,1,0,0:0:0:0:
171,174,29601,1,8,0:0:0:0:
171,174,29726,1,8,0:0:0:0:
142,180,29851,1,0,0:0:0:0:
142,180,29976,1,8,0:0:0:0:
142,180,30101,1,8,0:0:0:0:
142,190,30226,1,8,0:0:0:0:
162,105,30351,1,0,0:0:0:0:
166,136,30601,1,8,0:0:0:0:
141,187,30726,1,8,0:0:0:0:
162,105,30851,1,0,0:0:0:0:
167,109,31101,1,8,0:0:0:0:
167,109,31226,1,8,0:0:0:0:
162,105,31351,1,0,0:0:0:0:
167,119,31601,1,8,0:0:0:0:
200,171,31726,1,0,0:0:0:0:
168,126,31851,1,0,0:0:0:0:
208,163,31976,1,0,0:0:0:0:
166,136,32101,1,8,0:0:0:0:
166,136,32226,1,8,0:0:0:0:
162,105,32351,1,0,0:0:0:0:
156,113,32600,1,8,0:0:0:0:
172,90,32725,1,8,0:0:0:0:
162,105,32851,1,0,0:0:0:0:
162,157,33101,1,8,0:0:0:0:
156,113,33226,1,8,0:0:0:0:
162,105,33351,1,0,0:0:0:0:
156,113,33601,1,8,0:0:0:0:
156,113,33726,1,8,0:0:0:0:
162,105,33851,1,0,0:0:0:0:
196,148,33976,1,8,0:0:0:0:
122,108,34101,1,8,0:0:0:0:
126,123,34226,1,8,0:0:0:0:
126,123,34351,1,0,0:0:0:0:
178,173,34476,1,8,0:0:0:0:
133,174,34601,1,0,0:0:0:0:
133,174,34726,1,0,0:0:0:0:
162,105,34851,1,8,0:0:0:0:
133,175,34976,1,8,0:0:0:0:
133,175,35101,1,0,0:0:0:0:
133,175,35226,1,0,0:0:0:0:
187,107,35351,1,8,0:0:0:0:
168,150,35601,1,8,0:0:0:0:
168,150,35726,1,0,0:0:0:0:
162,105,35851,1,8,0:0:0:0:
167,151,35976,1,8,0:0:0:0:
167,151,36101,1,0,0:0:0:0:
162,105,36226,1,8,0:0:0:0:
167,151,36351,1,4,0:0:0:0:
166,151,36851,1,8,0:0:0:0:
163,201,37101,1,8,0:0:0:0:
168,190,37226,1,8,0:0:0:0:
168,190,37288,1,8,0:0:0:0:
168,190,37351,1,0,0:0:0:0:
168,188,37601,1,0,0:0:0:0:
166,151,37851,1,8,0:0:0:0:
163,201,38101,1,8,0:0:0:0:
163,201,38226,1,8,0:0:0:0:
168,188,38351,1,0,0:0:0:0:
166,151,38851,1,8,0:0:0:0:
168,188,39101,1,8,0:0:0:0:
166,151,39226,1,8,0:0:0:0:
168,188,39288,1,8,0:0:0:0:
168,188,39351,1,0,0:0:0:0:
163,201,39601,1,0,0:0:0:0:
166,151,39851,1,8,0:0:0:0:
166,151,40101,1,8,0:0:0:0:
166,151,40226,1,8,0:0:0:0:
163,201,40351,1,4,0:0:0:0:
166,151,40851,1,8,0:0:0:0:
163,201,41101,1,8,0:0:0:0:
241,172,41226,1,8,0:0:0:0:
163,201,41288,1,8,0:0:0:0:
163,201,41351,1,0,0:0:0:0:
189,205,41601,1,0,0:0:0:0:
189,205,41726,1,0,0:0:0:0:
166,151,41851,1,8,0:0:0:0:
189,205,42101,1,8,0:0:0:0:
189,205,42351,1,0,0:0:0:0:
217,152,42851,1,8,0:0:0:0:
189,205,43101,1,8,0:0:0:0:
195,155,43226,1,8,0:0:0:0:
217,152,43288,1,8,0:0:0:0:
189,204,43351,1,0,0:0:0:0:
189,204,43601,1,0,0:0:0:0:
217,152,43851,1,8,0:0:0:0:
181,136,43976,1,0,0:0:0:0:
181,136,44101,1,8,0:0:0:0:
189,204,44226,1,8,0:0:0:0:
189,204,44351,1,4,0:0:0:0:
221,155,44601,1,8,0:0:0:0:
152,164,44726,1,8,0:0:0:0:
221,155,44851,1,0,0:0:0:0:
221,155,44976,1,0,0:0:0:0:
221,155,45101,1,8,0:0:0:0:
221,155,45163,1,0,0:0:0:0:
221,155,45226,1,8,0:0:0:0:
221,155,45351,1,0,0:0:0:0:
221,155,45476,1,0,0:0:0:0:
221,155,45538,1,0,0:0:0:0:
189,202,45601,1,8,0:0:0:0:
221,155,45726,1,8,0:0:0:0:
221,155,45851,1,0,0:0:0:0:
152,164,45976,1,8,0:0:0:0:
152,164,46101,1,0,0:0:0:0:
152,164,46163,1,0,0:0:0:0:
221,155,46226,1,0,0:0:0:0:
220,162,46288,1,0,0:0:0:0:
189,202,46351,1,8,0:0:0:0:
220,162,46476,1,0,0:0:0:0:
220,162,46538,1,0,0:0:0:0:
189,202,46601,1,8,0:0:0:0:
220,162,46726,1,0,0:0:0:0:
189,202,46851,1,8,0:0:0:0:
181,136,46913,1,8,0:0:0:0:
220,162,46976,1,0,0:0:0:0:
189,202,47101,1,8,0:0:0:0:
167,107,47226,1,0,0:0:0:0:
189,202,47351,1,14,0:0:0:0:
189,202,48351,1,4,0:0:0:0:
157,139,48601,1,8,0:0:0:0:
157,139,48726,1,0,0:0:0:0:
157,139,48851,1,8,0:0:0:0:
183,113,48913,1,0,0:0:0:0:
157,139,48976,1,0,0:0:0:0:
159,155,49101,1,8,0:0:0:0:
157,139,49226,1,0,0:0:0:0:
157,139,49288,1,0,0:0:0:0:
159,155,49351,1,8,0:0:0:0:
156,100,49476,1,0,0:0:0:0:
179,89,49601,1,8,0:0:0:0:
222,104,49726,1,0,0:0:0:0:
175,109,49788,1,8,0:0:0:0:
154,107,49851,1,0,0:0:0:0:
185,165,49976,1,8,0:0:0:0:
185,165,50101,1,0,0:0:0:0:
154,107,50226,1,0,0:0:0:0:
147,82,50288,1,0,0:0:0:0:
154,107,50351,1,8,0:0:0:0:
158,141,50601,1,8,0:0:0:0:
91,180,50726,1,8,0:0:0:0:
154,113,50788,1,8,0:0:0:0:
154,113,50851,1,0,0:0:0:0:
185,165,50976,1,8,0:0:0:0:
147,75,51101,1,0,0:0:0:0:
145,77,51163,1,0,0:0:0:0:
186,141,51226,1,8,0:0:0:0:
186,141,51351,1,0,0:0:0:0:
191,128,51476,1,0,0:0:0:0:
158,141,51601,1,8,0:0:0:0:
171,123,51726,1,0,0:0:0:0:
171,123,51788,1,0,0:0:0:0:
171,123,51851,1,8,0:0:0:0:
158,141,51976,1,0,0:0:0:0:
158,141,52101,1,8,0:0:0:0:
154,117,52351,1,4,0:0:0:0:
154,117,52601,1,8,0:0:0:0:
171,96,52726,1,0,0:0:0:0:
166,145,52788,1,0,0:0:0:0:
171,152,52851,1,8,0:0:0:0:
186,131,52976,1,0,0:0:0:0:
154,117,53101,1,8,0:0:0:0:
145,77,53163,1,0,0:0:0:0:
186,131,53226,1,0,0:0:0:0:
186,131,53351,1,8,0:0:0:0:
162,32,53476,1,0,0:0:0:0:
154,117,53601,1,8,0:0:0:0:
158,104,53663,1,0,0:0:0:0:
178,132,53726,1,8,0:0:0:0:
174,100,53788,1,8,0:0:0:0:
174,90,53851,1,0,0:0:0:0:
127,170,53976,1,0,0:0:0:0:
169,73,54101,1,8,0:0:0:0:
149,184,54226,1,8,0:0:0:0:
149,184,54351,1,4,0:0:0:0:
149,183,54601,1,0,0:0:0:0:
186,141,54726,1,0,0:0:0:0:
172,116,54851,1,6,0:0:0:0:
209,168,55101,1,8,0:0:0:0:
209,168,55226,1,8,0:0:0:0:
209,168,55351,1,4,0:0:0:0:
259,153,55601,1,0,0:0:0:0:
157,148,55726,1,0,0:0:0:0:
259,153,55851,1,12,0:0:0:0:
168,102,55976,1,0,0:0:0:0:
168,102,56038,1,0,0:0:0:0:
176,120,56101,1,8,0:0:0:0:
209,168,56226,1,0,0:0:0:0:
156,175,56351,1,6,0:0:0:0:
201,129,56476,1,0,0:0:0:0:
201,129,56538,1,0,0:0:0:0:
186,141,56601,1,8,0:0:0:0:
186,141,56726,1,0,0:0:0:0:
120,168,56851,1,8,0:0:0:0:
120,168,56913,1,0,0:0:0:0:
186,141,56976,1,0,0:0:0:0:
186,141,57101,1,8,0:0:0:0:
186,141,57226,1,0,0:0:0:0:
158,83,57288,1,0,0:0:0:0:
186,141,57351,1,8,0:0:0:0:
186,141,57601,1,8,0:0:0:0:
88,194,57726,1,8,0:0:0:0:
186,141,57788,1,8,0:0:0:0:
186,141,57851,1,0,0:0:0:0:
178,90,57976,1,0,0:0:0:0:
178,90,58101,1,8,0:0:0:0:
145,208,58163,1,0,0:0:0:0:
145,208,58226,1,8,0:0:0:0:
145,208,58351,1,0,0:0:0:0:
186,141,58476,1,0,0:0:0:0:
163,100,58538,1,0,0:0:0:0:
186,141,58601,1,8,0:0:0:0:
186,141,58726,1,8,0:0:0:0:
186,141,58788,1,8,0:0:0:0:
186,141,58851,1,0,0:0:0:0:
186,141,58976,1,8,0:0:0:0:
186,141,59101,1,0,0:0:0:0:
187,217,59163,1,0,0:0:0:0:
187,217,59226,1,8,0:0:0:0:
176,149,59288,1,8,0:0:0:0:
186,148,59351,1,0,0:0:0:0:
116,111,59476,1,0,0:0:0:0:
116,111,59601,1,8,0:0:0:0:
181,90,59663,1,0,0:0:0:0:
186,148,59726,1,8,0:0:0:0:
186,148,59851,1,0,0:0:0:0:
186,148,59976,1,8,0:0:0:0:
186,148,60101,1,8,0:0:0:0:
186,148,60226,1,8,0:0:0:0:
156,143,60351,1,4,0:0:0:0:
156,143,60476,1,4,0:0:0:0:
156,143,61351,5,6,0:0:0:0:
156,143,61476,1,6,0:0:0:0:
225,165,62351,5,4,0:0:0:0:
225,165,62851,1,0,0:0:0:0:
211,151,63101,1,0,0:0:0:0:
211,151,63226,1,0,0:0:0:0:
211,150,63351,1,8,0:0:0:0:
216,186,63601,1,0,0:0:0:0:
211,151,63726,1,8,0:0:0:0:
211,151,63851,1,0,0:0:0:0:
211,151,63976,1,0,0:0:0:0:
211,151,64101,1,8,0:0:0:0:
216,186,64351,1,8,0:0:0:0:
196,136,64601,1,0,0:0:0:0:
196,136,64726,1,0,0:0:0:0:
196,144,64851,1,8,0:0:0:0:
196,144,64976,1,8,0:0:0:0:
194,152,65101,1,0,0:0:0:0:
194,152,65351,1,6,0:0:0:0:
236,129,65851,1,8,0:0:0:0:
160,116,65934,1,8,0:0:0:0:
160,116,66017,1,0,0:0:0:0:
160,116,66101,1,8,0:0:0:0:
160,116,66184,1,8,0:0:0:0:
160,116,66267,1,8,0:0:0:0:
161,104,66351,1,0,0:0:0:0:
162,133,66601,1,8,0:0:0:0:
153,155,66726,1,0,0:0:0:0:
153,155,66788,1,0,0:0:0:0:
176,137,66851,1,8,0:0:0:0:
153,155,66976,1,0,0:0:0:0:
162,133,67101,1,8,0:0:0:0:
153,155,67226,1,8,0:0:0:0:
168,117,67288,1,8,0:0:0:0:
153,155,67351,1,0,0:0:0:0:
169,93,67476,1,0,0:0:0:0:
162,133,67601,1,8,0:0:0:0:
175,141,67726,1,0,0:0:0:0:
169,106,67788,1,0,0:0:0:0:
174,143,67851,1,8,0:0:0:0:
174,143,67976,1,0,0:0:0:0:
162,133,68101,1,8,0:0:0:0:
174,143,68163,1,0,0:0:0:0:
173,146,68226,1,8,0:0:0:0:
173,146,68288,1,8,0:0:0:0:
174,143,68351,1,0,0:0:0:0:
162,133,68601,1,8,0:0:0:0:
211,106,68726,1,0,0:0:0:0:
147,139,68788,1,8,0:0:0:0:
163,107,68851,1,0,0:0:0:0:
163,100,68976,1,0,0:0:0:0:
162,133,69101,1,8,0:0:0:0:
163,100,69163,1,8,0:0:0:0:
163,107,69226,1,0,0:0:0:0:
169,106,69288,1,0,0:0:0:0:
163,107,69351,1,8,0:0:0:0:
163,100,69476,1,0,0:0:0:0:
162,133,69601,1,8,0:0:0:0:
163,100,69726,1,8,0:0:0:0:
168,106,69788,1,0,0:0:0:0:
168,106,69851,1,0,0:0:0:0:
181,124,69976,1,0,0:0:0:0:
162,133,70101,1,8,0:0:0:0:
181,124,70351,1,4,0:0:0:0:
168,107,70601,1,8,0:0:0:0:
147,139,70726,1,0,0:0:0:0:
168,115,70788,1,0,0:0:0:0:
147,139,70851,1,8,0:0:0:0:
168,114,70976,1,0,0:0:0:0:
168,107,71101,1,8,0:0:0:0:
168,114,71163,1,8,0:0:0:0:
168,117,71226,1,0,0:0:0:0:
182,114,71351,1,8,0:0:0:0:
177,89,71476,1,0,0:0:0:0:
168,114,71538,1,0,0:0:0:0:
168,107,71601,1,8,0:0:0:0:
168,114,71726,1,8,0:0:0:0:
168,114,71851,1,0,0:0:0:0:
168,114,71913,1,0,0:0:0:0:
168,114,71976,1,8,0:0:0:0:
211,106,72038,1,0,0:0:0:0:
168,107,72101,1,8,0:0:0:0:
168,114,72163,1,8,0:0:0:0:
168,114,72226,1,0,0:0:0:0:
168,114,72351,1,8,0:0:0:0:
168,114,72476,1,0,0:0:0:0:
168,121,72538,1,0,0:0:0:0:
168,107,72601,1,8,0:0:0:0:
168,121,72726,1,0,0:0:0:0:
168,122,72788,1,0,0:0:0:0:
168,107,72851,1,8,0:0:0:0:
168,121,72976,1,0,0:0:0:0:
168,122,73038,1,0,0:0:0:0:
168,107,73101,1,8,0:0:0:0:
168,122,73226,1,8,0:0:0:0:
168,122,73288,1,8,0:0:0:0:
169,114,73351,1,0,0:0:0:0:
190,146,74351,5,4,0:0:0:0:
163,127,74601,1,0,0:0:0:0:
190,146,74851,1,8,0:0:0:0:
170,189,75101,1,8,0:0:0:0:
177,178,75351,1,0,0:0:0:0:
177,178,75601,1,0,0:0:0:0:
219,117,75726,1,0,0:0:0:0:
190,146,75851,1,8,0:0:0:0:
170,125,76101,1,8,0:0:0:0:
219,117,76226,1,8,0:0:0:0:
170,132,76351,1,0,0:0:0:0:
163,127,76601,1,0,0:0:0:0:
190,146,76851,1,8,0:0:0:0:
167,145,77101,1,0,0:0:0:0:
190,146,77226,1,8,0:0:0:0:
170,132,77351,1,0,0:0:0:0:
170,132,77601,1,0,0:0:0:0:
190,146,77851,1,8,0:0:0:0:
190,146,78101,1,8,0:0:0:0:
190,146,78226,1,8,0:0:0:0:
141,149,78351,1,4,0:0:0:0:
219,117,78601,1,0,0:0:0:0:
190,146,78851,1,8,0:0:0:0:
167,145,79101,1,8,0:0:0:0:
152,100,79351,1,0,0:0:0:0:
234,120,79601,1,0,0:0:0:0:
234,120,79726,1,0,0:0:0:0:
190,146,79851,1,8,0:0:0:0:
158,223,80101,1,8,0:0:0:0:
158,223,80351,1,0,0:0:0:0:
181,97,80601,1,0,0:0:0:0:
190,146,80851,1,8,0:0:0:0:
167,144,81101,1,0,0:0:0:0:
190,146,81226,1,8,0:0:0:0:
190,125,81351,1,0,0:0:0:0:
167,144,81476,1,8,0:0:0:0:
169,92,81601,1,0,0:0:0:0:
190,146,81851,1,8,0:0:0:0:
190,146,82101,1,8,0:0:0:0:
190,146,82226,1,8,0:0:0:0:
190,146,82351,1,4,0:0:0:0:
171,180,82851,1,8,0:0:0:0:
177,178,83101,1,8,0:0:0:0:
177,178,83351,1,0,0:0:0:0:
204,182,83601,1,0,0:0:0:0:
219,107,83726,1,0,0:0:0:0:
190,146,83851,1,8,0:0:0:0:
170,125,84101,1,8,0:0:0:0:
181,108,84226,1,8,0:0:0:0:
170,132,84351,1,0,0:0:0:0:
187,148,84601,1,0,0:0:0:0:
190,146,84851,1,8,0:0:0:0:
172,147,85101,1,0,0:0:0:0:
190,146,85226,1,8,0:0:0:0:
170,132,85351,1,0,0:0:0:0:
170,132,85601,1,0,0:0:0:0:
190,146,85851,1,8,0:0:0:0:
184,139,85976,1,0,0:0:0:0:
190,146,86101,1,8,0:0:0:0:
190,146,86226,1,8,0:0:0:0:
165,122,86351,1,4,0:0:0:0:
190,146,86851,1,8,0:0:0:0:
170,132,87101,1,8,0:0:0:0:
177,84,87226,1,8,0:0:0:0:
170,132,87351,1,0,0:0:0:0:
188,113,87476,1,8,0:0:0:0:
234,120,87601,1,0,0:0:0:0:
234,120,87726,1,0,0:0:0:0:
190,146,87851,1,8,0:0:0:0:
188,113,87976,1,8,0:0:0:0:
148,108,88226,1,8,0:0:0:0:
148,108,88351,1,0,0:0:0:0:
183,124,88601,1,0,0:0:0:0:
177,101,88726,1,0,0:0:0:0:
190,146,88851,1,8,0:0:0:0:
163,113,88976,1,0,0:0:0:0:
129,113,89101,1,8,0:0:0:0:
190,146,89226,5,8,0:0:0:0:
190,125,89351,1,0,0:0:0:0:
207,126,89601,5,0,0:0:0:0:
162,113,89726,1,0,0:0:0:0:
190,146,89851,1,8,0:0:0:0:
162,113,90101,1,8,0:0:0:0:
164,86,90226,1,8,0:0:0:0:
164,101,90351,1,4,0:0:0:0:
171,174,90601,1,8,0:0:0:0:
171,174,90726,1,8,0:0:0:0:
163,101,90851,1,0,0:0:0:0:
171,174,91101,1,8,0:0:0:0:
171,174,91226,1,8,0:0:0:0:
162,102,91351,1,0,0:0:0:0:
171,174,91601,1,8,0:0:0:0:
171,174,91726,1,8,0:0:0:0:
142,180,91851,1,0,0:0:0:0:
142,180,91976,1,8,0:0:0:0:
142,180,92101,1,8,0:0:0:0:
142,190,92226,1,8,0:0:0:0:
162,105,92351,1,0,0:0:0:0:
166,136,92601,1,8,0:0:0:0:
141,187,92726,1,8,0:0:0:0:
162,105,92851,1,0,0:0:0:0:
167,109,93101,1,8,0:0:0:0:
167,109,93226,1,8,0:0:0:0:
162,105,93351,1,0,0:0:0:0:
177,119,93476,1,0,0:0:0:0:
167,119,93601,1,8,0:0:0:0:
200,171,93726,1,0,0:0:0:0:
168,126,93851,1,0,0:0:0:0:
208,163,93976,1,0,0:0:0:0:
166,136,94101,1,8,0:0:0:0:
166,136,94226,1,8,0:0:0:0:
162,105,94351,1,0,0:0:0:0:
156,113,94601,1,8,0:0:0:0:
172,90,94726,1,8,0:0:0:0:
162,105,94851,1,0,0:0:0:0:
169,100,95101,1,8,0:0:0:0:
156,113,95226,1,8,0:0:0:0:
162,105,95351,1,0,0:0:0:0:
162,105,95601,1,8,0:0:0:0:
156,113,95726,1,8,0:0:0:0:
162,105,95851,1,0,0:0:0:0:
196,148,95976,1,8,0:0:0:0:
122,108,96101,1,8,0:0:0:0:
126,123,96226,1,8,0:0:0:0:
126,123,96351,1,0,0:0:0:0:
167,140,96476,1,8,0:0:0:0:
133,174,96601,1,0,0:0:0:0:
133,174,96726,1,0,0:0:0:0:
162,105,96851,1,8,0:0:0:0:
133,175,96976,1,8,0:0:0:0:
133,175,97101,1,0,0:0:0:0:
133,175,97226,1,0,0:0:0:0:
187,107,97351,1,8,0:0:0:0:
168,150,97601,1,8,0:0:0:0:
168,150,97726,1,0,0:0:0:0:
162,105,97851,1,8,0:0:0:0:
167,151,97976,1,8,0:0:0:0:
167,151,98101,1,0,0:0:0:0:
162,105,98226,1,8,0:0:0:0:
167,151,98351,1,4,0:0:0:0:
167,140,98601,1,0,0:0:0:0:
166,151,98851,1,8,0:0:0:0:
163,201,99101,1,8,0:0:0:0:
168,190,99226,1,8,0:0:0:0:
168,190,99288,1,8,0:0:0:0:
168,190,99351,1,0,0:0:0:0:
168,188,99601,1,0,0:0:0:0:
166,151,99851,1,8,0:0:0:0:
206,168,99976,1,0,0:0:0:0:
163,201,100101,1,8,0:0:0:0:
163,201,100226,1,8,0:0:0:0:
168,188,100351,1,0,0:0:0:0:
167,140,100601,1,0,0:0:0:0:
166,151,100851,1,8,0:0:0:0:
168,188,101101,1,8,0:0:0:0:
166,151,101226,1,8,0:0:0:0:
168,188,101288,1,8,0:0:0:0:
168,188,101351,1,0,0:0:0:0:
163,201,101601,1,0,0:0:0:0:
172,147,101726,1,0,0:0:0:0:
166,151,101851,1,8,0:0:0:0:
167,140,101976,1,0,0:0:0:0:
166,151,102101,1,8,0:0:0:0:
166,151,102226,1,8,0:0:0:0:
163,201,102351,1,4,0:0:0:0:
167,140,102601,1,0,0:0:0:0:
166,151,102851,1,8,0:0:0:0:
163,201,103101,1,8,0:0:0:0:
241,172,103226,1,8,0:0:0:0:
163,201,103288,1,8,0:0:0:0:
163,201,103351,1,0,0:0:0:0:
189,205,103601,1,0,0:0:0:0:
189,205,103726,1,0,0:0:0:0:
166,151,103851,1,8,0:0:0:0:
189,205,104101,1,8,0:0:0:0:
189,205,104351,1,0,0:0:0:0:
167,140,104601,1,0,0:0:0:0:
217,152,104851,1,8,0:0:0:0:
189,205,105101,1,8,0:0:0:0:
195,155,105226,1,8,0:0:0:0:
217,152,105288,1,8,0:0:0:0:
189,204,105351,1,0,0:0:0:0:
189,204,105601,1,0,0:0:0:0:
217,152,105851,1,8,0:0:0:0:
181,136,105976,1,0,0:0:0:0:
181,136,106101,1,8,0:0:0:0:
189,204,106226,1,8,0:0:0:0:
189,204,106351,1,4,0:0:0:0:
221,155,106601,1,8,0:0:0:0:
152,164,106726,1,8,0:0:0:0:
221,155,106851,1,0,0:0:0:0:
221,155,106976,1,0,0:0:0:0:
221,155,107101,1,8,0:0:0:0:
221,155,107163,1,0,0:0:0:0:
221,155,107226,1,8,0:0:0:0:
167,140,107288,1,8,0:0:0:0:
221,155,107351,1,0,0:0:0:0:
221,155,107476,1,0,0:0:0:0:
221,155,107538,1,0,0:0:0:0:
189,202,107601,1,8,0:0:0:0:
221,155,107726,1,8,0:0:0:0:
221,155,107851,1,0,0:0:0:0:
152,164,107976,1,8,0:0:0:0:
152,164,108101,1,0,0:0:0:0:
152,164,108163,1,0,0:0:0:0:
221,155,108226,1,0,0:0:0:0:
220,162,108288,1,0,0:0:0:0:
189,202,108351,1,8,0:0:0:0:
220,162,108476,1,0,0:0:0:0:
220,162,108538,1,0,0:0:0:0:
189,202,108601,1,8,0:0:0:0:
220,162,108726,1,0,0:0:0:0:
189,202,108851,1,8,0:0:0:0:
181,136,108913,1,8,0:0:0:0:
220,162,108976,1,0,0:0:0:0:
189,202,109101,1,8,0:0:0:0:
167,107,109226,1,0,0:0:0:0:
189,202,109351,1,14,0:0:0:0:
189,202,110351,1,4,0:0:0:0:
157,139,110601,1,8,0:0:0:0:
157,139,110726,1,0,0:0:0:0:
157,139,110851,1,8,0:0:0:0:
183,113,110913,1,0,0:0:0:0:
157,139,110976,1,0,0:0:0:0:
159,155,111101,1,8,0:0:0:0:
157,139,111226,1,0,0:0:0:0:
157,139,111288,1,0,0:0:0:0:
159,155,111351,1,8,0:0:0:0:
215,197,111413,1,8,0:0:0:0:
156,100,111476,1,0,0:0:0:0:
179,89,111601,1,8,0:0:0:0:
222,104,111726,1,0,0:0:0:0:
175,109,111788,1,8,0:0:0:0:
154,107,111851,1,0,0:0:0:0:
185,165,111976,1,8,0:0:0:0:
185,165,112101,1,0,0:0:0:0:
154,107,112226,1,0,0:0:0:0:
147,82,112288,1,0,0:0:0:0:
154,107,112351,1,8,0:0:0:0:
152,113,112476,1,0,0:0:0:0:
158,141,112601,1,8,0:0:0:0:
91,180,112726,1,8,0:0:0:0:
154,113,112788,1,8,0:0:0:0:
154,113,112851,1,0,0:0:0:0:
185,165,112976,1,8,0:0:0:0:
147,75,113101,1,0,0:0:0:0:
145,77,113163,1,0,0:0:0:0:
186,141,113226,1,8,0:0:0:0:
186,141,113351,1,0,0:0:0:0:
191,128,113476,1,0,0:0:0:0:
158,141,113601,1,8,0:0:0:0:
171,123,113726,1,0,0:0:0:0:
171,123,113788,1,0,0:0:0:0:
171,123,113851,1,8,0:0:0:0:
195,191,113913,1,0,0:0:0:0:
158,141,113976,1,0,0:0:0:0:
158,141,114101,1,8,0:0:0:0:
152,113,114226,1,8,0:0:0:0:
154,117,114351,1,4,0:0:0:0:
154,117,114601,1,8,0:0:0:0:
171,96,114726,1,0,0:0:0:0:
166,145,114788,1,0,0:0:0:0:
171,152,114851,1,8,0:0:0:0:
186,131,114976,1,0,0:0:0:0:
154,117,115101,1,8,0:0:0:0:
145,77,115163,1,0,0:0:0:0:
152,113,115226,1,0,0:0:0:0:
186,131,115351,1,8,0:0:0:0:
162,32,115476,1,0,0:0:0:0:
107,193,115538,1,0,0:0:0:0:
154,117,115601,1,8,0:0:0:0:
107,193,115663,1,0,0:0:0:0:
178,132,115726,1,8,0:0:0:0:
174,100,115788,1,8,0:0:0:0:
174,90,115851,1,0,0:0:0:0:
127,170,115976,1,0,0:0:0:0:
169,73,116101,1,8,0:0:0:0:
149,184,116226,1,8,0:0:0:0:
149,184,116351,1,4,0:0:0:0:
149,183,116601,1,0,0:0:0:0:
186,141,116726,1,0,0:0:0:0:
172,116,116851,1,6,0:0:0:0:
209,168,117101,1,8,0:0:0:0:
209,168,117226,1,8,0:0:0:0:
209,168,117351,1,4,0:0:0:0:
259,153,117601,1,0,0:0:0:0:
157,148,117726,1,0,0:0:0:0:
259,153,117851,1,12,0:0:0:0:
168,102,117976,1,0,0:0:0:0:
168,102,118038,1,0,0:0:0:0:
176,120,118101,1,8,0:0:0:0:
209,168,118226,1,0,0:0:0:0:
156,175,118351,1,6,0:0:0:0:
201,129,118476,1,0,0:0:0:0:
201,129,118538,1,0,0:0:0:0:
186,141,118601,1,8,0:0:0:0:
186,141,118726,1,0,0:0:0:0:
120,168,118851,1,8,0:0:0:0:
120,168,118913,1,0,0:0:0:0:
186,141,118976,1,0,0:0:0:0:
186,141,119101,1,8,0:0:0:0:
186,141,119226,1,0,0:0:0:0:
158,83,119288,1,0,0:0:0:0:
186,141,119351,1,8,0:0:0:0:
180,69,119413,1,8,0:0:0:0:
152,113,119476,1,0,0:0:0:0:
186,141,119601,1,8,0:0:0:0:
88,194,119726,1,8,0:0:0:0:
186,141,119788,1,8,0:0:0:0:
186,141,119851,1,0,0:0:0:0:
178,90,119976,1,0,0:0:0:0:
178,90,120101,1,8,0:0:0:0:
145,208,120163,1,0,0:0:0:0:
145,208,120226,1,8,0:0:0:0:
145,208,120351,1,0,0:0:0:0:
186,141,120476,1,0,0:0:0:0:
163,100,120538,1,0,0:0:0:0:
186,141,120601,1,8,0:0:0:0:
186,141,120726,1,8,0:0:0:0:
186,141,120788,1,8,0:0:0:0:
186,141,120851,1,0,0:0:0:0:
186,141,120976,1,8,0:0:0:0:
186,141,121101,1,0,0:0:0:0:
187,217,121163,1,0,0:0:0:0:
187,217,121226,1,8,0:0:0:0:
132,174,121288,1,8,0:0:0:0:
186,148,121351,1,0,0:0:0:0:
116,111,121476,1,0,0:0:0:0:
116,111,121601,1,8,0:0:0:0:
181,90,121663,1,0,0:0:0:0:
186,148,121726,1,8,0:0:0:0:
186,148,121788,1,8,0:0:0:0:
186,148,121851,1,0,0:0:0:0:
186,148,121976,1,8,0:0:0:0:
186,148,122101,1,8,0:0:0:0:
186,148,122226,1,8,0:0:0:0:
156,143,122351,1,4,0:0:0:0:
156,143,122476,1,4,0:0:0:0:
156,143,123351,5,6,0:0:0:0:
156,143,123476,1,6,0:0:0:0:
225,165,124351,5,4,0:0:0:0:
191,244,124851,1,0,0:0:0:0:
191,244,125351,1,0,0:0:0:0:
156,133,125476,1,8,0:0:0:0:
194,220,125601,1,8,0:0:0:0:
194,220,125726,1,8,0:0:0:0:
190,162,125851,1,0,0:0:0:0:
159,138,125976,1,8,0:0:0:0:
190,162,126351,1,0,0:0:0:0:
194,220,126601,1,8,0:0:0:0:
190,162,126851,1,0,0:0:0:0:
193,220,127101,1,8,0:0:0:0:
179,84,127351,1,0,0:0:0:0:
193,220,127601,1,8,0:0:0:0:
187,97,127726,1,8,0:0:0:0:
190,162,127851,1,0,0:0:0:0:
193,220,127976,1,8,0:0:0:0:
176,162,128101,1,8,0:0:0:0:
176,162,128226,1,8,0:0:0:0:
140,143,128351,1,0,0:0:0:0:
190,162,128851,1,0,0:0:0:0:
171,111,129101,1,8,0:0:0:0:
190,162,129351,1,0,0:0:0:0:
170,114,129601,1,8,0:0:0:0:
170,114,129726,1,8,0:0:0:0:
190,162,129851,1,0,0:0:0:0:
231,160,129976,1,0,0:0:0:0:
139,122,130101,1,8,0:0:0:0:
175,125,130226,1,8,0:0:0:0:
190,162,130351,1,0,0:0:0:0:
192,141,130601,1,0,0:0:0:0:
194,109,130726,1,8,0:0:0:0:
190,162,130851,1,0,0:0:0:0:
194,109,131101,1,8,0:0:0:0:
190,162,131351,1,0,0:0:0:0:
194,109,131601,1,0,0:0:0:0:
194,109,131726,1,0,0:0:0:0:
194,109,131851,1,8,0:0:0:0:
194,109,131976,1,0,0:0:0:0:
194,109,132101,1,8,0:0:0:0:
194,109,132226,1,8,0:0:0:0:
190,162,132351,1,0,0:0:0:0:
194,109,132601,1,8,0:0:0:0:
194,109,132726,1,8,0:0:0:0:
190,162,132851,1,0,0:0:0:0:
167,109,132976,1,8,0:0:0:0:
166,116,133101,1,0,0:0:0:0:
166,122,133226,1,0,0:0:0:0:
166,122,133351,1,8,0:0:0:0:
156,125,133601,1,8,0:0:0:0:
155,132,133726,1,8,0:0:0:0:
190,162,133851,1,0,0:0:0:0:
155,135,133976,1,8,0:0:0:0:
155,135,134101,1,8,0:0:0:0:
155,135,134226,1,8,0:0:0:0:
190,162,134351,1,0,0:0:0:0:
164,87,134601,1,0,0:0:0:0:
164,96,134726,1,0,0:0:0:0:
164,96,134851,1,8,0:0:0:0:
164,96,134976,1,8,0:0:0:0:
164,96,135101,1,0,0:0:0:0:
164,96,135226,1,0,0:0:0:0:
164,96,135351,1,8,0:0:0:0:
164,96,135476,1,0,0:0:0:0:
164,96,135601,1,8,0:0:0:0:
173,109,135851,1,8,0:0:0:0:
173,109,135976,1,0,0:0:0:0:
153,146,136351,1,8,0:0:0:0:
176,102,136434,1,8,0:0:0:0:
176,102,136517,1,0,0:0:0:0:
176,102,136601,1,8,0:0:0:0:
176,102,136684,1,0,0:0:0:0:
176,102,136767,1,0,0:0:0:0:
176,102,136851,1,8,0:0:0:0:
176,102,136934,1,8,0:0:0:0:
176,102,137017,1,0,0:0:0:0:
176,102,137101,1,8,0:0:0:0:
176,102,137184,1,0,0:0:0:0:
176,102,137267,1,0,0:0:0:0:
176,102,137351,1,8,0:0:0:0:
181,169,137851,1,0,0:0:0:0:
174,107,138101,1,8,0:0:0:0:
174,107,138351,1,8,0:0:0:0:
198,52,138434,1,8,0:0:0:0:
174,107,138517,1,0,0:0:0:0:
174,107,138601,1,8,0:0:0:0:
174,107,138684,1,0,0:0:0:0:
174,107,138767,1,0,0:0:0:0:
174,107,138851,1,8,0:0:0:0:
123,77,139101,1,8,0:0:0:0:
153,85,139226,1,8,0:0:0:0:
181,169,139351,1,0,0:0:0:0:
172,81,139601,1,8,0:0:0:0:
181,169,139851,1,0,0:0:0:0:
171,81,140101,1,8,0:0:0:0:
159,122,140226,1,0,0:0:0:0:
181,169,140351,1,0,0:0:0:0:
181,169,140851,1,0,0:0:0:0:
159,122,141101,1,8,0:0:0:0:
192,141,141226,1,8,0:0:0:0:
181,169,141351,1,0,0:0:0:0:
192,141,141601,1,8,0:0:0:0:
181,169,141851,1,0,0:0:0:0:
199,112,141976,1,0,0:0:0:0:
199,112,142101,1,8,0:0:0:0:
199,112,142226,1,0,0:0:0:0:
181,169,142351,1,6,0:0:0:0:
181,169,142601,1,6,0:0:0:0:
181,169,142851,1,6,0:0:0:0:
199,114,143101,1,6,0:0:0:0:
199,114,143351,1,4,0:0:0:0:
232,208,144351,1,4,0:0:0:0:
163,157,144851,1,8,0:0:0:0:
163,157,145351,1,0,0:0:0:0:
163,157,145851,1,8,0:0:0:0:
163,157,146351,1,0,0:0:0:0:
163,157,146851,1,8,0:0:0:0:
163,157,147351,1,0,0:0:0:0:
181,143,147851,1,8,0:0:0:0:
160,128,147976,1,8,0:0:0:0:
161,163,148101,1,0,0:0:0:0:
179,141,148226,1,0,0:0:0:0:
171,162,148351,1,8,0:0:0:0:
171,162,148476,1,0,0:0:0:0:
171,162,148601,1,8,0:0:0:0:
136,122,148851,1,8,0:0:0:0:
136,122,148976,1,0,0:0:0:0:
181,143,149226,1,8,0:0:0:0:
181,143,149351,1,0,0:0:0:0:
136,122,149476,1,8,0:0:0:0:
181,143,149601,1,0,0:0:0:0:
181,113,149726,1,0,0:0:0:0:
215,133,149851,1,8,0:0:0:0:
175,139,149976,1,0,0:0:0:0:
151,106,150101,1,8,0:0:0:0:
151,114,150351,1,0,0:0:0:0:
181,143,150601,1,0,0:0:0:0:
181,143,150726,1,0,0:0:0:0:
215,133,150851,1,8,0:0:0:0:
181,152,151101,1,0,0:0:0:0:
181,152,151226,1,0,0:0:0:0:
181,152,151351,1,8,0:0:0:0:
181,143,151476,1,0,0:0:0:0:
181,143,151601,1,8,0:0:0:0:
215,133,151851,1,8,0:0:0:0:
166,138,151976,1,0,0:0:0:0:
215,133,152101,1,8,0:0:0:0:
215,133,152226,1,8,0:0:0:0:
232,208,152351,1,4,0:0:0:0:
163,157,152851,1,8,0:0:0:0:
163,157,153351,1,0,0:0:0:0:
163,157,153851,1,8,0:0:0:0:
163,157,154351,1,0,0:0:0:0:
163,157,154851,1,8,0:0:0:0:
163,157,155351,1,0,0:0:0:0:
204,166,155851,1,8,0:0:0:0:
204,166,156101,1,0,0:0:0:0:
204,166,156351,1,8,0:0:0:0:
222,128,156434,1,8,0:0:0:0:
221,135,156517,1,0,0:0:0:0:
221,138,156601,1,8,0:0:0:0:
221,135,156684,1,0,0:0:0:0:
221,138,156767,1,0,0:0:0:0:
217,147,156851,1,8,0:0:0:0:
229,158,156976,1,0,0:0:0:0:
229,158,157101,1,8,0:0:0:0:
229,158,157226,1,8,0:0:0:0:
172,138,157351,1,0,0:0:0:0:
172,138,157476,1,0,0:0:0:0:
172,147,157601,1,8,0:0:0:0:
198,174,157726,1,0,0:0:0:0:
198,174,158351,1,8,0:0:0:0:
198,174,158601,1,8,0:0:0:0:
198,174,158726,1,0,0:0:0:0:
198,174,158851,1,8,0:0:0:0:
198,174,158976,1,0,0:0:0:0:
198,174,159101,1,8,0:0:0:0:
198,174,159226,1,0,0:0:0:0:
198,174,159351,1,8,0:0:0:0:
189,202,160351,1,4,0:0:0:0:
157,139,160601,1,8,0:0:0:0:
157,139,160726,1,0,0:0:0:0:
157,139,160851,1,8,0:0:0:0:
183,113,160913,1,0,0:0:0:0:
157,139,160976,1,0,0:0:0:0:
159,155,161101,1,8,0:0:0:0:
157,139,161226,1,0,0:0:0:0:
157,139,161288,1,0,0:0:0:0:
159,155,161351,1,8,0:0:0:0:
215,197,161413,1,8,0:0:0:0:
156,100,161476,1,0,0:0:0:0:
179,89,161601,1,8,0:0:0:0:
222,104,161726,1,0,0:0:0:0:
175,109,161788,1,8,0:0:0:0:
154,107,161851,1,0,0:0:0:0:
156,127,161913,1,0,0:0:0:0:
185,165,161976,1,8,0:0:0:0:
156,127,162038,1,8,0:0:0:0:
185,165,162101,1,0,0:0:0:0:
154,107,162226,1,0,0:0:0:0:
147,82,162288,1,0,0:0:0:0:
154,107,162351,1,8,0:0:0:0:
152,113,162476,1,0,0:0:0:0:
158,141,162601,1,8,0:0:0:0:
91,180,162726,1,8,0:0:0:0:
154,113,162788,1,8,0:0:0:0:
154,113,162851,1,0,0:0:0:0:
185,165,162976,1,8,0:0:0:0:
147,75,163101,1,0,0:0:0:0:
145,77,163163,1,0,0:0:0:0:
186,141,163226,1,8,0:0:0:0:
154,127,163288,1,8,0:0:0:0:
186,141,163351,1,0,0:0:0:0:
191,128,163476,1,0,0:0:0:0:
158,141,163601,1,8,0:0:0:0:
171,123,163726,1,0,0:0:0:0:
171,123,163788,1,0,0:0:0:0:
171,123,163851,1,8,0:0:0:0:
195,191,163913,1,0,0:0:0:0:
158,141,163976,1,0,0:0:0:0:
153,127,164038,1,0,0:0:0:0:
158,141,164101,1,8,0:0:0:0:
152,113,164226,1,8,0:0:0:0:
154,117,164351,1,4,0:0:0:0:
153,127,164476,1,0,0:0:0:0:
154,117,164601,1,8,0:0:0:0:
171,96,164726,1,0,0:0:0:0:
166,145,164788,1,0,0:0:0:0:
171,152,164851,1,8,0:0:0:0:
186,131,164976,1,0,0:0:0:0:
154,117,165101,1,8,0:0:0:0:
145,77,165163,1,0,0:0:0:0:
152,113,165226,1,0,0:0:0:0:
186,131,165351,1,8,0:0:0:0:
162,32,165476,1,0,0:0:0:0:
107,193,165538,1,0,0:0:0:0:
154,117,165601,1,8,0:0:0:0:
107,193,165663,1,0,0:0:0:0:
178,132,165726,1,8,0:0:0:0:
174,100,165788,1,8,0:0:0:0:
174,90,165851,1,0,0:0:0:0:
127,170,165976,1,0,0:0:0:0:
153,127,166038,1,0,0:0:0:0:
169,73,166101,1,8,0:0:0:0:
149,184,166226,1,8,0:0:0:0:
149,184,166351,1,4,0:0:0:0:
149,183,166601,1,0,0:0:0:0:
186,141,166726,1,0,0:0:0:0:
172,116,166851,1,6,0:0:0:0:
209,168,167101,1,8,0:0:0:0:
209,168,167226,1,8,0:0:0:0:
209,168,167351,1,4,0:0:0:0:
259,153,167601,1,0,0:0:0:0:
157,148,167726,1,0,0:0:0:0:
259,153,167851,1,12,0:0:0:0:
168,102,167976,1,0,0:0:0:0:
168,102,168038,1,0,0:0:0:0:
176,120,168101,1,8,0:0:0:0:
209,168,168226,1,0,0:0:0:0:
156,175,168351,1,6,0:0:0:0:
201,129,168476,1,0,0:0:0:0:
201,129,168538,1,0,0:0:0:0:
186,141,168601,1,8,0:0:0:0:
186,141,168726,1,0,0:0:0:0:
120,168,168851,1,8,0:0:0:0:
120,168,168913,1,0,0:0:0:0:
186,141,168976,1,0,0:0:0:0:
186,141,169101,1,8,0:0:0:0:
186,141,169226,1,0,0:0:0:0:
158,83,169288,1,0,0:0:0:0:
186,141,169351,1,8,0:0:0:0:
180,69,169413,1,8,0:0:0:0:
152,113,169476,1,0,0:0:0:0:
173,86,169538,1,0,0:0:0:0:
186,141,169601,1,8,0:0:0:0:
88,194,169726,1,8,0:0:0:0:
186,141,169788,1,8,0:0:0:0:
186,141,169851,1,0,0:0:0:0:
178,90,169976,1,0,0:0:0:0:
173,86,170038,1,0,0:0:0:0:
178,90,170101,1,8,0:0:0:0:
145,208,170163,1,0,0:0:0:0:
145,208,170226,1,8,0:0:0:0:
145,208,170351,1,0,0:0:0:0:
186,141,170476,1,0,0:0:0:0:
163,100,170538,1,0,0:0:0:0:
186,141,170601,1,8,0:0:0:0:
186,141,170726,1,8,0:0:0:0:
186,141,170788,1,8,0:0:0:0:
186,141,170851,1,0,0:0:0:0:
186,141,170976,1,8,0:0:0:0:
186,141,171101,1,0,0:0:0:0:
187,217,171163,1,0,0:0:0:0:
187,217,171226,1,8,0:0:0:0:
132,174,171288,1,8,0:0:0:0:
186,148,171351,1,0,0:0:0:0:
116,111,171476,1,0,0:0:0:0:
166,57,171538,1,0,0:0:0:0:
116,111,171601,1,8,0:0:0:0:
181,90,171663,1,0,0:0:0:0:
186,148,171726,1,8,0:0:0:0:
186,148,171788,1,8,0:0:0:0:
186,148,171851,1,0,0:0:0:0:
186,148,171976,1,8,0:0:0:0:
174,114,172101,1,8,0:0:0:0:
186,148,172226,1,8,0:0:0:0:
156,143,172351,1,4,0:0:0:0:
156,143,172476,1,4,0:0:0:0:
156,143,173351,5,6,0:0:0:0:
156,143,173476,1,6,0:0:0:0:
195,160,174351,1,0,0:0:0:0:
195,160,174851,1,0,0:0:0:0:
195,160,175351,1,8,0:0:0:0:
195,160,175851,1,8,0:0:0:0:
195,160,176101,1,8,0:0:0:0:
195,160,176226,1,8,0:0:0:0:
195,160,176351,1,4,0:0:0:0:
195,160,176601,1,8,0:0:0:0:
159,118,176726,1,0,0:0:0:0:
195,160,176788,1,0,0:0:0:0:
195,160,176851,1,0,0:0:0:0:
195,160,176976,1,0,0:0:0:0:
195,160,177101,1,8,0:0:0:0:
195,160,177226,1,0,0:0:0:0:
195,160,177288,1,0,0:0:0:0:
195,160,177351,1,8,0:0:0:0:
195,160,177413,1,0,0:0:0:0:
195,160,177476,1,0,0:0:0:0:
195,160,177601,1,8,0:0:0:0:
131,156,177726,1,8,0:0:0:0:
131,156,177851,1,0,0:0:0:0:
195,160,177976,1,0,0:0:0:0:
195,160,178038,1,0,0:0:0:0:
195,160,178101,1,8,0:0:0:0:
165,59,178226,1,0,0:0:0:0:
165,59,178351,1,8,0:0:0:0:
156,86,178413,1,0,0:0:0:0:
156,90,178476,1,0,0:0:0:0:
156,93,178601,1,8,0:0:0:0:
167,119,178726,1,8,0:0:0:0:
154,71,178851,1,0,0:0:0:0:
159,118,178976,1,0,0:0:0:0:
159,118,179038,1,0,0:0:0:0:
159,118,179101,1,8,0:0:0:0:
199,160,179226,1,8,0:0:0:0:
159,118,179351,1,0,0:0:0:0:
161,153,179476,1,8,0:0:0:0:
163,142,179538,1,8,0:0:0:0:
161,153,179601,1,0,0:0:0:0:
166,109,179726,1,8,0:0:0:0:
165,117,179851,1,0,0:0:0:0:
165,120,179913,1,0,0:0:0:0:
165,117,179976,1,8,0:0:0:0:
165,117,180038,1,0,0:0:0:0:
165,117,180101,1,8,0:0:0:0:
165,117,180226,1,8,0:0:0:0:
165,117,180351,1,4,0:0:0:0:
165,117,180476,1,4,0:0:0:0:
165,121,181351,1,6,0:0:0:0:
165,121,181476,1,6,0:0:0:0:
225,165,182851,5,4,0:0:0:0:
225,165,183351,1,0,0:0:0:0:
211,151,183601,1,0,0:0:0:0:
211,151,183726,1,0,0:0:0:0:
211,150,183851,1,8,0:0:0:0:
216,186,184101,1,0,0:0:0:0:
211,151,184226,1,8,0:0:0:0:
211,151,184351,1,0,0:0:0:0:
211,151,184476,1,0,0:0:0:0:
211,151,184601,1,8,0:0:0:0:
216,186,184851,1,8,0:0:0:0:
196,119,184976,1,8,0:0:0:0:
196,136,185101,1,0,0:0:0:0:
196,136,185226,1,0,0:0:0:0:
196,144,185351,1,8,0:0:0:0:
196,144,185476,1,8,0:0:0:0:
194,152,185601,1,0,0:0:0:0:
194,152,185851,1,6,0:0:0:0:
187,157,186101,1,0,0:0:0:0:
187,157,186226,1,0,0:0:0:0:
187,157,186351,1,8,0:0:0:0:
187,157,186476,1,0,0:0:0:0:
187,157,186601,1,8,0:0:0:0:
187,157,186726,1,8,0:0:0:0:
187,157,186851,1,4,0:0:0:0:
187,157,186976,1,0,0:0:0:0:
187,157,187038,1,0,0:0:0:0:
187,157,187101,1,8,0:0:0:0:
187,157,187226,1,0,0:0:0:0:
187,157,187351,1,8,0:0:0:0:
187,157,187413,1,8,0:0:0:0:
187,157,187476,1,0,0:0:0:0:
187,157,187538,1,0,0:0:0:0:
187,157,187601,1,8,0:0:0:0:
187,157,187663,1,0,0:0:0:0:
187,157,187726,1,8,0:0:0:0:
187,157,187788,1,8,0:0:0:0:
183,122,187851,1,0,0:0:0:0:
185,138,188101,1,8,0:0:0:0:
185,138,188226,1,0,0:0:0:0:
185,138,188476,1,0,0:0:0:0:
185,138,188726,1,8,0:0:0:0:
