osu file format v14

[General]
AudioFilename: audio.mp3
AudioLeadIn: 0
PreviewTime: 160313
Countdown: 0
SampleSet: Soft
StackLeniency: 0.2
Mode: 0
LetterboxInBreaks: 0
WidescreenStoryboard: 0

[Editor]
Bookmarks: 193383
DistanceSpacing: 1.1
BeatDivisor: 4
GridSize: 16
TimelineZoom: 2.95

[Metadata]
Title:Anoyo-iki no Bus ni Notte Saraba.
TitleUnicode:あの世行きのバスに乗ってさらば。
Artist:TUYU
ArtistUnicode:ツユ
Creator:SnowNiNo_
Version:Yandere
Source:
Tags:japanese rock curi farewell on that bus tsuyu omotatsu pusu rei yappari ame wa ha furun da ne its it's raining after all やっぱり雨は降るんだね AzyuN おむたつ ぷす 礼衣 Nao Tomori naotoshi Reillia [C u r i] Flask captin1 Luscent rui
BeatmapID:2240526
BeatmapSetID:1070357

[Difficulty]
HPDrainRate:5.5
CircleSize:4
OverallDifficulty:9.5
ApproachRate:9.8
SliderMultiplier:1.8
SliderTickRate:1

[Events]
//Background and Video events
0,0,"Evil Anime Girl.jpg",0,0
//Break Periods
//Storyboard Layer 0 (Background)
//Storyboard Layer 1 (Fail)
//Storyboard Layer 2 (Pass)
//Storyboard Layer 3 (Foreground)
//Storyboard Layer 4 (Overlay)
//Storyboard Sound Samples

[TimingPoints]
813,250,4,2,2,55,1,0
813,-133.333333333333,4,2,2,55,0,0
4313,-133.333333333333,4,2,2,55,0,0
4813,-100,4,2,2,70,0,0
12813,-100,4,2,2,50,0,0
26813,-100,4,2,2,60,0,0
28000,-100,4,2,2,5,0,0
28063,-100,4,2,2,60,0,0
28250,-100,4,2,2,5,0,0
28313,-100,4,2,2,60,0,0
28500,-100,4,2,2,5,0,0
28563,-100,4,2,2,60,0,0
28813,-100,4,2,2,60,0,0
36813,-100,4,2,2,50,0,0
44813,-100,4,2,2,70,0,0
48313,-100,4,2,2,50,0,0
48813,-83.3333333333333,4,2,2,90,0,1
60813,-100,4,2,2,60,0,0
66313,-100,4,2,2,70,0,0
66813,-100,4,2,2,70,0,0
74813,-100,4,2,2,50,0,0
90000,-100,4,2,2,5,0,0
90063,-100,4,2,2,50,0,0
90250,-100,4,2,2,5,0,0
90313,-100,4,2,2,50,0,0
90500,-100,4,2,2,5,0,0
90563,-100,4,2,2,50,0,0
90813,-100,4,2,2,60,0,0
98813,-100,4,2,2,50,0,0
106813,-100,4,2,2,70,0,0
110313,-100,4,2,2,40,0,0
110813,-83.3333333333333,4,2,2,90,0,1
122813,-200,4,2,2,60,0,0
142813,-200,4,2,2,70,0,0
144313,-200,4,2,2,70,0,0
144813,-200,4,2,2,60,0,0
158813,-100,4,2,2,80,0,0
160313,-100,4,2,2,40,0,0
160813,-76.9230769230769,4,2,2,90,0,1
172813,-76.9230769230769,4,2,2,90,0,0
174813,-100,4,2,2,50,0,0
176813,-76.9230769230769,4,2,2,80,0,1
180813,-76.9230769230769,4,2,2,80,0,0
182063,-76.9230769230769,4,2,2,50,0,0
183313,250,4,2,2,55,1,0
183313,-100,4,2,2,55,0,0
187313,-83.3333333333333,4,2,2,75,0,1
189188,-227.272727272727,4,2,2,50,0,0
189250,-227.272727272727,4,2,2,5,0,0

[Colours]
Combo1 : 203,69,108
Combo2 : 255,190,190

[HitObjects]
133,105,813,6,0,P|162:65|185:175,1,270.000010299683,6|2,3:2|3:2,0:0:0:0:
186,175,1563,1,2,0:2:0:0:
140,319,1813,2,0,P|200:347|285:321,1,135.000005149842,2|2,3:2|0:2,0:0:0:0:
372,65,2313,2,0,P|312:37|227:63,1,135.000005149842,2|2,3:2|0:2,0:0:0:0:
128,206,2813,6,0,B|224:174|224:174|288:206|288:206|384:174,2,270.000010299683,2|2|6,3:2|3:2|3:2,0:0:0:0:
128,206,4313,5,2,0:2:0:0:
86,190,4396,1,0,0:0:0:0:
62,153,4479,1,0,0:0:0:0:
66,108,4562,1,2,0:2:0:0:
94,75,4646,1,0,0:0:0:0:
138,65,4729,1,0,0:0:0:0:
178,84,4813,6,0,B|218:103|218:103|272:98,1,90,6|0,3:2|0:0,0:0:0:0:
387,37,5063,1,8,0:2:0:0:
454,212,5188,2,0,P|395:201|361:309,1,180,0|0,3:2|3:2,0:0:0:0:
216,361,5563,2,0,P|229:312|223:265,1,90,8|0,0:2|0:0,0:0:0:0:
51,129,5813,5,2,3:2:0:0:
141,306,5938,1,0,0:0:0:0:
178,84,6063,1,8,0:2:0:0:
0,219,6188,2,0,L|197:200,1,180,0|0,3:2|3:2,0:0:0:0:
365,153,6563,2,0,L|243:141,1,90,8|0,0:2|0:0,0:0:0:0:
482,37,6813,6,0,B|465:99|465:99|484:142|484:142|464:225,1,180,2|8,3:2|0:2,0:0:0:0:
276,315,7188,2,0,P|319:295|374:308,1,90,0|0,3:2|0:0,0:0:0:0:
462,354,7438,1,0,3:2:0:0:
187,327,7563,2,0,P|191:279|229:238,1,90,8|0,0:2|0:0,0:0:0:0:
275,144,7813,5,2,3:2:0:0:
276,315,7938,1,0,0:0:0:0:
185,106,8063,1,8,0:2:0:0:
360,300,8188,2,0,L|369:107,1,180,0|0,3:2|3:2,0:0:0:0:
485,25,8563,2,0,L|489:114,1,90,8|0,0:2|0:0,0:0:0:0:
97,110,8813,6,0,B|142:98|142:98|202:109,1,90,6|0,3:2|0:0,0:0:0:0:
447,295,9063,2,0,B|402:307|402:307|342:296,1,90,8|0,0:2|3:2,0:0:0:0:
203,221,9313,1,0,0:0:0:0:
370,191,9438,1,0,3:2:0:0:
251,314,9563,1,8,0:2:0:0:
276,144,9688,1,0,0:0:0:0:
359,299,9813,5,2,3:2:0:0:
203,221,9938,1,0,0:0:0:0:
370,191,10063,1,8,0:2:0:0:
147,310,10188,1,0,3:2:0:0:
458,254,10313,5,0,0:0:0:0:
172,119,10438,1,0,3:2:0:0:
370,191,10563,1,8,0:2:0:0:
251,314,10688,1,0,0:0:0:0:
274,8,10813,6,0,L|263:108,1,90,6|0,3:2|0:0,0:0:0:0:
370,191,11000,1,0,0:0:0:0:
370,191,11063,2,0,L|380:102,1,90,10|2,0:2|3:2,0:0:0:0:
172,119,11250,1,0,0:0:0:0:
172,119,11313,2,0,L|167:163,1,45,10|0,0:2|0:0,0:0:0:0:
253,258,11438,2,0,L|248:213,1,45,0|0,3:2|0:0,0:0:0:0:
144,111,11563,2,0,L|139:155,1,45,10|0,0:2|0:0,0:0:0:0:
281,250,11688,2,0,L|276:205,1,45,0|2,3:2|3:2,0:0:0:0:
274,8,11813,5,6,3:2:0:0:
155,79,12813,5,6,3:2:0:0:
67,101,13063,1,2,0:2:0:0:
89,189,13313,1,10,0:2:0:0:
177,167,13563,1,2,0:2:0:0:
357,79,13813,5,2,3:2:0:0:
445,101,14063,1,2,3:2:0:0:
423,189,14313,1,10,0:2:0:0:
423,189,14438,1,2,0:2:0:0:
335,167,14563,1,2,0:2:0:0:
132,321,14813,5,2,3:2:0:0:
171,240,15063,1,2,0:2:0:0:
96,188,15313,1,10,0:2:0:0:
135,107,15563,2,0,P|175:118|213:161,1,90,2|8,0:2|0:2,0:0:0:0:
380,321,15813,5,2,3:2:0:0:
341,240,16063,1,2,3:2:0:0:
416,188,16313,1,8,0:2:0:0:
377,107,16563,1,10,0:2:0:0:
369,62,16688,1,10,0:2:0:0:
361,17,16813,5,6,3:2:0:0:
361,17,16938,1,0,0:0:0:0:
279,55,17063,1,2,0:2:0:0:
279,55,17188,1,0,0:0:0:0:
202,7,17313,1,10,0:2:0:0:
120,45,17563,1,2,0:2:0:0:
28,270,17813,5,2,3:2:0:0:
110,232,18063,1,2,3:2:0:0:
110,232,18188,1,2,0:2:0:0:
187,280,18313,1,8,0:2:0:0:
269,242,18563,1,2,0:2:0:0:
467,129,18813,5,2,3:2:0:0:
390,84,19063,1,2,0:2:0:0:
390,84,19188,1,2,0:2:0:0:
390,174,19313,1,10,0:2:0:0:
467,129,19563,1,2,0:2:0:0:
467,129,19688,1,10,0:2:0:0:
394,264,19813,5,2,3:2:0:0:
394,264,19938,1,2,0:2:0:0:
317,219,20063,1,2,3:2:0:0:
317,309,20313,1,10,0:2:0:0:
394,264,20563,1,8,0:2:0:0:
378,220,20688,1,8,0:2:0:0:
362,177,20813,5,6,3:2:0:0:
354,86,21063,1,2,0:2:0:0:
267,65,21313,1,10,0:2:0:0:
219,141,21563,1,2,0:2:0:0:
278,210,21813,1,2,3:2:0:0:
230,286,22063,1,2,3:2:0:0:
143,265,22313,1,10,0:2:0:0:
135,174,22563,1,2,0:2:0:0:
130,129,22688,1,2,0:0:0:0:
125,84,22813,5,2,3:2:0:0:
192,24,23063,1,2,0:2:0:0:
276,51,23313,1,10,0:2:0:0:
294,139,23563,2,0,L|389:138,1,90,2|8,0:2|0:2,0:0:0:0:
228,198,23813,1,2,3:2:0:0:
246,285,24063,1,2,3:2:0:0:
330,312,24313,1,10,0:2:0:0:
397,252,24563,1,10,0:2:0:0:
394,207,24688,1,8,0:2:0:0:
391,162,24813,5,4,3:2:0:0:
442,88,25063,1,0,0:0:0:0:
352,84,25313,1,10,0:2:0:0:
402,9,25563,1,2,0:2:0:0:
121,162,25813,5,2,3:2:0:0:
70,88,26063,1,2,3:2:0:0:
160,84,26313,1,10,0:2:0:0:
110,9,26563,1,0,0:0:0:0:
29,265,26813,6,0,B|102:265|135:178|135:178|123:250|163:344|163:344|169:282|216:245|291:241|324:304,1,540,2|0,3:2|0:0,0:0:0:0:
322,302,27688,1,8,0:2:0:0:
402,232,27813,6,0,L|397:137,1,90,2|0,3:2|0:0,0:0:0:0:
415,140,28063,2,0,L|419:229,1,90,2|0,3:2|0:0,0:0:0:0:
291,149,28313,6,0,L|296:54,1,90,10|0,0:2|0:0,0:0:0:0:
278,57,28563,2,0,L|273:146,1,90,10|8,0:2|0:2,0:0:0:0:
86,281,28813,6,0,L|81:191,1,90,6|0,3:2|0:0,0:0:0:0:
236,354,29063,1,8,0:2:0:0:
263,268,29188,1,8,0:2:0:0:
348,296,29313,2,0,P|400:304|443:294,1,90,2|0,3:2|0:0,0:0:0:0:
401,148,29563,1,10,0:2:0:0:
354,71,29688,1,8,0:2:0:0:
280,123,29813,6,0,P|222:130|183:121,1,90,0|0,3:2|0:0,0:0:0:0:
139,51,30063,1,8,0:2:0:0:
53,78,30188,1,8,0:2:0:0:
53,168,30313,1,2,3:2:0:0:
139,196,30438,1,8,0:2:0:0:
139,286,30563,1,10,0:2:0:0:
53,313,30688,1,10,0:2:0:0:
1,241,30813,6,0,L|59:160,1,90,2|0,3:2|0:0,0:0:0:0:
217,241,31063,1,10,0:2:0:0:
139,286,31188,1,8,0:2:0:0:
217,331,31313,2,0,P|271:349|314:343,1,90,2|0,3:2|0:0,0:0:0:0:
422,246,31563,1,10,0:2:0:0:
370,172,31688,1,8,0:2:0:0:
442,118,31813,6,0,P|455:60|448:20,1,90,0|0,3:2|0:0,0:0:0:0:
298,94,32063,1,8,0:2:0:0:
288,4,32188,1,8,0:2:0:0:
198,14,32313,1,2,3:2:0:0:
208,104,32438,1,8,0:2:0:0:
118,114,32563,1,10,0:2:0:0:
108,24,32688,1,8,0:2:0:0:
18,34,32813,6,0,L|29:135,1,90,2|0,3:2|0:0,0:0:0:0:
65,294,33063,1,10,0:2:0:0:
118,221,33188,1,8,0:2:0:0:
193,270,33313,2,0,P|248:274|298:256,1,90,0|0,3:2|0:0,0:0:0:0:
419,126,33563,1,10,0:2:0:0:
402,214,33688,1,8,0:2:0:0:
489,192,33813,6,0,P|514:140|508:94,1,90,0|0,3:2|0:0,0:0:0:0:
352,68,34063,1,10,0:2:0:0:
266,97,34188,1,8,0:2:0:0:
249,184,34313,1,2,3:2:0:0:
317,244,34438,1,8,0:2:0:0:
300,331,34563,1,10,0:2:0:0:
215,361,34688,1,10,0:2:0:0:
147,301,34813,6,0,P|103:285|51:289,1,90,0|0,3:2|0:0,0:0:0:0:
30,95,35063,1,8,0:2:0:0:
74,173,35188,1,8,0:2:0:0:
155,134,35313,2,0,P|183:85|189:42,1,90,0|0,3:2|0:0,0:0:0:0:
335,33,35563,1,8,0:2:0:0:
349,121,35688,1,8,0:2:0:0:
438,107,35813,6,0,P|461:160|465:201,1,90,2|0,3:2|0:0,0:0:0:0:
403,319,36063,1,10,0:2:0:0:
366,236,36188,1,8,0:2:0:0:
313,310,36313,1,2,3:2:0:0:
276,227,36438,1,8,0:2:0:0:
223,301,36563,1,10,0:2:0:0:
186,218,36688,1,10,0:2:0:0:
133,292,36813,6,0,P|83:294|32:276,1,90,6|0,3:2|0:0,0:0:0:0:
28,194,37063,2,0,L|41:92,1,90,2|0,0:2|0:0,0:0:0:0:
100,38,37313,1,10,0:2:0:0:
168,95,37438,1,0,0:0:0:0:
229,29,37563,1,0,0:0:0:0:
305,94,37688,1,8,0:2:0:0:
305,94,37750,1,8,0:2:0:0:
305,94,37813,6,0,P|287:132|289:204,1,90,2|0,3:2|0:0,0:0:0:0:
370,293,38063,2,0,P|388:255|386:183,1,90,2|0,3:2|0:0,0:0:0:0:
271,274,38313,1,10,0:2:0:0:
279,365,38438,1,0,0:0:0:0:
176,272,38563,1,0,0:0:0:0:
184,363,38688,1,0,0:0:0:0:
87,269,38813,5,2,3:2:0:0:
62,182,38938,1,0,0:0:0:0:
136,132,39063,1,2,0:2:0:0:
207,187,39188,1,0,0:0:0:0:
176,272,39313,1,10,0:2:0:0:
247,327,39438,1,0,0:0:0:0:
321,277,39563,1,0,0:0:0:0:
296,190,39688,1,8,0:2:0:0:
296,190,39750,1,8,0:0:0:0:
296,190,39813,6,0,P|309:140|305:101,1,90,2|0,3:2|0:0,0:0:0:0:
400,21,40063,2,0,L|391:110,1,90,2|0,3:2|0:0,0:0:0:0:
136,132,40313,2,0,L|251:127,1,90,10|0,0:2|0:0,0:0:0:0:
62,182,40563,1,10,0:2:0:0:
176,272,40688,1,8,0:2:0:0:
24,283,40813,6,0,L|35:91,1,180,6|2,3:2|0:2,0:0:0:0:
164,56,41188,1,0,0:0:0:0:
189,142,41313,1,10,0:2:0:0:
251,78,41438,1,0,0:0:0:0:
276,164,41563,1,0,0:0:0:0:
346,108,41688,1,8,0:2:0:0:
346,108,41750,1,8,0:2:0:0:
346,108,41813,6,0,P|397:94|437:103,1,90,2|0,3:2|0:0,0:0:0:0:
475,264,42063,1,2,3:2:0:0:
400,213,42188,1,0,0:0:0:0:
340,280,42313,2,0,P|327:328|333:371,1,90,10|0,0:2|0:0,0:0:0:0:
241,247,42563,2,0,P|228:199|234:156,1,90,0|0,0:0|0:0,0:0:0:0:
236,358,42813,6,0,P|181:339|58:349,1,180,2|0,3:2|0:0,0:0:0:0:
42,114,43313,2,0,P|54:158|59:210,1,90,10|0,0:2|0:0,0:0:0:0:
109,38,43563,1,2,0:2:0:0:
186,119,43688,1,8,0:2:0:0:
186,119,43750,1,8,0:2:0:0:
186,119,43813,6,0,P|237:101|283:101,1,90,0|0,3:2|0:0,0:0:0:0:
331,219,44063,2,0,P|280:201|234:201,1,90,0|0,3:2|0:0,0:0:0:0:
173,320,44313,2,0,P|217:316|259:300,1,90,10|0,0:2|0:0,0:0:0:0:
152,233,44563,1,10,0:2:0:0:
86,341,44688,1,8,0:2:0:0:
58,202,44813,6,0,P|61:147|45:102,1,90,6|0,3:2|0:0,0:0:0:0:
181,74,45063,1,10,0:2:0:0:
152,233,45188,1,2,3:2:0:0:
273,27,45313,1,0,0:0:0:0:
312,179,45438,1,2,3:2:0:0:
415,78,45563,1,10,0:2:0:0:
385,261,45688,1,2,0:2:0:0:
504,129,45813,6,0,P|516:188|515:232,1,90,2|0,3:2|0:0,0:0:0:0:
246,265,46063,1,10,0:2:0:0:
423,173,46188,1,2,3:2:0:0:
220,147,46313,1,0,0:0:0:0:
385,261,46438,1,2,3:2:0:0:
152,223,46563,2,0,L|56:217,1,90,10|0,0:2|0:0,0:0:0:0:
325,111,46813,5,6,3:2:0:0:
357,344,46938,1,0,0:0:0:0:
187,111,47063,1,10,0:2:0:0:
155,344,47188,1,0,3:2:0:0:
320,76,47313,1,10,0:2:0:0:
385,261,47438,1,0,3:2:0:0:
192,76,47563,1,10,0:2:0:0:
127,261,47688,1,0,3:2:0:0:
256,0,47813,5,6,3:2:0:0:
256,0,48313,1,2,0:2:0:0:
170,27,48438,1,2,0:0:0:0:
170,117,48563,1,2,0:2:0:0:
256,145,48688,1,2,0:2:0:0:
308,72,48813,6,0,B|363:57|363:57|422:72,1,107.999996704102,6|0,3:2|0:0,0:0:0:0:
147,261,49063,2,0,B|92:276|92:276|33:261,1,107.999996704102,10|0,0:2|0:0,0:0:0:0:
345,174,49313,1,2,3:2:0:0:
303,346,49438,1,0,3:2:0:0:
193,132,49563,2,0,B|179:78|179:78|193:20,1,107.999996704102,10|0,0:2|0:0,0:0:0:0:
430,215,49813,6,0,B|385:265|385:265|228:252,1,215.999993408203,2|10,3:2|0:2,0:0:0:0:
105,132,50188,1,2,0:2:0:0:
345,174,50313,1,0,3:2:0:0:
113,241,50438,1,2,3:2:0:0:
337,65,50563,2,0,B|391:51|391:51|448:65,1,107.999996704102,10|0,0:2|0:0,0:0:0:0:
236,252,50813,6,0,B|220:175|220:175|245:133|245:133|229:42,1,215.999993408203,2|10,3:2|0:2,0:0:0:0:
46,317,51188,2,0,B|94:341|94:341|152:340,1,107.999996704102,2|0,0:2|3:2,0:0:0:0:
437,165,51438,2,0,B|389:141|389:141|331:142,1,107.999996704102,2|8,3:2|0:2,0:0:0:0:
236,252,51688,1,2,0:2:0:0:
429,367,51813,6,0,B|469:301|469:301|435:157,1,215.999993408203,0|8,3:2|0:2,0:0:0:0:
222,118,52188,1,0,0:0:0:0:
372,284,52313,1,2,3:2:0:0:
347,62,52438,1,2,3:2:0:0:
236,252,52563,1,10,0:2:0:0:
438,165,52688,1,0,0:0:0:0:
142,20,52813,6,0,B|90:66|90:66|109:224,1,215.999993408203,6|10,3:2|0:2,0:0:0:0:
183,343,53188,1,2,0:2:0:0:
295,108,53313,2,0,B|242:92|242:92|179:103,1,107.999996704102,2|0,3:2|3:2,0:0:0:0:
330,313,53563,2,0,B|381:322|381:322|434:306,1,107.999996704102,10|0,0:2|0:0,0:0:0:0:
351,33,53813,6,0,B|248:0|248:0|138:20,1,215.999993408203,2|10,3:2|0:2,0:0:0:0:
231,284,54188,2,0,B|243:231|243:231|234:169,1,107.999996704102,2|0,0:2|3:2,0:0:0:0:
92,113,54438,1,2,3:2:0:0:
17,313,54563,2,0,B|70:325|70:325|132:316,1,107.999996704102,10|2,0:2|0:2,0:0:0:0:
350,163,54813,5,6,3:2:0:0:
76,227,54938,1,0,0:0:0:0:
334,277,55063,1,10,0:2:0:0:
92,113,55188,1,0,3:2:0:0:
363,159,55313,5,10,0:2:0:0:
62,230,55438,1,0,3:2:0:0:
346,285,55563,1,10,0:2:0:0:
79,104,55688,1,0,3:2:0:0:
233,325,55813,5,10,0:2:0:0:
243,36,55938,1,0,3:2:0:0:
205,313,56063,1,8,0:2:0:0:
215,24,56188,1,0,3:2:0:0:
342,166,56313,5,10,0:2:0:0:
79,104,56438,1,8,3:2:0:0:
367,174,56563,1,10,3:2:0:0:
53,97,56688,1,10,3:2:0:0:
392,182,56813,6,0,B|448:196|448:196|505:186,1,107.999996704102,6|0,3:2|0:0,0:0:0:0:
112,12,57063,2,0,B|62:3|62:3|6:17,1,107.999996704102,10|0,0:2|0:0,0:0:0:0:
223,224,57313,1,2,3:2:0:0:
290,44,57438,1,0,3:2:0:0:
51,184,57563,2,0,B|25:234|25:234|32:297,1,107.999996704102,10|0,0:2|0:0,0:0:0:0:
424,251,57813,6,0,B|364:209|364:209|200:226,1,215.999993408203,2|10,3:2|0:2,0:0:0:0:
30,285,58188,2,0,B|67:315|67:315|134:309,1,107.999996704102,2|0,0:2|3:2,0:0:0:0:
221,66,58438,1,2,3:2:0:0:
95,221,58563,1,10,0:2:0:0:
94,64,58688,1,2,0:2:0:0:
222,223,58813,6,0,B|282:265|282:265|446:248,1,215.999993408203,2|10,3:2|0:2,0:0:0:0:
355,41,59188,2,0,B|331:90|331:90|347:156,1,107.999996704102,2|0,0:2|3:2,0:0:0:0:
501,363,59438,2,0,B|525:314|525:314|509:248,1,107.999996704102,2|10,3:2|0:2,0:0:0:0:
419,102,59688,1,2,0:2:0:0:
385,353,59813,6,0,B|325:311|325:311|161:328,1,215.999993408203,0|10,3:2|0:2,0:0:0:0:
74,289,60188,1,2,0:2:0:0:
211,228,60313,1,10,3:2:0:0:
70,192,60438,1,10,3:2:0:0:
239,131,60563,1,10,3:2:0:0:
66,95,60688,1,10,3:2:0:0:
267,34,60813,5,10,3:2:0:0:
74,289,60938,1,10,3:2:0:0:
74,289,61813,5,10,3:2:0:0:
394,226,61938,1,8,3:2:0:0:
394,226,62813,6,0,B|313:184|313:264|216:214,1,180,6|2,3:2|0:2,0:0:0:0:
74,58,63313,2,0,B|154:99|154:19|251:69,1,180,2|2,3:2|0:2,0:0:0:0:
479,55,63813,2,0,P|436:40|454:130,2,180,2|2|2,3:2|0:2|3:2,0:0:0:0:
479,55,64563,1,2,0:2:0:0:
270,79,64813,6,0,B|223:84|186:54|186:54|182:104|122:118,1,180,2|0,3:2|0:0,0:0:0:0:
242,305,65313,2,0,B|288:299|326:330|326:330|329:279|389:265,1,180,2|0,3:2|0:0,0:0:0:0:
256,192,65688,1,2,0:2:0:0:
256,192,65813,1,6,3:2:0:0:
256,192,66313,5,2,0:2:0:0:
218,146,66396,1,0,0:0:0:0:
160,142,66479,1,0,0:0:0:0:
117,181,66562,1,2,0:2:0:0:
116,240,66646,1,0,0:0:0:0:
157,281,66729,1,0,0:0:0:0:
215,279,66813,6,0,P|262:283|325:311,1,90,6|0,3:2|0:0,0:0:0:0:
421,347,67063,1,8,0:2:0:0:
377,71,67188,2,0,B|358:193|358:193|391:239,1,180,0|0,3:2|3:2,0:0:0:0:
256,105,67563,2,0,L|240:8,1,90,8|0,0:2|0:0,0:0:0:0:
198,189,67813,5,2,3:2:0:0:
165,77,67938,1,0,0:0:0:0:
97,165,68063,1,8,0:2:0:0:
58,63,68188,2,0,L|48:254,1,180,0|0,3:2|3:2,0:0:0:0:
16,359,68563,2,0,P|69:342|123:342,1,90,8|0,0:2|0:0,0:0:0:0:
278,172,68813,6,0,P|233:205|202:249,1,90,2|0,3:2|0:0,0:0:0:0:
270,358,69063,1,8,0:2:0:0:
379,157,69188,2,0,P|375:215|404:334,1,180,0|0,3:2|3:2,0:0:0:0:
439,72,69563,2,0,P|381:63|319:73,1,90,8|0,0:2|0:0,0:0:0:0:
180,99,69813,5,2,3:2:0:0:
379,157,69938,1,0,0:0:0:0:
210,211,70063,1,8,0:2:0:0:
351,66,70188,2,0,P|310:36|163:11,1,180,0|0,3:2|3:2,0:0:0:0:
126,234,70563,2,0,P|184:226|223:201,1,90,8|0,0:2|0:0,0:0:0:0:
59,65,70813,6,0,B|51:111|51:111|70:164,1,90,6|0,3:2|0:0,0:0:0:0:
384,323,71063,2,0,B|391:276|391:276|372:223,1,90,8|0,0:2|3:2,0:0:0:0:
259,120,71313,1,0,0:0:0:0:
286,286,71438,1,0,3:2:0:0:
360,136,71563,1,8,0:2:0:0:
211,212,71688,1,0,0:0:0:0:
377,237,71813,5,2,3:2:0:0:
155,124,71938,1,0,0:0:0:0:
185,314,72063,1,8,0:2:0:0:
259,120,72188,1,0,3:2:0:0:
84,342,72313,1,0,0:0:0:0:
286,286,72438,1,0,3:2:0:0:
110,240,72563,1,8,0:2:0:0:
185,314,72688,1,0,0:0:0:0:
147,34,72813,6,0,L|157:147,1,90,6|0,3:2|0:0,0:0:0:0:
259,120,73000,1,0,0:0:0:0:
259,120,73063,2,0,L|249:233,1,90,10|0,0:2|3:2,0:0:0:0:
355,212,73250,1,0,0:0:0:0:
355,212,73313,2,0,L|359:268,1,45,10|0,0:2|0:0,0:0:0:0:
448,310,73438,2,0,L|451:265,1,45,0|0,3:2|0:0,0:0:0:0:
332,202,73563,2,0,L|336:258,1,45,10|0,0:2|0:0,0:0:0:0:
471,320,73688,2,0,L|475:263,1,45,2|0,3:2|3:2,0:0:0:0:
432,101,73813,5,2,3:2:0:0:
63,142,74813,5,6,3:2:0:0:
135,88,75063,1,2,0:2:0:0:
209,139,75313,1,10,0:2:0:0:
281,85,75563,1,2,0:2:0:0:
449,242,75813,5,2,3:2:0:0:
377,296,76063,1,2,3:2:0:0:
377,296,76188,1,2,0:2:0:0:
303,245,76313,1,10,0:2:0:0:
303,245,76438,1,0,0:0:0:0:
231,299,76563,1,2,0:2:0:0:
231,299,76688,1,0,0:0:0:0:
177,185,76813,5,2,3:2:0:0:
186,95,77063,1,2,0:2:0:0:
96,86,77313,1,10,0:2:0:0:
87,176,77563,2,0,L|94:281,1,90,2|8,0:2|0:2,0:0:0:0:
335,185,77813,5,2,3:2:0:0:
326,95,78063,1,2,3:2:0:0:
416,86,78313,1,8,0:2:0:0:
425,176,78563,1,10,0:2:0:0:
422,220,78688,1,10,0:2:0:0:
419,265,78813,5,6,3:2:0:0:
419,265,78938,1,0,0:0:0:0:
351,325,79063,1,2,0:2:0:0:
351,325,79188,1,0,0:0:0:0:
261,316,79313,1,10,0:2:0:0:
222,234,79563,1,2,0:2:0:0:
222,234,79688,1,2,0:2:0:0:
279,118,79813,5,2,3:2:0:0:
211,58,80063,1,2,3:2:0:0:
121,67,80313,1,8,0:2:0:0:
82,149,80563,1,2,0:2:0:0:
82,149,80688,1,2,0:2:0:0:
167,248,80813,5,2,3:2:0:0:
167,248,80938,1,0,0:0:0:0:
79,270,81063,1,2,0:0:0:0:
79,270,81188,1,0,0:0:0:0:
141,335,81313,1,10,0:2:0:0:
141,335,81438,1,2,0:2:0:0:
229,313,81563,2,0,L|329:289,1,90,2|8,0:2|0:2,0:0:0:0:
357,138,81813,5,2,3:2:0:0:
357,138,81938,1,2,0:2:0:0:
445,160,82063,1,2,3:2:0:0:
383,225,82313,1,10,0:2:0:0:
295,203,82563,1,8,0:2:0:0:
251,192,82688,1,8,0:2:0:0:
207,181,82813,5,6,3:2:0:0:
178,95,83063,1,2,0:2:0:0:
88,94,83313,1,10,0:2:0:0:
60,180,83563,1,2,0:2:0:0:
132,233,83813,1,2,3:2:0:0:
207,181,84063,1,2,3:2:0:0:
279,234,84313,1,10,0:2:0:0:
251,320,84563,1,2,0:2:0:0:
251,320,84688,1,0,0:0:0:0:
161,319,84813,5,2,3:2:0:0:
132,233,85063,1,2,0:2:0:0:
191,164,85313,1,10,0:2:0:0:
280,180,85563,1,2,0:2:0:0:
295,223,85688,1,8,0:2:0:0:
311,266,85813,1,2,3:2:0:0:
400,282,86063,1,2,3:2:0:0:
459,213,86313,1,10,0:2:0:0:
428,127,86563,1,10,0:2:0:0:
383,119,86688,1,8,0:2:0:0:
338,111,86813,5,4,3:2:0:0:
279,42,87063,1,0,0:0:0:0:
200,85,87313,1,10,0:2:0:0:
141,16,87563,1,2,0:2:0:0:
26,274,87813,5,2,3:2:0:0:
85,205,88063,1,2,3:2:0:0:
164,248,88313,1,10,0:2:0:0:
223,179,88563,1,0,0:0:0:0:
417,354,88813,6,0,B|357:297|370:204|456:177|456:177|377:187|328:154|305:91|331:29|382:2|457:12,1,540,0|0,3:2|0:0,0:0:0:0:
438,10,89688,1,8,0:2:0:0:
245,43,89813,6,0,L|257:150,1,90,2|0,3:2|0:0,0:0:0:0:
276,127,90063,2,0,L|265:37,1,90,2|0,3:2|0:0,0:0:0:0:
102,138,90313,6,0,L|91:227,1,90,10|0,0:2|0:0,0:0:0:0:
112,232,90563,2,0,L|122:142,1,90,10|8,0:2|0:2,0:0:0:0:
223,348,90813,6,0,P|273:321|316:323,1,90,6|0,3:2|0:0,0:0:0:0:
471,270,91063,1,8,0:2:0:0:
408,205,91188,1,8,0:2:0:0:
474,144,91313,2,0,P|485:86|477:47,1,90,2|0,3:2|0:0,0:0:0:0:
269,37,91563,1,10,0:2:0:0:
342,89,91688,1,8,0:2:0:0:
296,166,91813,6,0,P|248:182|196:173,1,90,0|0,3:2|0:0,0:0:0:0:
97,65,92063,1,8,0:2:0:0:
33,129,92188,1,8,0:2:0:0:
121,153,92313,1,0,3:2:0:0:
209,177,92438,1,10,0:2:0:0:
145,241,92563,1,10,0:2:0:0:
57,217,92688,1,10,0:2:0:0:
81,305,92813,6,0,P|126:330|167:330,1,90,2|0,3:2|0:0,0:0:0:0:
340,269,93063,1,10,0:2:0:0:
405,330,93188,1,8,0:2:0:0:
478,277,93313,2,0,P|489:234|485:184,1,90,2|0,3:2|0:0,0:0:0:0:
326,43,93563,1,10,0:2:0:0:
373,119,93688,1,8,0:2:0:0:
297,168,93813,6,0,P|245:180|197:174,1,90,0|0,3:2|0:0,0:0:0:0:
80,253,94063,1,8,0:2:0:0:
124,331,94188,1,8,0:2:0:0:
213,331,94313,1,2,3:2:0:0:
257,253,94438,1,8,0:2:0:0:
346,253,94563,1,10,0:2:0:0:
390,331,94688,1,8,0:2:0:0:
479,331,94813,6,0,P|492:274|486:233,1,90,2|0,3:2|0:0,0:0:0:0:
422,81,95063,1,10,0:2:0:0:
349,134,95188,1,8,0:2:0:0:
291,64,95313,2,0,P|235:47|197:50,1,90,0|0,3:2|0:0,0:0:0:0:
144,214,95563,1,10,0:2:0:0:
96,137,95688,1,8,0:2:0:0:
23,189,95813,6,0,P|7:239|11:288,1,90,0|0,3:2|0:0,0:0:0:0:
87,364,96063,1,10,0:2:0:0:
141,292,96188,1,8,0:2:0:0:
202,357,96313,1,2,3:2:0:0:
256,285,96438,1,8,0:2:0:0:
317,350,96563,1,10,0:2:0:0:
371,278,96688,1,10,0:2:0:0:
432,343,96813,6,0,P|479:352|525:351,1,90,0|0,3:2|0:0,0:0:0:0:
471,157,97063,1,8,0:2:0:0:
384,181,97188,1,8,0:2:0:0:
337,104,97313,2,0,P|291:85|241:83,1,90,0|0,3:2|0:0,0:0:0:0:
197,244,97563,1,8,0:2:0:0:
116,284,97688,1,8,0:2:0:0:
71,205,97813,6,0,P|62:149|72:109,1,90,2|0,3:2|0:0,0:0:0:0:
165,59,98063,1,10,0:2:0:0:
251,82,98188,1,10,0:2:0:0:
228,168,98313,1,2,3:2:0:0:
205,254,98438,1,8,0:2:0:0:
291,277,98563,1,10,0:2:0:0:
314,191,98688,1,8,0:2:0:0:
400,214,98813,6,0,P|465:208|496:192,1,90,6|0,3:2|0:0,0:0:0:0:
439,89,99063,2,0,P|374:83|343:67,1,90,2|0,0:2|0:0,0:0:0:0:
252,37,99313,1,10,0:2:0:0:
237,125,99438,1,0,0:0:0:0:
151,95,99563,1,2,0:2:0:0:
144,191,99688,1,8,0:2:0:0:
144,191,99750,1,8,0:2:0:0:
144,191,99813,6,0,P|89:179|43:187,1,90,2|0,3:2|0:0,0:0:0:0:
161,314,100063,2,0,P|216:326|262:318,1,90,2|0,3:2|0:0,0:0:0:0:
464,334,100313,1,10,0:2:0:0:
470,244,100438,1,2,0:2:0:0:
380,237,100563,1,2,0:2:0:0:
374,327,100688,1,0,0:0:0:0:
431,162,100813,5,2,3:2:0:0:
374,92,100938,1,0,0:0:0:0:
289,125,101063,1,2,0:2:0:0:
296,216,101188,1,0,0:0:0:0:
211,249,101313,1,10,0:2:0:0:
154,179,101438,1,2,0:2:0:0:
205,104,101563,1,2,0:2:0:0:
155,41,101688,1,8,0:2:0:0:
155,41,101750,1,8,0:0:0:0:
155,41,101813,6,0,P|94:37|53:51,1,90,2|0,3:2|0:0,0:0:0:0:
289,125,102063,2,0,P|350:129|391:115,1,90,2|0,3:2|0:0,0:0:0:0:
115,127,102313,2,0,L|123:236,1,90,10|0,0:2|0:0,0:0:0:0:
228,360,102563,1,10,0:2:0:0:
252,273,102688,1,8,0:2:0:0:
491,351,102813,6,0,P|439:333|305:341,1,180,4|2,3:2|0:2,0:0:0:0:
252,273,103188,1,0,0:0:0:0:
324,219,103313,1,10,0:2:0:0:
261,155,103438,1,0,0:0:0:0:
333,101,103563,1,2,0:2:0:0:
277,44,103688,1,10,0:2:0:0:
277,44,103750,1,8,0:2:0:0:
277,44,103813,6,0,P|225:56|174:48,1,90,2|0,3:2|0:0,0:0:0:0:
49,132,104063,1,2,3:2:0:0:
128,175,104188,1,2,0:2:0:0:
92,257,104313,2,0,P|83:306|81:360,1,90,10|0,0:2|0:0,0:0:0:0:
232,228,104563,2,0,P|229:183|220:138,1,90,2|0,0:2|0:0,0:0:0:0:
319,356,104813,6,0,P|351:299|371:178,1,180,2|0,3:2|0:0,0:0:0:0:
117,37,105313,2,0,P|97:85|92:131,1,90,10|0,0:2|0:0,0:0:0:0:
144,222,105563,1,2,0:2:0:0:
220,138,105688,1,8,0:2:0:0:
220,138,105750,1,8,0:0:0:0:
220,138,105813,6,0,P|264:121|311:120,1,90,0|0,3:2|0:0,0:0:0:0:
389,306,106063,2,0,P|344:303|302:287,1,90,0|0,3:2|0:0,0:0:0:0:
144,222,106313,1,10,0:2:0:0:
181,303,106438,1,0,0:0:0:0:
91,296,106563,1,10,0:2:0:0:
128,377,106688,1,8,0:2:0:0:
54,215,106813,6,0,P|64:153|54:112,1,90,6|0,3:2|0:0,0:0:0:0:
171,67,107063,1,10,0:2:0:0:
144,222,107188,1,2,3:2:0:0:
252,34,107313,1,0,0:0:0:0:
275,230,107438,1,2,3:2:0:0:
388,96,107563,1,10,0:2:0:0:
360,243,107688,1,2,0:2:0:0:
492,131,107813,6,0,P|510:169|505:244,1,90,2|0,3:2|0:0,0:0:0:0:
275,230,108063,1,10,0:2:0:0:
388,96,108188,1,2,3:2:0:0:
228,103,108313,1,0,0:0:0:0:
427,191,108438,1,2,3:2:0:0:
173,282,108563,2,0,P|161:228|168:173,1,90,10|0,0:2|0:0,0:0:0:0:
388,288,108813,5,6,3:2:0:0:
99,330,108938,1,0,0:0:0:0:
388,96,109063,1,10,0:2:0:0:
99,54,109188,1,0,3:2:0:0:
287,333,109313,1,10,0:2:0:0:
51,257,109438,1,0,3:2:0:0:
287,51,109563,1,10,0:2:0:0:
51,127,109688,1,0,3:2:0:0:
416,192,109813,5,6,3:2:0:0:
416,192,110313,1,2,0:2:0:0:
501,164,110438,1,2,0:0:0:0:
501,74,110563,1,2,0:2:0:0:
416,46,110688,1,2,0:2:0:0:
363,119,110813,6,0,B|312:95|312:95|253:97,1,107.999996704102,6|0,3:2|0:0,0:0:0:0:
24,284,111063,2,0,B|75:285|75:285|126:261,1,107.999996704102,10|0,0:2|0:0,0:0:0:0:
154,49,111313,1,2,3:2:0:0:
56,192,111438,1,0,3:2:0:0:
260,96,111563,1,10,0:2:0:0:
234,282,111688,1,0,0:0:0:0:
386,39,111813,6,0,B|336:15|336:15|265:14,1,107.999996704102,2|0,3:2|0:0,0:0:0:0:
153,181,112063,1,10,0:2:0:0:
386,142,112188,1,2,0:2:0:0:
154,49,112313,1,0,3:2:0:0:
234,282,112438,1,2,3:2:0:0:
260,96,112563,1,10,0:2:0:0:
137,181,112688,1,0,0:0:0:0:
437,291,112813,6,0,B|346:272|346:272|318:297|318:297|227:280,1,215.999993408203,2|10,3:2|0:2,0:0:0:0:
58,91,113188,2,0,B|110:74|110:74|164:85,1,107.999996704102,2|0,0:2|3:2,0:0:0:0:
118,335,113438,2,0,B|66:352|66:352|12:341,1,107.999996704102,2|10,3:2|0:2,0:0:0:0:
169,181,113688,1,2,0:2:0:0:
292,368,113813,6,0,B|271:224|271:224|326:165,1,215.999993408203,0|8,3:2|0:2,0:0:0:0:
408,97,114188,1,0,0:0:0:0:
358,252,114313,1,2,3:2:0:0:
309,56,114438,1,0,3:2:0:0:
456,216,114563,1,10,0:2:0:0:
465,14,114688,1,2,0:2:0:0:
237,120,114813,6,0,B|176:136|131:101|131:101|127:158|62:195,1,215.999993408203,6|10,3:2|0:2,0:0:0:0:
97,321,115188,1,2,0:2:0:0:
329,263,115313,2,0,B|341:206|341:206|330:143,1,107.999996704102,2|0,3:2|3:2,0:0:0:0:
10,273,115563,2,0,B|1:322|1:322|13:379,1,107.999996704102,10|0,0:2|0:0,0:0:0:0:
410,310,115813,6,0,B|433:208|433:208|412:92,1,215.999993408203,2|10,3:2|0:2,0:0:0:0:
152,180,116188,2,0,B|201:206|201:206|266:203,1,107.999996704102,2|0,0:2|3:2,0:0:0:0:
237,35,116438,1,2,3:2:0:0:
75,113,116563,2,0,B|55:162|55:162|59:226,1,107.999996704102,10|2,0:2|0:2,0:0:0:0:
413,98,116813,5,6,3:2:0:0:
152,180,116938,1,0,0:0:0:0:
400,219,117063,1,10,0:2:0:0:
165,59,117188,1,0,3:2:0:0:
426,93,117313,5,10,0:2:0:0:
138,184,117438,1,0,3:2:0:0:
411,227,117563,1,10,0:2:0:0:
153,50,117688,1,0,3:2:0:0:
330,313,117813,5,10,0:2:0:0:
312,27,117938,1,0,3:2:0:0:
306,308,118063,1,8,0:2:0:0:
288,22,118188,1,0,3:2:0:0:
411,227,118313,5,10,0:2:0:0:
138,184,118438,1,8,3:2:0:0:
443,227,118563,1,10,3:2:0:0:
106,184,118688,1,10,3:2:0:0:
475,227,118813,6,0,B|503:181|503:181|500:116,1,107.999996704102,6|0,3:2|0:0,0:0:0:0:
207,47,119063,2,0,B|179:93|179:93|182:158,1,107.999996704102,10|0,0:2|0:0,0:0:0:0:
385,279,119313,1,2,3:2:0:0:
312,27,119438,1,0,3:2:0:0:
111,218,119563,2,0,B|157:246|157:246|222:243,1,107.999996704102,10|0,0:2|0:0,0:0:0:0:
383,142,119813,6,0,B|317:108|317:108|174:149,1,215.999993408203,2|10,3:2|0:2,0:0:0:0:
461,210,120188,2,0,B|483:162|483:162|477:94,1,107.999996704102,2|0,0:2|3:2,0:0:0:0:
180,147,120438,1,2,3:2:0:0:
385,279,120563,1,10,0:2:0:0:
312,27,120688,1,2,0:2:0:0:
256,288,120813,6,0,B|274:231|274:231|264:175,1,107.999996704102,2|0,3:2|0:0,0:0:0:0:
118,39,121063,1,10,0:2:0:0:
24,267,121188,2,0,B|77:281|77:281|138:261,1,107.999996704102,2|0,0:2|3:2,0:0:0:0:
223,66,121438,1,2,3:2:0:0:
90,182,121563,1,10,0:2:0:0:
265,183,121688,1,2,0:2:0:0:
32,61,121813,6,0,B|-2:150|-2:150|27:277,1,215.999993408203,0|10,3:2|0:2,0:0:0:0:
138,315,122188,1,0,0:0:0:0:
90,182,122313,1,10,3:2:0:0:
237,315,122438,1,10,3:2:0:0:
201,118,122563,1,10,3:2:0:0:
336,315,122688,1,10,3:2:0:0:
312,54,122813,5,10,3:2:0:0:
138,315,122938,1,8,3:2:0:0:
138,315,123813,5,10,3:2:0:0:
80,35,123938,1,8,3:2:0:0:
266,150,124813,6,0,B|353:103|359:195|465:136,2,180,2|2|0,3:2|3:2|3:2,0:0:0:0:
266,150,126063,1,2,0:0:0:0:
202,213,126188,1,2,0:0:0:0:
179,126,126313,1,2,3:2:0:0:
115,189,126438,1,2,0:0:0:0:
115,189,126813,6,0,P|120:229|120:290,2,90,2|2|2,3:2|0:0|3:2,0:0:0:0:
49,48,127563,2,0,P|95:49|155:31,1,90,2|0,0:0|3:2,0:0:0:0:
297,37,128063,1,2,0:0:0:0:
235,103,128188,1,2,0:0:0:0:
276,181,128313,1,2,3:2:0:0:
367,167,128438,1,2,0:0:0:0:
378,77,128563,1,2,0:0:0:0:
469,63,128688,1,2,0:0:0:0:
510,141,128813,6,0,P|504:175|505:235,1,90,2|0,3:2|0:0,0:0:0:0:
422,252,129188,2,0,P|429:297|428:342,1,90,2|0,0:0|0:0,0:0:0:0:
320,189,129563,2,0,P|314:223|313:341,1,135,2|0,0:0|0:0,0:0:0:0:
226,349,130063,1,2,0:0:0:0:
226,349,130188,1,2,0:0:0:0:
180,271,130313,1,2,3:2:0:0:
134,193,130438,1,2,0:0:0:0:
223,190,130563,1,2,0:0:0:0:
177,112,130688,1,2,0:0:0:0:
131,34,130813,6,0,L|70:30,2,45,2|2|2,3:2|0:0|0:0,0:0:0:0:
177,112,131188,1,2,0:0:0:0:
177,112,131313,2,0,L|271:105,1,90,0|0,3:0|0:0,0:0:0:0:
511,32,131813,2,0,L|416:25,1,90,0|2,3:2|0:0,0:0:0:0:
349,80,132188,1,2,0:0:0:0:
360,170,132313,1,2,3:2:0:0:
443,205,132438,1,2,0:0:0:0:
454,295,132563,1,2,0:0:0:0:
382,349,132688,1,2,0:0:0:0:
299,314,132813,6,0,L|236:310,1,45,2|2,3:2|0:0,0:0:0:0:
242,222,133063,1,2,0:0:0:0:
242,222,133188,2,0,L|179:226,1,45,2|2,0:0|3:2,0:0:0:0:
120,310,133438,1,2,0:0:0:0:
120,310,133563,2,0,B|141:317|141:317|165:313,1,45,2|2,0:0|0:0,0:0:0:0:
108,221,133813,6,0,L|45:225,1,45,2|0,3:2|0:0,0:0:0:0:
26,144,134063,1,2,0:0:0:0:
26,144,134313,1,2,3:2:0:0:
39,54,134438,1,2,0:0:0:0:
129,67,134563,1,2,0:0:0:0:
219,80,134688,1,2,0:0:0:0:
206,170,134813,6,0,L|200:222,1,45,0|2,3:2|0:0,0:0:0:0:
190,302,135063,1,2,0:0:0:0:
390,303,135313,2,0,L|395:258,1,45,2|2,3:2|0:0,0:0:0:0:
469,215,135563,2,0,L|463:163,1,45,2|2,0:0|0:0,0:0:0:0:
458,35,135813,5,2,3:2:0:0:
382,84,135938,1,2,0:0:0:0:
321,17,136063,2,0,P|281:10|225:11,1,90,2|2,0:0|3:2,0:0:0:0:
191,111,136438,2,0,P|235:111|280:104,1,90,2|0,0:0|0:0,0:0:0:0:
71,63,136813,5,6,3:2:0:0:
74,77,136896,1,2,0:0:0:0:
77,91,136979,1,2,0:0:0:0:
59,123,137063,5,2,0:0:0:0:
62,137,137146,1,2,0:0:0:0:
65,151,137229,1,2,0:0:0:0:
47,183,137313,5,2,3:2:0:0:
50,197,137396,1,2,0:0:0:0:
53,211,137479,1,2,0:0:0:0:
35,243,137563,5,2,0:0:0:0:
38,257,137646,1,2,0:0:0:0:
41,271,137729,1,2,0:0:0:0:
23,303,137813,6,0,P|44:343|172:333,1,180,2|0,3:2|3:2,0:0:0:0:
269,232,138563,1,2,0:0:0:0:
139,132,138813,5,2,3:2:0:0:
140,117,138896,1,2,0:0:0:0:
146,103,138979,1,2,0:0:0:0:
187,97,139063,5,2,0:0:0:0:
194,84,139146,1,2,0:0:0:0:
206,75,139229,1,2,0:0:0:0:
246,90,139313,6,0,P|280:94|336:81,1,90,2|0,3:2|0:0,0:0:0:0:
471,40,139813,2,0,B|459:88|459:88|470:138,2,90,2|2|2,3:2|0:0|3:2,0:0:0:0:
489,212,140563,1,2,0:0:0:0:
391,296,140813,6,0,B|301:256|301:323|208:283,1,180,2|0,3:2|3:2,0:0:0:0:
112,141,141563,1,2,0:0:0:0:
112,141,141688,1,2,0:0:0:0:
172,60,141813,6,0,B|257:96|257:29|347:69,1,180,0|2,3:0|3:2,0:0:0:0:
413,129,142438,1,2,0:0:0:0:
339,180,142563,2,0,P|330:206|326:235,1,45,2|2,0:0|0:0,0:0:0:0:
189,322,142813,5,6,3:2:0:0:
173,180,142938,1,0,0:0:0:0:
323,322,143063,1,2,3:2:0:0:
339,180,143188,1,0,0:0:0:0:
182,329,143313,5,2,3:2:0:0:
164,172,143438,1,0,0:0:0:0:
329,329,143563,1,2,3:2:0:0:
347,172,143688,1,0,0:0:0:0:
256,384,143813,5,6,3:2:0:0:
256,384,144313,5,2,0:2:0:0:
256,294,144438,1,0,0:0:0:0:
256,204,144563,1,0,0:0:0:0:
256,114,144688,1,0,0:0:0:0:
256,24,144813,5,0,3:0:0:0:
166,30,145063,1,0,0:0:0:0:
126,110,145313,1,0,3:0:0:0:
36,116,145563,1,0,0:0:0:0:
256,24,145813,5,0,3:0:0:0:
346,30,146063,1,0,0:0:0:0:
386,110,146313,1,0,3:0:0:0:
476,116,146563,1,0,0:0:0:0:
187,225,146813,5,0,3:0:0:0:
174,135,147063,1,0,0:0:0:0:
84,148,147313,1,0,3:0:0:0:
97,238,147563,1,0,0:0:0:0:
325,225,147813,5,0,3:0:0:0:
338,135,148063,1,0,0:0:0:0:
428,148,148313,2,0,L|478:155,1,45,0|0,1:2|0:0,0:0:0:0:
415,238,148563,1,2,0:2:0:0:
415,238,148688,1,0,0:0:0:0:
415,238,148813,6,0,L|424:314,1,45,2|0,3:2|0:0,0:0:0:0:
320,309,149063,2,0,L|332:202,1,90,0|0,0:0|1:2,0:0:0:0:
239,294,149438,2,0,L|251:187,1,90,0|0,0:0|0:0,0:0:0:0:
158,279,149813,6,0,L|164:225,1,45,2|0,3:2|0:0,0:0:0:0:
249,204,150063,1,0,0:0:0:0:
252,113,150188,1,0,0:0:0:0:
164,84,150313,1,0,1:2:0:0:
109,156,150438,1,0,0:0:0:0:
163,234,150563,1,0,0:0:0:0:
108,306,150688,1,0,0:0:0:0:
20,277,150813,6,0,L|26:213,1,45,2|0,3:2|0:0,0:0:0:0:
108,306,151063,2,0,L|114:242,1,45,0|0,0:0|0:0,0:0:0:0:
202,197,151313,2,0,L|208:261,1,45,0|0,1:2|0:0,0:0:0:0:
290,168,151563,2,0,L|296:232,1,45,0|0,0:0|0:0,0:0:0:0:
400,275,151813,5,2,3:2:0:0:
466,214,151938,1,0,0:0:0:0:
380,185,152063,2,0,L|375:140,1,45,0|0,0:0|0:0,0:0:0:0:
378,52,152313,1,2,1:2:0:0:
294,21,152438,1,0,0:0:0:0:
238,92,152563,1,2,0:2:0:0:
290,168,152688,1,0,0:0:0:0:
375,140,152813,5,6,3:2:0:0:
378,52,153063,1,0,0:0:0:0:
294,21,153313,1,0,3:0:0:0:
238,92,153563,1,0,0:0:0:0:
137,244,153813,5,0,3:0:0:0:
134,332,154063,1,0,0:0:0:0:
218,363,154313,1,0,3:0:0:0:
274,292,154563,1,0,0:0:0:0:
375,140,154813,5,0,3:0:0:0:
337,221,155063,1,0,0:0:0:0:
410,272,155313,1,0,3:0:0:0:
372,353,155563,1,0,0:0:0:0:
137,140,155813,5,0,3:0:0:0:
175,221,156063,1,0,0:0:0:0:
102,272,156313,1,2,3:2:0:0:
140,353,156563,1,0,0:0:0:0:
256,135,156813,6,0,L|248:87,1,45,6|0,3:2|0:0,0:0:0:0:
256,249,157063,2,0,L|248:297,1,45,0|0,0:0|0:0,0:0:0:0:
170,141,157313,1,0,3:2:0:0:
170,243,157438,1,0,0:0:0:0:
84,147,157563,1,0,0:0:0:0:
84,237,157688,1,0,0:0:0:0:
6,192,157813,6,0,L|0:134,1,45,2|0,3:2|0:0,0:0:0:0:
42,67,158063,1,0,0:0:0:0:
42,67,158188,2,0,L|36:9,2,45,0|0|0,0:0|3:0|0:0,0:0:0:0:
124,69,158563,2,0,L|118:11,1,45,0|0,0:0|0:0,0:0:0:0:
170,243,158813,5,6,3:2:0:0:
170,243,159063,5,2,3:2:0:0:
342,243,159188,1,0,3:2:0:0:
147,156,159313,1,0,3:2:0:0:
365,156,159438,1,0,3:2:0:0:
124,69,159563,1,0,3:2:0:0:
388,69,159688,1,0,3:2:0:0:
256,288,159813,5,4,3:2:0:0:
256,288,160313,1,2,0:2:0:0:
204,361,160438,1,2,0:0:0:0:
118,333,160563,1,2,0:2:0:0:
118,243,160688,1,2,0:2:0:0:
204,215,160813,6,0,B|259:176|259:176|449:203,1,233.999989288331,6|10,3:2|0:2,0:0:0:0:
297,352,161188,1,0,0:0:0:0:
118,243,161313,2,0,B|103:184|103:184|117:121,1,116.999994644165,2|0,3:2|3:2,0:0:0:0:
295,60,161563,1,10,0:2:0:0:
38,25,161688,1,0,0:0:0:0:
371,113,161813,6,0,B|384:59|384:59|369:0,1,116.999994644165,2|0,3:2|0:0,0:0:0:0:
36,202,162063,1,10,0:2:0:0:
293,237,162188,2,0,B|307:296|307:296|294:366,1,116.999994644165,2|0,0:2|3:2,0:0:0:0:
115,129,162438,1,2,3:2:0:0:
371,113,162563,2,0,B|429:130|429:130|483:176,1,116.999994644165,10|0,0:2|0:0,0:0:0:0:
220,296,162813,6,0,B|177:247|177:247|207:73,1,233.999989288331,2|10,3:2|0:2,0:0:0:0:
471,166,163188,2,0,L|491:281,1,116.999994644165,2|0,0:2|3:2,0:0:0:0:
115,129,163438,2,0,L|135:13,1,116.999994644165,2|10,3:2|0:2,0:0:0:0:
357,244,163688,1,2,0:2:0:0:
49,215,163813,6,0,B|6:166|6:166|36:-8,1,233.999989288331,0|8,3:2|0:2,0:0:0:0:
299,59,164188,1,2,0:2:0:0:
115,129,164313,1,2,3:2:0:0:
371,141,164438,1,0,3:2:0:0:
157,230,164563,1,10,0:2:0:0:
443,223,164688,1,2,0:2:0:0:
199,331,164813,5,6,3:2:0:0:
239,157,164938,1,0,0:0:0:0:
312,325,165063,1,10,0:2:0:0:
157,230,165188,1,2,0:0:0:0:
334,214,165313,2,0,B|388:242|388:242|428:308,1,116.999994644165,2|0,3:2|3:2,0:0:0:0:
199,331,165563,1,10,0:2:0:0:
327,115,165688,1,2,0:2:0:0:
506,352,165813,6,0,B|428:377|428:377|278:352,1,233.999989288331,2|10,3:2|0:2,0:0:0:0:
0,41,166188,2,0,B|83:5|83:5|235:35,1,233.999989288331,2|2,0:2|3:2,0:0:0:0:
248,250,166563,1,10,0:2:0:0:
89,127,166688,1,2,0:2:0:0:
92,331,166813,5,6,3:2:0:0:
223,32,166938,1,0,0:0:0:0:
279,353,167063,1,10,0:2:0:0:
80,116,167188,1,0,3:2:0:0:
82,342,167313,5,14,0:2:0:0:
228,15,167438,1,0,3:2:0:0:
289,368,167563,1,10,0:2:0:0:
71,105,167688,1,0,3:2:0:0:
386,257,167813,5,14,0:2:0:0:
59,232,167938,1,0,3:2:0:0:
389,119,168063,1,8,0:2:0:0:
62,94,168188,1,0,3:2:0:0:
395,268,168313,5,10,0:2:0:0:
50,243,168438,1,8,3:2:0:0:
398,108,168563,1,10,3:2:0:0:
53,83,168688,1,10,3:2:0:0:
463,43,168813,6,0,B|482:99|482:99|473:156,1,116.999994644165,6|0,3:2|0:0,0:0:0:0:
130,355,169063,2,0,B|110:298|110:298|119:241,1,116.999994644165,10|0,0:2|0:0,0:0:0:0:
307,59,169313,1,2,3:2:0:0:
206,291,169438,1,0,3:2:0:0:
53,83,169563,2,0,B|108:59|108:59|179:64,1,116.999994644165,10|0,0:2|0:0,0:0:0:0:
427,288,169813,6,0,B|360:323|360:323|205:290,1,233.999989288331,2|10,3:2|0:2,0:0:0:0:
341,0,170188,2,0,B|376:67|376:67|343:221,1,233.999989288331,2|2,0:2|3:2,0:0:0:0:
11,147,170563,1,10,0:2:0:0:
281,77,170688,1,2,0:2:0:0:
131,349,170813,6,0,B|112:294|112:294|127:223,1,116.999994644165,2|0,3:2|0:0,0:0:0:0:
196,30,171063,1,10,0:2:0:0:
404,298,171188,2,0,B|349:317|349:317|278:302,1,116.999994644165,2|0,0:2|3:2,0:0:0:0:
11,147,171438,2,0,B|66:128|66:128|137:143,1,116.999994644165,2|10,3:2|0:2,0:0:0:0:
343,221,171688,1,2,0:2:0:0:
130,348,171813,6,0,B|80:290|80:290|123:139,1,233.999989288331,0|10,3:2|0:2,0:0:0:0:
253,96,172188,1,2,0:2:0:0:
178,268,172313,1,10,3:2:0:0:
345,90,172438,1,10,3:2:0:0:
267,302,172563,1,10,3:2:0:0:
440,85,172688,1,10,3:2:0:0:
356,335,172813,5,10,3:2:0:0:
290,0,172938,1,10,3:2:0:0:
290,0,173813,5,10,3:2:0:0:
41,250,173938,1,8,3:2:0:0:
171,91,174813,5,2,0:2:0:0:
341,293,175313,1,2,0:2:0:0:
332,58,175813,1,2,0:2:0:0:
180,326,176313,1,2,0:2:0:0:
49,144,176813,6,0,B|100:93|100:93|267:109,1,233.999989288331,4|8,3:2|0:2,0:0:0:0:
439,240,177188,1,0,0:0:0:0:
153,358,177313,2,0,B|138:301|138:301|154:231,1,116.999994644165,0|0,3:2|3:2,0:0:0:0:
475,25,177563,2,0,B|490:82|490:82|474:152,1,116.999994644165,10|0,0:2|0:0,0:0:0:0:
338,344,177813,5,2,3:2:0:0:
261,108,177938,1,0,0:0:0:0:
153,358,178063,2,0,B|138:301|138:301|154:231,1,116.999994644165,10|0,0:2|0:0,0:0:0:0:
398,82,178313,1,2,3:2:0:0:
230,301,178438,1,0,3:2:0:0:
112,30,178563,2,0,B|169:15|169:15|239:31,1,116.999994644165,10|0,0:2|0:0,0:0:0:0:
398,82,178813,5,2,3:2:0:0:
150,149,178938,1,0,0:0:0:0:
387,220,179063,2,0,B|330:232|330:232|273:217,1,116.999994644165,10|0,0:2|0:0,0:0:0:0:
335,2,179313,2,0,B|392:-13|392:-13|448:-1,1,116.999994644165,2|0,3:2|3:2,0:0:0:0:
165,367,179563,6,0,B|122:305|122:305|150:147,1,233.999989288331,10|0,0:2|3:2,0:0:0:0:
279,102,179938,1,0,0:0:0:0:
52,201,180063,2,0,B|35:143|35:143|51:77,1,116.999994644165,8|0,0:2|0:0,0:0:0:0:
417,168,180313,1,10,3:2:0:0:
149,148,180438,1,8,3:2:0:0:
392,39,180563,1,10,3:2:0:0:
174,277,180688,1,10,3:2:0:0:
256,0,180813,5,10,3:2:0:0:
332,347,180938,1,8,3:2:0:0:
332,347,181813,5,10,3:2:0:0:
32,192,181938,1,8,3:2:0:0:
208,116,183313,6,0,B|118:80|118:151|9:109,1,180,6|2,3:2|0:2,0:0:0:0:
304,268,183813,2,0,B|394:304|394:233|503:275,1,180,2|2,3:2|0:2,0:0:0:0:
422,64,184313,2,0,P|360:54|385:142,2,180,2|2|2,3:2|0:2|3:2,0:0:0:0:
422,64,185063,1,2,0:2:0:0:
138,244,185313,6,0,B|157:195|159:125|159:125|142:154|105:172,1,180,2|0,3:2|0:0,0:0:0:0:
374,140,185813,2,0,B|355:189|353:259|353:259|370:230|407:212,1,180,2|0,3:2|0:0,0:0:0:0:
256,192,186188,1,2,0:2:0:0:
256,192,186313,1,6,3:2:0:0:
256,192,186563,5,2,0:2:0:0:
170,164,186688,1,0,0:0:0:0:
170,74,186813,1,2,0:2:0:0:
256,46,186938,1,2,0:2:0:0:
308,119,187063,1,2,0:2:0:0:
256,192,187188,1,2,0:2:0:0:
308,265,187313,6,0,B|360:281|360:281|431:264,1,107.999996704102,6|0,3:2|0:0,0:0:0:0:
256,46,187563,1,10,0:2:0:0:
179,288,187688,1,2,0:2:0:0:
434,141,187813,2,0,B|442:84|442:84|421:32,1,107.999996704102,2|0,3:2|3:2,0:0:0:0:
73,130,188063,1,10,0:2:0:0:
92,148,188125,1,0,3:0:0:0:
116,160,188188,1,0,3:2:0:0:
142,166,188250,1,0,3:2:0:0:
169,163,188313,6,0,P|229:137|256:0,1,215.999993408203,6|10,3:2|0:2,0:0:0:0:
256,256,188688,2,0,P|241:315|247:367,1,107.999996704102,2|0,3:2|0:0,0:0:0:0:
256,0,188938,1,2,3:2:0:0:
82,307,189188,6,0,B|83:341|111:377|162:386|206:368|216:325|243:207|243:207|304:187|349:235|349:235|410:212|455:259|455:259|462:148|386:75|288:34|288:34|291:-3|291:-3|279:32|279:32|172:27|71:59|29:161|29:161|92:138|136:185|136:185|185:165|225:201,1,1405.80004290161,2|0,0:0|0:0,0:0:0:0:
