osu file format v14

[General]
AudioFilename: audio.mp3
AudioLeadIn: 0
PreviewTime: 160313
Countdown: 0
SampleSet: Soft
StackLeniency: 0.2
Mode: 0
LetterboxInBreaks: 0
WidescreenStoryboard: 1

[Editor]
DistanceSpacing: 1.1
BeatDivisor: 4
GridSize: 16
TimelineZoom: 1.550001

[Metadata]
Title:Anoyo-iki no Bus ni Notte Saraba.
TitleUnicode:あの世行きのバスに乗ってさらば。
Artist:TUYU
ArtistUnicode:ツユ
Creator:SnowNiNo_
Version:Hard
Source:
Tags:japanese rock curi farewell on that bus tsuyu omotatsu pusu rei yappari ame wa ha furun da ne its it's raining after all やっぱり雨は降るんだね AzyuN おむたつ ぷす 礼衣 Nao Tomori naotoshi Reillia [C u r i] Flask captin1 Luscent rui
BeatmapID:2307732
BeatmapSetID:1070357

[Difficulty]
HPDrainRate:4
CircleSize:4
OverallDifficulty:7
ApproachRate:8
SliderMultiplier:1.2
SliderTickRate:1

[Events]
//Background and Video events
0,0,"Evil Anime Girl.jpg",0,0
//Break Periods
//Storyboard Layer 0 (Background)
//Storyboard Layer 1 (Fail)
//Storyboard Layer 2 (Pass)
//Storyboard Layer 3 (Foreground)
//Storyboard Layer 4 (Overlay)
//Storyboard Sound Samples

[TimingPoints]
813,250,4,2,2,55,1,0
4813,-100,4,2,2,70,0,0
12813,-100,4,2,2,50,0,0
26813,-100,4,2,2,60,0,0
28000,-100,4,2,2,5,0,0
28063,-100,4,2,2,60,0,0
28250,-100,4,2,2,5,0,0
28313,-100,4,2,2,60,0,0
28500,-100,4,2,2,5,0,0
28563,-100,4,2,2,60,0,0
36813,-100,4,2,2,50,0,0
44813,-100,4,2,2,70,0,0
48313,-100,4,2,2,50,0,0
48813,-83.3333333333333,4,2,2,90,0,1
60813,-83.3333333333333,4,2,2,60,0,1
62813,-100,4,2,2,60,0,0
66313,-100,4,2,2,70,0,0
74813,-100,4,2,2,50,0,0
90000,-100,4,2,2,5,0,0
90063,-100,4,2,2,50,0,0
90250,-100,4,2,2,5,0,0
90313,-100,4,2,2,50,0,0
90500,-100,4,2,2,5,0,0
90563,-100,4,2,2,50,0,0
90813,-100,4,2,2,60,0,0
98813,-100,4,2,2,50,0,0
106813,-100,4,2,2,70,0,0
110313,-100,4,2,2,40,0,0
110813,-83.3333333333333,4,2,2,90,0,1
122813,-83.3333333333333,4,2,2,60,0,1
124813,-100,4,2,2,60,0,0
142813,-100,4,2,2,70,0,0
144813,-100,4,2,2,60,0,0
158813,-100,4,2,2,80,0,0
160313,-100,4,2,2,40,0,0
160813,-83.3333333333333,4,2,2,90,0,1
172813,-100,4,2,2,90,0,0
174813,-100,4,2,2,50,0,0
176813,-83.3333333333333,4,2,2,80,0,1
180813,-100,4,2,2,80,0,0
182063,-100,4,2,2,50,0,0
183313,250,4,2,2,55,1,0
187313,-83.3333333333333,4,2,2,75,0,1
189188,-100,4,2,2,50,0,0
189250,-100,4,2,2,5,0,0

[Colours]
Combo1 : 203,69,108
Combo2 : 255,190,190

[HitObjects]
218,129,813,6,0,B|178:131|178:131|150:117|150:117|102:120,1,120,6|0,3:2|0:0,0:0:0:0:
206,207,1313,2,0,B|160:209|160:209|134:195|134:195|89:198,1,120,2|2,3:2|0:2,0:0:0:0:
194,286,1813,2,0,B|144:288|144:288|116:273|116:273|77:275,2,120,2|2|2,3:2|0:2|3:2,0:0:0:0:
256,357,2563,1,2,0:2:0:0:
330,306,2813,6,0,P|313:255|356:186,1,120,2|0,3:2|0:0,0:0:0:0:
239,50,3313,2,0,P|256:100|217:173,1,120,2|0,3:2|0:0,0:0:0:0:
156,191,3688,1,0,0:0:0:0:
156,191,3813,1,6,3:2:0:0:
102,336,4813,6,0,P|134:297|215:291,1,120,6|8,3:2|0:2,0:0:0:0:
257,346,5188,2,0,L|250:203,1,120,0|0,3:2|3:2,0:0:0:0:
307,164,5563,2,0,P|268:143|228:147,1,60,8|0,0:2|0:0,0:0:0:0:
192,83,5813,2,0,P|154:118|147:188,1,120,2|8,3:2|0:2,0:0:0:0:
140,267,6188,2,0,L|272:272,1,120,0|0,3:2|3:2,0:0:0:0:
343,276,6563,1,8,0:2:0:0:
343,276,6813,6,0,P|337:222|379:166,1,120,2|8,3:2|0:2,0:0:0:0:
439,117,7188,2,0,P|393:128|320:84,1,120,0|0,3:2|3:2,0:0:0:0:
251,68,7563,2,0,L|255:139,1,60,8|0,0:2|0:0,0:0:0:0:
170,138,7813,2,0,L|167:78,1,60,2|0,3:2|0:0,0:0:0:0:
86,83,8063,1,8,0:2:0:0:
86,83,8188,2,0,L|94:207,1,120,0|0,3:2|3:2,0:0:0:0:
90,286,8563,1,8,0:2:0:0:
90,286,8813,6,0,P|122:276|157:276,1,60,6|0,3:2|0:0,0:0:0:0:
189,348,9063,2,0,P|233:351|261:341,1,60,8|0,0:2|3:2,0:0:0:0:
331,344,9313,2,0,L|334:284,1,60,0|0,0:0|3:2,0:0:0:0:
342,203,9563,1,8,0:2:0:0:
342,203,9688,1,0,0:0:0:0:
352,119,9813,6,0,P|316:109|272:109,1,60,2|0,3:2|0:0,0:0:0:0:
245,177,10063,2,0,P|214:187|168:188,1,60,8|0,0:2|3:2,0:0:0:0:
103,182,10313,2,0,P|100:145|105:99,1,60,0|0,0:0|3:2,0:0:0:0:
167,69,10563,2,0,P|170:32|157:-11,1,60,8|0,0:2|0:0,0:0:0:0:
249,9,10813,6,0,L|324:15,1,60,6|0,3:2|0:0,0:0:0:0:
356,83,11063,2,0,L|424:76,1,60,10|2,0:2|3:2,0:0:0:0:
450,153,11313,2,0,L|523:159,1,60,10|0,0:2|3:2,0:0:0:0:
505,245,11563,1,10,0:2:0:0:
505,245,11688,1,0,3:2:0:0:
425,270,11813,5,6,3:2:0:0:
86,333,12813,6,0,L|78:206,1,120,6|2,3:2|0:2,0:0:0:0:
223,80,13313,2,0,L|230:221,1,120,10|2,0:2|0:2,0:0:0:0:
314,356,13813,2,0,B|352:329|352:329|441:341,2,120,2|2|10,3:2|3:2|0:2,0:0:0:0:
236,373,14438,1,2,0:2:0:0:
236,373,14563,1,2,0:2:0:0:
117,69,14813,6,0,B|190:67|190:67|221:16,1,120,2|2,3:2|0:2,0:0:0:0:
366,57,15313,2,0,B|292:58|292:58|261:109,1,120,10|2,0:2|0:2,0:0:0:0:
346,142,15688,1,8,0:2:0:0:
346,142,15813,2,0,B|419:140|419:140|450:89,1,120,2|2,3:2|3:2,0:0:0:0:
425,222,16313,2,0,B|351:223|351:223|320:273,1,120,8|10,0:2|0:2,0:0:0:0:
295,342,16688,1,10,0:2:0:0:
295,342,16813,6,0,P|252:346|216:335,1,60,6|0,3:2|0:0,0:0:0:0:
187,273,17063,2,0,P|150:262|110:270,1,60,2|0,0:2|0:0,0:0:0:0:
53,299,17313,2,0,P|80:249|72:183,1,120,10|2,0:2|0:2,0:0:0:0:
165,5,17813,2,0,P|138:55|148:126,2,120,2|2|8,3:2|3:2|0:2,0:0:0:0:
304,9,18563,1,2,0:2:0:0:
350,182,18813,6,0,P|413:199|448:265,1,120,2|2,3:2|0:2,0:0:0:0:
363,273,19188,1,2,0:2:0:0:
363,273,19313,2,0,P|299:257|264:199,1,120,10|2,0:2|0:2,0:0:0:0:
278,135,19688,1,10,0:2:0:0:
278,135,19813,2,0,P|248:127|200:132,1,60,2|2,3:2|0:2,0:0:0:0:
139,98,20063,2,0,L|144:162,1,60,2|0,3:2|0:0,0:0:0:0:
187,230,20313,2,0,L|176:364,1,120,10|8,0:2|0:2,0:0:0:0:
256,384,20688,1,8,0:2:0:0:
256,384,20813,6,0,B|283:356|283:356|370:370,2,120,6|2|10,3:2|0:2|0:2,0:0:0:0:
256,384,21563,1,2,0:2:0:0:
256,219,21813,2,0,B|225:249|225:249|133:237,2,120,2|2|10,3:2|3:2|0:2,0:0:0:0:
256,219,22563,1,2,0:2:0:0:
256,219,22688,1,2,0:0:0:0:
256,219,22813,6,0,P|237:170|166:160,1,120,2|2,3:2|0:2,0:0:0:0:
171,302,23313,2,0,P|192:356|270:367,1,120,10|2,0:2|0:2,0:0:0:0:
351,356,23688,1,8,0:2:0:0:
351,356,23813,2,0,L|354:218,2,120,2|2|10,3:2|3:2|0:2,0:0:0:0:
487,370,24563,1,10,0:2:0:0:
487,370,24688,1,8,0:2:0:0:
487,370,24813,6,0,L|493:234,1,120,4|0,3:2|0:0,0:0:0:0:
407,71,25313,2,0,B|384:96|384:96|287:84,1,120,10|2,0:2|0:2,0:0:0:0:
235,207,25813,2,0,B|257:181|257:181|354:192,2,120,2|2|10,3:2|3:2|0:2,0:0:0:0:
134,299,26813,6,0,P|148:330|239:336,1,120,2|0,3:2|0:0,0:0:0:0:
398,284,27313,2,0,P|384:255|301:249,1,120,8|0,0:0|0:0,0:0:0:0:
235,207,27688,1,8,0:2:0:0:
301,155,27813,6,0,P|301:99|235:57,2,120,2|2|10,3:2|3:2|0:2,0:0:0:0:
175,266,28563,1,10,0:2:0:0:
175,266,28688,1,8,0:2:0:0:
175,266,28813,6,0,P|160:309|164:346,1,60,6|0,3:2|0:0,0:0:0:0:
241,345,29063,2,0,L|324:343,1,60,8|8,0:2|0:2,0:0:0:0:
354,278,29313,2,0,L|437:279,1,60,2|0,3:2|0:0,0:0:0:0:
461,208,29563,2,0,P|448:166|453:131,1,60,10|8,0:2|0:2,0:0:0:0:
414,64,29813,6,0,B|390:96|390:96|301:83,1,120,0|8,3:2|0:2,0:0:0:0:
233,69,30188,1,8,0:2:0:0:
233,69,30313,2,0,P|233:107|225:143,1,60,2|8,3:2|0:2,0:0:0:0:
152,161,30563,2,0,P|145:194|145:228,1,60,10|10,0:2|0:2,0:0:0:0:
162,302,30813,6,0,P|132:303|104:313,1,60,2|0,3:2|0:0,0:0:0:0:
227,244,31063,2,0,P|265:255|304:250,1,60,10|8,0:2|0:2,0:0:0:0:
368,261,31313,2,0,L|363:334,1,60,2|0,3:2|0:0,0:0:0:0:
447,335,31563,2,0,L|450:266,1,60,10|8,0:2|0:2,0:0:0:0:
457,190,31813,6,0,B|430:150|430:150|342:158,1,120,0|8,3:2|0:2,0:0:0:0:
277,161,32188,1,8,0:2:0:0:
277,161,32313,2,0,P|280:128|273:98,1,60,2|8,3:2|0:2,0:0:0:0:
324,34,32563,2,0,L|383:28,1,60,10|8,0:2|0:2,0:0:0:0:
460,62,32813,6,0,P|468:89|463:135,1,60,2|0,3:2|0:0,0:0:0:0:
420,191,33063,2,0,P|411:218|416:264,1,60,10|8,0:2|0:2,0:0:0:0:
419,332,33313,2,0,L|359:337,1,60,0|0,3:2|0:0,0:0:0:0:
301,274,33563,2,0,L|241:269,1,60,10|8,0:2|0:2,0:0:0:0:
163,303,33813,6,0,B|128:271|128:271|139:180,1,120,0|10,3:2|0:2,0:0:0:0:
113,122,34188,1,8,0:2:0:0:
113,122,34313,2,0,P|151:110|185:114,1,60,2|8,3:2|0:2,0:0:0:0:
238,159,34563,2,0,P|267:158|296:148,1,60,10|10,0:2|0:2,0:0:0:0:
378,130,34813,6,0,L|374:210,1,60,0|0,3:2|0:0,0:0:0:0:
313,247,35063,2,0,L|316:327,1,60,8|8,0:2|0:2,0:0:0:0:
243,351,35313,2,0,P|213:351|184:359,1,60,0|0,3:2|0:0,0:0:0:0:
141,287,35563,2,0,P|111:287|82:279,1,60,8|8,0:2|0:2,0:0:0:0:
71,195,35813,6,0,P|33:163|47:85,1,120,2|10,3:2|0:2,0:0:0:0:
92,34,36188,1,8,0:2:0:0:
92,34,36313,2,0,L|168:39,1,60,2|8,3:2|0:2,0:0:0:0:
206,101,36563,2,0,L|265:96,1,60,10|10,0:2|0:2,0:0:0:0:
137,147,36813,6,0,P|159:189|146:261,1,120,6|2,3:2|0:2,0:0:0:0:
82,311,37188,1,0,0:0:0:0:
82,311,37313,2,0,P|65:272|65:234,2,60,10|0|0,0:2|0:0|0:0,0:0:0:0:
163,347,37688,1,8,0:2:0:0:
163,347,37813,2,0,L|240:350,1,60,2|0,3:2|0:0,0:0:0:0:
306,354,38063,1,2,3:2:0:0:
306,354,38313,2,0,P|297:313|304:273,1,60,10|0,0:2|0:0,0:0:0:0:
367,246,38563,2,0,P|370:209|362:174,1,60,0|0,0:0|0:0,0:0:0:0:
309,124,38813,6,0,P|345:105|384:109,2,60,2|0|2,3:2|0:0|0:2,0:0:0:0:
253,188,39188,1,0,0:0:0:0:
253,188,39313,2,0,P|216:206|177:202,2,60,10|0|0,0:2|0:0|0:0,0:0:0:0:
197,130,39688,1,8,0:2:0:0:
197,130,39813,2,0,P|160:111|121:115,1,60,2|0,3:2|0:0,0:0:0:0:
65,146,40063,2,0,L|69:227,1,60,2|0,3:2|0:0,0:0:0:0:
130,262,40313,2,0,L|125:343,1,60,10|0,0:2|0:0,0:0:0:0:
203,368,40563,1,10,0:2:0:0:
203,368,40688,1,8,0:2:0:0:
203,368,40813,6,0,P|235:331|314:336,1,120,6|2,3:2|0:2,0:0:0:0:
390,331,41188,1,0,0:0:0:0:
390,331,41313,2,0,P|402:284|397:250,1,60,10|0,0:2|0:0,0:0:0:0:
342,214,41563,2,0,P|340:177|352:144,1,60,0|8,0:0|0:2,0:0:0:0:
374,75,41813,2,0,P|333:111|259:90,1,120,2|2,3:2|3:2,0:0:0:0:
218,45,42188,1,0,0:0:0:0:
218,45,42313,2,0,P|180:34|145:40,1,60,10|0,0:2|0:0,0:0:0:0:
85,76,42563,2,0,L|89:148,1,60,0|0,0:0|0:0,0:0:0:0:
93,219,42813,6,0,B|142:225|142:225|159:241|159:241|219:247,1,120,2|0,3:2|0:0,0:0:0:0:
353,328,43313,2,0,P|361:292|357:253,1,60,10|0,0:2|0:0,0:0:0:0:
435,229,43563,2,0,P|426:193|430:154,1,60,2|8,0:2|0:2,0:0:0:0:
428,85,43813,2,0,B|395:59|395:59|299:70,1,120,0|0,3:2|3:2,0:0:0:0:
317,68,44313,2,0,P|305:105|307:147,1,60,10|0,0:2|0:0,0:0:0:0:
228,164,44563,2,0,P|239:201|237:243,1,60,10|8,0:2|0:2,0:0:0:0:
188,358,44813,6,0,L|320:351,1,120,6|10,3:2|0:2,0:0:0:0:
378,307,45188,2,0,B|345:274|345:274|352:185,1,120,2|2,3:2|3:2,0:0:0:0:
290,140,45563,2,0,P|318:120|360:114,1,60,10|2,0:2|0:2,0:0:0:0:
403,54,45813,6,0,P|441:61|485:129,1,120,2|10,3:2|0:2,0:0:0:0:
461,204,46188,2,0,L|467:332,1,120,2|2,3:2|3:2,0:0:0:0:
385,345,46563,2,0,L|378:276,1,60,10|0,0:2|0:0,0:0:0:0:
319,226,46813,6,0,P|289:226|260:235,1,60,6|0,3:2|0:0,0:0:0:0:
225,149,47063,2,0,P|254:155|284:153,1,60,10|0,0:2|3:2,0:0:0:0:
320,66,47313,2,0,P|290:66|261:75,1,60,10|0,0:2|3:2,0:0:0:0:
181,79,47563,1,10,0:2:0:0:
181,79,47688,1,0,3:2:0:0:
130,11,47813,5,6,3:2:0:0:
388,141,48813,6,0,P|360:104|270:111,1,143.999995605469,6|10,3:2|0:2,0:0:0:0:
201,146,49188,1,0,0:0:0:0:
201,146,49313,2,0,P|210:180|208:221,1,71.9999978027344,2|0,3:2|3:2,0:0:0:0:
276,259,49563,2,0,P|263:299|263:336,1,71.9999978027344,10|0,0:2|0:0,0:0:0:0:
329,371,49813,6,0,B|364:346|364:346|464:361,1,143.999995605469,2|10,3:2|0:2,0:0:0:0:
460,282,50188,2,0,P|431:241|463:154,1,143.999995605469,2|2,0:2|3:2,0:0:0:0:
457,78,50563,2,0,L|377:81,1,71.9999978027344,10|0,0:2|0:0,0:0:0:0:
336,143,50813,6,0,P|295:102|207:112,1,143.999995605469,2|10,3:2|0:2,0:0:0:0:
157,164,51188,2,0,L|165:246,1,71.9999978027344,2|0,0:2|3:2,0:0:0:0:
78,184,51438,2,0,L|86:266,1,71.9999978027344,2|8,3:2|0:2,0:0:0:0:
108,335,51688,1,2,0:2:0:0:
108,335,51813,6,0,P|142:305|242:324,1,143.999995605469,0|8,3:2|0:2,0:0:0:0:
362,342,52313,2,0,L|369:257,1,71.9999978027344,2|2,3:2|3:2,0:0:0:0:
436,233,52563,2,0,L|428:148,1,71.9999978027344,10|0,0:2|0:0,0:0:0:0:
409,84,52813,6,0,B|356:77|356:77|334:92|334:92|266:86,1,143.999995605469,6|10,3:2|0:2,0:0:0:0:
194,81,53188,1,2,0:2:0:0:
194,81,53313,2,0,P|223:109|208:212,1,143.999995605469,2|10,3:2|0:2,0:0:0:0:
47,249,53813,6,0,B|85:220|85:220|182:236,1,143.999995605469,2|10,3:2|0:2,0:0:0:0:
237,291,54188,2,0,P|210:247|241:160,1,143.999995605469,2|2,0:2|3:2,0:0:0:0:
314,149,54563,2,0,P|318:110|307:69,1,71.9999978027344,10|2,0:2|0:2,0:0:0:0:
180,17,54813,6,0,L|35:22,1,143.999995605469,6|10,3:2|0:2,0:0:0:0:
51,103,55188,1,0,3:2:0:0:
51,103,55313,2,0,L|219:96,1,143.999995605469,10|10,0:2|0:2,0:0:0:0:
277,100,55688,1,0,3:2:0:0:
277,100,55813,2,0,P|241:118|247:219,1,143.999995605469,10|8,0:2|0:2,0:0:0:0:
271,288,56188,1,0,3:2:0:0:
271,288,56313,2,0,L|186:297,1,71.9999978027344,10|8,0:2|3:2,0:0:0:0:
152,359,56563,2,0,L|67:368,1,71.9999978027344,10|10,3:2|3:2,0:0:0:0:
43,296,56813,6,0,B|78:258|78:258|62:137,1,143.999995605469,6|10,3:2|0:2,0:0:0:0:
198,106,57313,2,0,B|163:138|163:138|176:256,1,143.999995605469,2|10,3:2|0:2,0:0:0:0:
197,314,57688,1,0,0:0:0:0:
197,314,57813,6,0,P|212:281|312:267,1,143.999995605469,2|10,3:2|0:2,0:0:0:0:
363,323,58188,2,0,P|348:278|416:206,1,143.999995605469,2|2,0:2|3:2,0:0:0:0:
468,163,58563,2,0,P|478:115|466:77,1,71.9999978027344,10|2,0:2|0:2,0:0:0:0:
401,59,58813,6,0,B|374:81|374:81|263:71,1,143.999995605469,2|10,3:2|0:2,0:0:0:0:
192,40,59188,2,0,P|174:75|174:110,1,71.9999978027344,2|0,0:2|3:2,0:0:0:0:
242,158,59438,2,0,P|258:193|258:228,1,71.9999978027344,2|10,3:2|0:2,0:0:0:0:
220,296,59688,1,2,0:2:0:0:
220,296,59813,6,0,B|261:261|261:261|365:276,1,143.999995605469,0|10,3:2|0:2,0:0:0:0:
432,292,60188,1,2,0:2:0:0:
432,292,60313,2,0,L|437:214,1,71.9999978027344,10|10,3:2|3:2,0:0:0:0:
500,173,60563,2,0,L|494:95,1,71.9999978027344,10|10,3:2|3:2,0:0:0:0:
441,48,60813,5,10,3:2:0:0:
441,48,60938,1,10,3:2:0:0:
256,128,61813,5,10,3:2:0:0:
256,128,61938,1,8,3:2:0:0:
256,128,62813,6,0,L|131:120,1,120,6|2,3:2|0:2,0:0:0:0:
256,204,63313,2,0,L|117:195,1,120,2|2,3:2|0:2,0:0:0:0:
256,283,63813,2,0,L|117:274,2,120,2|2|2,3:2|0:2|3:2,0:0:0:0:
256,283,64563,1,2,0:2:0:0:
309,189,64813,6,0,B|329:156|329:156|313:59,1,120,2|0,3:2|0:0,0:0:0:0:
202,189,65313,2,0,B|182:156|182:156|198:59,1,120,2|0,3:2|0:0,0:0:0:0:
256,16,65688,1,2,0:2:0:0:
256,16,65813,1,6,3:2:0:0:
186,137,66813,6,0,B|209:173|209:173|306:168,1,120,6|8,3:2|0:2,0:0:0:0:
367,149,67188,2,0,P|333:179|347:264,1,120,0|0,3:2|3:2,0:0:0:0:
357,330,67563,2,0,L|278:337,1,60,8|0,0:2|0:0,0:0:0:0:
234,278,67813,2,0,L|104:289,1,120,2|8,3:2|0:2,0:0:0:0:
55,228,68188,2,0,P|72:185|34:105,1,120,0|0,3:2|3:2,0:0:0:0:
110,59,68563,2,0,P|133:89|145:134,1,60,8|0,0:2|0:0,0:0:0:0:
150,192,68813,6,0,P|167:151|248:143,1,120,2|8,3:2|0:2,0:0:0:0:
312,174,69188,2,0,B|281:142|281:142|290:48,1,120,0|0,3:2|3:2,0:0:0:0:
372,52,69563,2,0,L|362:138,1,60,8|0,0:2|0:0,0:0:0:0:
429,165,69813,2,0,L|435:225,1,60,2|0,3:2|0:0,0:0:0:0:
485,298,70063,1,8,0:2:0:0:
485,298,70188,2,0,P|441:315|363:272,1,120,0|0,3:2|3:2,0:0:0:0:
308,238,70563,1,8,0:2:0:0:
308,238,70813,6,0,P|296:202|306:154,1,60,6|0,3:2|0:0,0:0:0:0:
366,131,71063,2,0,P|377:95|367:47,1,60,8|0,0:2|3:2,0:0:0:0:
305,27,71313,2,0,L|218:35,1,60,0|0,0:0|3:2,0:0:0:0:
187,93,71563,2,0,L|100:84,1,60,8|0,0:2|0:0,0:0:0:0:
119,171,71813,6,0,L|191:177,1,60,2|0,3:2|0:0,0:0:0:0:
214,253,72063,2,0,L|286:245,1,60,8|0,0:2|3:2,0:0:0:0:
361,245,72313,1,0,0:0:0:0:
361,245,72438,1,0,3:2:0:0:
398,170,72563,2,0,P|408:129|401:88,1,60,8|0,0:2|0:0,0:0:0:0:
301,174,72813,6,0,L|217:181,1,60,6|0,3:2|0:0,0:0:0:0:
205,102,73063,2,0,L|121:94,1,60,10|0,0:2|3:2,0:0:0:0:
66,126,73313,2,0,L|71:203,1,60,10|0,0:2|3:2,0:0:0:0:
148,227,73563,1,10,0:2:0:0:
148,227,73688,1,2,3:2:0:0:
110,302,73813,5,2,3:2:0:0:
367,297,74813,6,0,P|386:260|354:176,1,120,6|2,3:2|0:2,0:0:0:0:
256,84,75313,2,0,P|236:121|268:206,1,120,10|2,0:2|0:2,0:0:0:0:
172,307,75813,2,0,B|141:276|141:276|46:292,2,120,2|2|10,3:2|3:2|0:2,0:0:0:0:
235,370,76438,1,0,0:0:0:0:
235,370,76563,2,0,L|298:359,1,60,2|0,0:2|0:0,0:0:0:0:
378,369,76813,6,0,P|349:350|344:260,1,120,2|2,3:2|0:2,0:0:0:0:
353,106,77313,2,0,P|381:124|386:214,1,120,10|2,0:2|0:2,0:0:0:0:
338,270,77688,1,8,0:2:0:0:
338,270,77813,2,0,B|290:263|290:263|264:276|264:276|207:268,1,120,2|2,3:2|3:2,0:0:0:0:
83,167,78313,2,0,B|114:197|114:197|103:289,1,120,8|10,0:2|0:2,0:0:0:0:
66,350,78688,1,10,0:2:0:0:
66,350,78813,6,0,P|104:359|142:349,1,60,6|0,3:2|0:0,0:0:0:0:
186,299,79063,2,0,P|217:295|246:304,1,60,2|0,0:2|0:0,0:0:0:0:
320,338,79313,2,0,B|287:303|287:303|297:208,1,120,10|2,0:2|0:2,0:0:0:0:
357,175,79688,1,2,0:2:0:0:
357,175,79813,2,0,B|389:140|389:140|379:45,2,120,2|2|8,3:2|3:2|0:2,0:0:0:0:
357,175,80563,2,0,L|285:166,1,60,2|2,0:2|0:2,0:0:0:0:
216,192,80813,6,0,L|144:183,2,60,2|0|2,3:2|0:0|0:0,0:0:0:0:
282,251,81188,1,0,0:0:0:0:
282,251,81313,2,0,L|344:257,2,60,10|2|2,0:2|0:2|0:2,0:0:0:0:
203,276,81688,1,8,0:2:0:0:
203,276,81813,2,0,L|140:269,1,60,2|2,3:2|0:2,0:0:0:0:
59,270,82063,2,0,P|69:228|68:198,1,60,2|0,3:2|0:0,0:0:0:0:
134,156,82313,2,0,P|120:103|134:23,1,120,10|8,0:2|0:2,0:0:0:0:
215,28,82688,1,8,0:2:0:0:
215,28,82813,6,0,L|352:35,2,120,6|2|10,3:2|0:2|0:2,0:0:0:0:
52,65,83563,1,2,0:2:0:0:
207,123,83813,2,0,L|344:130,2,120,2|2|10,3:2|3:2|0:2,0:0:0:0:
57,144,84563,1,2,0:2:0:0:
57,144,84688,1,0,0:0:0:0:
57,144,84813,6,0,P|76:182|63:268,1,120,2|2,3:2|0:2,0:0:0:0:
198,307,85313,2,0,P|179:268|192:182,1,120,10|2,0:2|0:2,0:0:0:0:
215,117,85688,1,8,0:2:0:0:
265,183,85813,2,0,L|402:190,2,120,2|2|10,3:2|3:2|0:2,0:0:0:0:
134,92,86563,1,10,0:2:0:0:
134,92,86688,1,8,0:2:0:0:
134,92,86813,6,0,P|115:54|30:40,1,120,4|0,3:2|0:0,0:0:0:0:
81,201,87313,2,0,P|100:239|185:252,1,120,10|2,0:2|0:2,0:0:0:0:
294,182,87813,2,0,B|271:212|271:212|279:304,2,120,2|2|10,3:2|3:2|0:2,0:0:0:0:
294,182,88813,6,0,P|245:181|205:117,1,120,0|0,3:2|0:0,0:0:0:0:
328,66,89313,2,0,P|377:67|417:131,1,120,0|0,0:0|0:0,0:0:0:0:
397,205,89688,1,8,0:2:0:0:
463,256,89813,6,0,B|425:289|425:289|442:386,2,120,2|2|10,3:2|3:2|0:2,0:0:0:0:
301,259,90563,1,10,0:2:0:0:
301,259,90688,1,8,0:2:0:0:
301,259,90813,6,0,P|310:213|247:158,1,120,6|8,3:2|0:2,0:0:0:0:
221,94,91188,1,8,0:2:0:0:
221,94,91313,2,0,L|139:99,1,60,2|0,3:2|0:0,0:0:0:0:
103,159,91563,2,0,L|21:153,1,60,10|8,0:2|0:2,0:0:0:0:
44,238,91813,6,0,B|66:267|66:267|50:371,1,120,0|8,3:2|0:2,0:0:0:0:
135,370,92188,1,8,0:2:0:0:
135,370,92313,2,0,L|211:367,1,60,0|10,3:2|0:2,0:0:0:0:
248,302,92563,2,0,L|324:304,1,60,10|10,0:2|0:2,0:0:0:0:
391,304,92813,6,0,P|387:267|392:230,1,60,2|0,3:2|0:0,0:0:0:0:
450,185,93063,2,0,P|453:148|448:111,1,60,10|8,0:2|0:2,0:0:0:0:
396,60,93313,2,0,L|328:65,1,60,2|0,3:2|0:0,0:0:0:0:
267,113,93563,2,0,L|199:107,1,60,10|8,0:2|0:2,0:0:0:0:
133,68,93813,6,0,P|162:92|157:185,1,120,0|8,3:2|0:2,0:0:0:0:
94,206,94188,1,8,0:2:0:0:
94,206,94313,2,0,P|82:246|87:284,1,60,2|8,3:2|0:2,0:0:0:0:
123,338,94563,2,0,L|196:343,1,60,10|8,0:2|0:2,0:0:0:0:
243,283,94813,6,0,L|316:288,1,60,2|0,3:2|0:0,0:0:0:0:
358,351,95063,2,0,L|431:345,1,60,10|8,0:2|0:2,0:0:0:0:
472,281,95313,2,0,P|461:244|460:213,1,60,0|0,3:2|0:0,0:0:0:0:
392,171,95563,2,0,P|401:133|415:106,1,60,10|8,0:2|0:2,0:0:0:0:
472,57,95813,6,0,L|330:61,1,120,0|10,3:2|0:2,0:0:0:0:
290,118,96188,1,8,0:2:0:0:
290,118,96313,2,0,L|219:119,1,60,2|8,3:2|0:2,0:0:0:0:
191,44,96563,2,0,L|120:45,1,60,10|10,0:2|0:2,0:0:0:0:
47,45,96813,6,0,B|87:70|87:70|77:170,1,120,0|8,3:2|0:2,0:0:0:0:
32,213,97188,1,8,0:2:0:0:
32,213,97313,2,0,P|22:248|24:283,1,60,0|0,3:2|0:0,0:0:0:0:
26,355,97563,2,0,L|95:350,1,60,8|8,0:2|0:2,0:0:0:0:
149,296,97813,6,0,L|281:303,1,120,2|10,3:2|0:2,0:0:0:0:
356,312,98188,1,10,0:2:0:0:
356,312,98313,2,0,P|366:282|363:247,1,60,2|8,3:2|0:2,0:0:0:0:
441,216,98563,2,0,P|430:186|433:151,1,60,10|8,0:2|0:2,0:0:0:0:
379,91,98813,6,0,L|308:85,2,60,6|0|2,3:2|0:0|0:2,0:0:0:0:
431,158,99188,1,0,0:0:0:0:
347,167,99313,2,0,L|276:161,1,60,10|0,0:2|0:0,0:0:0:0:
233,98,99563,2,0,L|162:92,1,60,2|8,0:2|0:2,0:0:0:0:
90,105,99813,6,0,L|85:34,2,60,2|0|2,3:2|0:0|3:2,0:0:0:0:
60,240,100313,2,0,L|133:234,1,60,10|2,0:2|0:2,0:0:0:0:
170,168,100563,2,0,L|243:173,1,60,2|0,0:2|0:0,0:0:0:0:
312,162,100813,6,0,P|311:122|320:89,2,60,2|0|2,3:2|0:0|0:2,0:0:0:0:
390,202,101188,1,0,0:0:0:0:
390,202,101313,2,0,P|408:166|433:143,2,60,10|2|2,0:2|0:2|0:2,0:0:0:0:
424,283,101688,1,8,0:2:0:0:
424,283,101813,6,0,P|457:262|490:253,1,60,2|0,3:2|0:0,0:0:0:0:
486,172,102063,2,0,P|480:126|484:99,1,60,2|0,3:2|0:0,0:0:0:0:
479,28,102313,2,0,P|465:60|370:66,1,120,10|10,0:2|0:2,0:0:0:0:
319,40,102688,1,8,0:2:0:0:
319,40,102813,6,0,P|257:36|221:86,1,120,4|2,3:2|0:2,0:0:0:0:
285,232,103313,2,0,P|253:231|222:240,1,60,10|0,0:2|0:0,0:0:0:0:
188,314,103563,2,0,P|155:314|124:304,1,60,2|10,0:2|0:2,0:0:0:0:
76,240,103813,6,0,P|82:201|80:163,1,60,2|0,3:2|0:0,0:0:0:0:
139,118,104063,2,0,P|125:81|103:48,1,60,2|2,3:2|0:2,0:0:0:0:
187,19,104313,2,0,P|230:33|323:36,1,120,10|2,0:2|0:2,0:0:0:0:
416,150,104813,6,0,P|352:151|291:168,1,120,2|0,3:2|0:0,0:0:0:0:
178,254,105313,2,0,P|208:197|223:135,1,120,10|2,0:2|0:2,0:0:0:0:
288,89,105688,1,8,0:2:0:0:
288,89,105813,6,0,P|284:48|273:18,1,60,0|0,3:2|0:0,0:0:0:0:
193,28,106063,2,0,P|154:33|119:30,1,60,0|0,3:2|0:0,0:0:0:0:
53,60,106313,2,0,P|61:89|63:122,1,60,10|0,0:2|0:0,0:0:0:0:
140,153,106563,2,0,P|130:182|128:215,1,60,10|8,0:2|0:2,0:0:0:0:
82,363,106813,6,0,B|119:334|119:334|209:350,1,120,6|10,3:2|0:2,0:0:0:0:
264,306,107188,2,0,P|243:267|264:184,1,120,2|2,3:2|3:2,0:0:0:0:
339,181,107563,2,0,P|347:146|340:107,1,60,10|2,0:2|0:2,0:0:0:0:
287,61,107813,6,0,L|419:72,1,120,2|10,3:2|0:2,0:0:0:0:
463,133,108188,2,0,B|430:163|430:163|440:253,1,120,2|2,3:2|3:2,0:0:0:0:
460,320,108563,2,0,P|424:334|388:333,1,60,10|0,0:2|0:0,0:0:0:0:
227,361,108813,6,0,L|229:290,1,60,6|0,3:2|0:0,0:0:0:0:
308,274,109063,2,0,L|310:203,1,60,10|0,0:2|3:2,0:0:0:0:
236,173,109313,2,0,L|238:102,1,60,10|0,0:2|3:2,0:0:0:0:
304,61,109563,1,10,0:2:0:0:
304,61,109688,1,0,3:2:0:0:
233,15,109813,5,6,3:2:0:0:
233,15,110813,6,0,P|278:42|371:23,1,143.999995605469,6|10,3:2|0:2,0:0:0:0:
447,26,111188,1,0,0:0:0:0:
447,26,111313,2,0,L|451:111,1,71.9999978027344,2|0,3:2|3:2,0:0:0:0:
387,145,111563,2,0,L|391:230,1,71.9999978027344,10|0,0:2|0:0,0:0:0:0:
421,289,111813,6,0,B|379:251|379:251|288:261,1,143.999995605469,2|10,3:2|0:2,0:0:0:0:
218,292,112188,2,0,P|249:249|237:159,1,143.999995605469,2|2,0:2|3:2,0:0:0:0:
163,140,112563,2,0,P|157:99|172:56,1,71.9999978027344,10|0,0:2|0:0,0:0:0:0:
236,34,112813,6,0,L|382:39,1,143.999995605469,2|10,3:2|0:2,0:0:0:0:
439,91,113188,2,0,P|429:132|425:184,1,71.9999978027344,2|0,0:2|3:2,0:0:0:0:
350,187,113438,2,0,P|362:227|384:271,1,71.9999978027344,2|10,3:2|0:2,0:0:0:0:
406,332,113688,1,2,0:2:0:0:
406,332,113813,6,0,L|255:321,1,143.999995605469,0|8,3:2|0:2,0:0:0:0:
143,350,114313,2,0,P|135:307|139:266,1,71.9999978027344,2|0,3:2|3:2,0:0:0:0:
62,250,114563,2,0,P|76:208|100:175,1,71.9999978027344,10|2,0:2|0:2,0:0:0:0:
164,155,114813,6,0,P|119:158|57:82,1,143.999995605469,6|10,3:2|0:2,0:0:0:0:
140,83,115188,1,2,0:2:0:0:
140,83,115313,2,0,L|222:75,1,71.9999978027344,2|0,3:2|3:2,0:0:0:0:
257,11,115563,2,0,L|339:18,1,71.9999978027344,10|0,0:2|0:0,0:0:0:0:
400,10,115813,6,0,B|362:33|362:33|374:131,1,143.999995605469,2|10,3:2|0:2,0:0:0:0:
414,200,116188,2,0,P|375:164|278:177,1,143.999995605469,2|2,0:2|3:2,0:0:0:0:
239,230,116563,2,0,L|243:310,1,71.9999978027344,10|2,0:2|0:2,0:0:0:0:
91,282,116813,6,0,L|81:123,1,143.999995605469,6|10,3:2|0:2,0:0:0:0:
148,90,117188,1,0,3:2:0:0:
148,90,117313,2,0,P|174:63|277:80,1,143.999995605469,10|10,0:2|0:2,0:0:0:0:
299,153,117688,1,0,3:2:0:0:
299,153,117813,2,0,P|326:179|429:160,1,143.999995605469,10|8,0:2|0:2,0:0:0:0:
501,138,118188,1,0,3:2:0:0:
501,138,118313,2,0,L|505:222,1,71.9999978027344,10|8,0:2|3:2,0:0:0:0:
445,263,118563,2,0,L|449:347,1,71.9999978027344,10|10,3:2|3:2,0:0:0:0:
374,363,118813,6,0,B|344:324|344:324|230:342,1,143.999995605469,6|10,3:2|0:2,0:0:0:0:
176,360,119188,1,0,0:0:0:0:
176,360,119313,2,0,P|207:310|190:225,1,143.999995605469,2|10,3:2|0:2,0:0:0:0:
203,105,119813,6,0,P|170:148|201:235,1,143.999995605469,2|10,3:2|0:2,0:0:0:0:
256,277,120188,2,0,L|409:266,1,143.999995605469,2|2,0:2|3:2,0:0:0:0:
425,192,120563,2,0,L|496:196,1,71.9999978027344,10|2,0:2|0:2,0:0:0:0:
503,117,120813,6,0,L|354:106,1,143.999995605469,2|10,3:2|0:2,0:0:0:0:
305,47,121188,2,0,P|265:34|222:40,1,71.9999978027344,2|0,0:2|3:2,0:0:0:0:
195,106,121438,1,2,3:2:0:0:
195,106,121563,2,0,P|154:114|121:141,1,71.9999978027344,10|2,0:2|0:2,0:0:0:0:
52,150,121813,6,0,P|72:193|21:280,1,143.999995605469,0|10,3:2|0:2,0:0:0:0:
19,355,122188,1,0,0:0:0:0:
19,355,122313,2,0,L|92:350,1,71.9999978027344,10|10,3:2|3:2,0:0:0:0:
141,289,122563,2,0,L|214:293,1,71.9999978027344,10|10,3:2|3:2,0:0:0:0:
296,299,122813,5,10,3:2:0:0:
296,299,122938,1,8,3:2:0:0:
256,48,123813,5,10,3:2:0:0:
256,48,123938,1,8,3:2:0:0:
91,152,124813,6,0,P|106:91|254:106,1,240,2|2,3:2|3:2,0:0:0:0:
354,234,125813,2,0,L|349:308,1,60,0|0,3:2|0:0,0:0:0:0:
280,229,126063,2,0,L|274:304,1,60,2|2,0:0|0:0,0:0:0:0:
205,225,126313,1,2,3:2:0:0:
205,225,126438,2,0,L|194:370,1,120,2|0,0:0|0:0,0:0:0:0:
113,336,126813,6,0,L|121:201,2,120,2|2|2,3:2|0:0|3:2,0:0:0:0:
33,199,127563,2,0,P|51:159|126:129,1,120,2|0,0:0|3:2,0:0:0:0:
277,69,128063,2,0,L|344:77,1,60,2|2,0:0|0:0,0:0:0:0:
330,160,128313,2,0,L|262:151,1,60,2|2,3:2|0:0,0:0:0:0:
265,236,128563,2,0,L|332:244,1,60,2|2,0:0|0:0,0:0:0:0:
327,328,128813,6,0,L|186:310,1,120,2|0,3:2|0:0,0:0:0:0:
126,336,129188,2,0,P|155:305|147:215,1,120,2|0,0:0|0:0,0:0:0:0:
150,144,129563,2,0,L|289:152,1,120,2|0,0:0|0:0,0:0:0:0:
386,125,130063,2,0,L|377:52,2,60,2|2|2,0:0|0:0|3:2,0:0:0:0:
461,173,130438,1,2,0:0:0:0:
461,173,130563,2,0,L|452:245,1,60,2|2,0:0|0:0,0:0:0:0:
382,276,130813,6,0,L|390:348,2,60,2|2|2,3:2|0:0|0:0,0:0:0:0:
321,224,131188,1,2,0:0:0:0:
321,224,131313,2,0,P|284:250|197:239,1,120,0|0,3:0|0:0,0:0:0:0:
166,87,131813,2,0,P|202:61|289:72,1,120,0|2,3:2|0:0,0:0:0:0:
358,98,132188,1,2,0:0:0:0:
358,98,132313,2,0,L|367:175,1,60,2|2,3:2|0:0,0:0:0:0:
446,180,132563,2,0,L|455:257,1,60,2|2,0:0|0:0,0:0:0:0:
384,288,132813,6,0,L|393:365,2,60,2|2|2,3:2|0:0|0:0,0:0:0:0:
300,284,133188,2,0,L|308:350,2,60,2|2|2,0:0|3:2|0:0,0:0:0:0:
215,278,133563,2,0,L|223:344,1,60,2|2,0:0|0:0,0:0:0:0:
137,339,133813,2,0,L|118:196,1,120,2|2,3:2|0:0,0:0:0:0:
256,48,134313,2,0,L|238:181,1,120,2|2,3:2|0:0,0:0:0:0:
418,126,134813,6,0,L|409:192,2,60,0|2|2,3:2|0:0|0:0,0:0:0:0:
332,118,135188,2,0,L|323:184,2,60,0|2|2,0:0|3:2|0:0,0:0:0:0:
248,108,135563,2,0,L|239:174,1,60,2|2,0:0|0:0,0:0:0:0:
164,98,135813,2,0,L|146:231,1,120,2|2,3:2|0:0,0:0:0:0:
58,352,136313,1,2,3:2:0:0:
58,352,136438,2,0,L|40:218,1,120,2|0,0:0|0:0,0:0:0:0:
40,144,136813,6,0,P|60:104|150:96,1,120,6|2,3:2|0:0,0:0:0:0:
195,147,137188,1,0,0:0:0:0:
195,147,137313,2,0,P|214:186|305:194,1,120,2|2,3:2|0:0,0:0:0:0:
440,127,137813,2,0,P|420:87|329:79,1,120,2|0,3:2|0:0,0:0:0:0:
256,282,138313,2,0,P|320:282|358:228,1,120,0|2,3:2|0:0,0:0:0:0:
174,198,138813,6,0,L|168:327,1,120,2|2,3:2|0:0,0:0:0:0:
87,327,139188,1,0,0:0:0:0:
87,327,139313,2,0,L|92:192,1,120,2|0,3:2|0:0,0:0:0:0:
170,40,139813,2,0,P|127:60|37:43,2,120,2|2|2,3:2|0:0|3:2,0:0:0:0:
318,36,140563,1,2,0:0:0:0:
318,36,140813,6,0,B|287:66|287:66|296:162,1,120,2|0,3:2|0:0,0:0:0:0:
188,189,141313,2,0,B|215:162|215:162|207:78,1,120,0|2,3:2|0:0,0:0:0:0:
158,20,141688,1,2,0:0:0:0:
158,20,141813,2,0,B|127:49|127:49|135:142,1,120,0|0,3:0|0:0,0:0:0:0:
142,322,142313,2,0,L|136:244,1,60,2|2,3:2|0:0,0:0:0:0:
221,261,142563,2,0,L|226:327,1,60,2|2,0:0|0:0,0:0:0:0:
309,315,142813,6,0,L|303:248,1,60,6|0,3:2|0:0,0:0:0:0:
384,231,143063,2,0,L|345:175,1,60,2|0,3:2|0:0,0:0:0:0:
397,112,143313,2,0,L|335:82,1,60,2|0,3:2|0:0,0:0:0:0:
358,6,143563,1,2,3:2:0:0:
358,6,143688,1,0,0:0:0:0:
277,30,143813,5,6,3:2:0:0:
277,30,144813,5,0,3:0:0:0:
168,35,145313,1,0,3:0:0:0:
173,144,145813,1,0,3:0:0:0:
282,139,146313,1,0,3:0:0:0:
267,21,146813,5,0,3:0:0:0:
158,26,147313,1,0,3:0:0:0:
163,135,147813,1,0,3:0:0:0:
272,130,148313,1,0,1:2:0:0:
260,13,148813,6,0,L|180:7,1,60,2|0,3:2|0:0,0:0:0:0:
125,46,149063,2,0,B|158:71|158:71|142:168,1,120,0|0,0:0|1:2,0:0:0:0:
61,151,149438,2,0,B|27:176|27:176|43:273,1,120,0|0,0:0|0:0,0:0:0:0:
55,336,149813,2,0,P|84:336|122:310,1,60,2|0,3:2|0:0,0:0:0:0:
181,370,150063,2,0,P|206:354|227:313,1,60,0|0,0:0|0:0,0:0:0:0:
307,337,150313,2,0,P|321:311|319:265,1,60,0|0,1:2|0:0,0:0:0:0:
402,252,150563,2,0,P|402:221|376:183,1,60,0|0,0:0|0:0,0:0:0:0:
356,117,150813,6,0,P|398:112|437:126,2,60,2|0|0,3:2|0:0|0:0,0:0:0:0:
290,168,151188,1,0,0:0:0:0:
290,168,151313,2,0,P|248:173|209:159,2,60,0|0|0,1:2|0:0|0:0,0:0:0:0:
356,117,151688,1,0,0:0:0:0:
356,117,151813,2,0,P|373:150|374:188,1,60,2|0,3:2|0:0,0:0:0:0:
326,240,152063,2,0,P|325:277|307:310,1,60,0|0,0:0|0:0,0:0:0:0:
234,319,152313,2,0,P|215:351|183:370,1,60,2|0,1:2|0:0,0:0:0:0:
116,341,152563,2,0,P|83:358|46:359,1,60,2|0,0:2|0:0,0:0:0:0:
24,283,152813,5,6,3:2:0:0:
29,148,153313,1,0,3:0:0:0:
159,288,153813,1,0,3:0:0:0:
164,153,154313,1,0,3:0:0:0:
33,272,154813,5,0,3:0:0:0:
38,137,155313,1,0,3:0:0:0:
168,277,155813,1,0,3:0:0:0:
173,142,156313,1,2,3:2:0:0:
42,261,156813,6,0,P|77:235|160:246,1,120,6|0,3:2|0:0,0:0:0:0:
340,302,157313,2,0,L|347:221,1,60,0|0,3:2|0:0,0:0:0:0:
422,208,157563,2,0,L|415:127,1,60,0|0,0:0|0:0,0:0:0:0:
352,92,157813,2,0,L|359:11,2,60,2|0|0,3:2|0:0|0:0,0:0:0:0:
265,111,158188,1,0,0:0:0:0:
265,111,158813,6,0,L|178:106,1,60,6|0,3:2|0:0,0:0:0:0:
200,192,159063,2,0,L|274:196,1,60,2|0,3:2|3:2,0:0:0:0:
257,279,159313,2,0,L|183:275,1,60,0|0,3:2|3:2,0:0:0:0:
189,362,159563,1,0,3:2:0:0:
189,362,159688,1,0,3:2:0:0:
272,367,159813,5,4,3:2:0:0:
393,139,160813,6,0,P|376:106|277:77,1,143.999995605469,6|10,3:2|0:2,0:0:0:0:
218,124,161188,1,0,0:0:0:0:
218,124,161313,2,0,L|224:206,1,71.9999978027344,2|0,3:2|3:2,0:0:0:0:
299,215,161563,2,0,L|292:297,1,71.9999978027344,10|0,0:2|0:0,0:0:0:0:
273,364,161813,6,0,P|236:347|188:350,1,71.9999978027344,2|0,3:2|0:0,0:0:0:0:
177,276,162063,1,10,0:2:0:0:
177,276,162188,2,0,P|137:279|92:311,1,71.9999978027344,2|0,0:2|3:2,0:0:0:0:
34,282,162438,1,2,3:2:0:0:
34,282,162563,2,0,P|41:247|32:195,1,71.9999978027344,10|0,0:2|0:0,0:0:0:0:
25,132,162813,6,0,P|65:129|125:46,1,143.999995605469,2|10,3:2|0:2,0:0:0:0:
203,39,163188,2,0,L|207:114,1,71.9999978027344,2|0,0:2|3:2,0:0:0:0:
285,139,163438,1,2,3:2:0:0:
285,139,163563,2,0,L|280:214,1,71.9999978027344,10|2,0:2|0:2,0:0:0:0:
249,283,163813,6,0,B|281:252|281:252|396:267,1,143.999995605469,0|8,3:2|0:2,0:0:0:0:
452,123,164313,2,0,L|370:112,1,71.9999978027344,2|0,3:2|3:2,0:0:0:0:
345,41,164563,2,0,L|263:50,1,71.9999978027344,10|2,0:2|0:2,0:0:0:0:
199,79,164813,6,0,P|199:36|186:1,2,71.9999978027344,6|0|10,3:2|0:0|0:2,0:0:0:0:
139,131,165188,1,2,0:0:0:0:
139,131,165313,2,0,P|179:126|242:210,1,143.999995605469,2|10,3:2|0:2,0:0:0:0:
260,279,165688,1,2,0:2:0:0:
260,279,165813,6,0,P|219:283|162:193,1,143.999995605469,2|10,3:2|0:2,0:0:0:0:
80,202,166188,2,0,L|76:350,1,143.999995605469,2|2,0:2|3:2,0:0:0:0:
149,377,166563,2,0,P|185:371|240:383,1,71.9999978027344,10|2,0:2|0:2,0:0:0:0:
337,306,166813,6,0,B|370:270|370:270|355:171,1,143.999995605469,6|10,3:2|0:2,0:0:0:0:
280,189,167188,1,0,3:2:0:0:
280,189,167313,2,0,B|244:152|244:152|260:49,1,143.999995605469,14|10,0:2|0:2,0:0:0:0:
330,23,167688,1,0,3:2:0:0:
330,23,167813,2,0,P|298:41|207:-8,1,143.999995605469,14|8,0:2|0:2,0:0:0:0:
133,6,168188,1,0,3:2:0:0:
133,6,168313,2,0,L|139:79,1,71.9999978027344,10|8,0:2|3:2,0:0:0:0:
61,93,168563,2,0,L|68:167,1,71.9999978027344,10|10,3:2|3:2,0:0:0:0:
68,244,168813,6,0,P|97:214|195:224,1,143.999995605469,6|10,3:2|0:2,0:0:0:0:
226,298,169188,1,0,0:0:0:0:
226,298,169313,2,0,P|268:342|351:320,1,143.999995605469,2|10,3:2|0:2,0:0:0:0:
437,236,169813,6,0,P|424:192|489:119,1,143.999995605469,2|10,3:2|0:2,0:0:0:0:
476,44,170188,1,2,0:2:0:0:
476,44,170313,2,0,L|393:47,1,71.9999978027344,2|2,3:2|3:2,0:0:0:0:
355,109,170563,2,0,L|277:104,1,71.9999978027344,10|2,0:2|0:2,0:0:0:0:
206,82,170813,6,0,B|247:121|247:121|234:233,1,143.999995605469,2|10,3:2|0:2,0:0:0:0:
158,202,171188,2,0,B|120:236|120:236|132:333,1,143.999995605469,2|2,0:2|3:2,0:0:0:0:
185,384,171563,2,0,P|234:373|274:383,1,71.9999978027344,10|2,0:2|0:2,0:0:0:0:
334,374,171813,6,0,P|357:347|350:241,1,143.999995605469,0|10,3:2|0:2,0:0:0:0:
283,216,172188,1,2,0:2:0:0:
283,216,172313,2,0,P|275:179|286:140,1,71.9999978027344,10|10,3:2|3:2,0:0:0:0:
298,68,172563,2,0,L|226:73,1,71.9999978027344,10|10,3:2|3:2,0:0:0:0:
143,80,172813,5,10,3:2:0:0:
143,80,172938,1,10,3:2:0:0:
320,192,173813,5,10,3:2:0:0:
320,192,173938,1,8,3:2:0:0:
256,275,176813,6,0,P|224:241|127:257,1,143.999995605469,4|8,3:2|0:2,0:0:0:0:
58,262,177188,1,0,0:0:0:0:
58,262,177313,2,0,P|50:223|57:177,1,71.9999978027344,0|0,3:2|3:2,0:0:0:0:
123,156,177563,2,0,P|130:117|123:74,1,71.9999978027344,10|0,0:2|0:0,0:0:0:0:
70,28,177813,6,0,L|218:40,1,143.999995605469,2|10,3:2|0:2,0:0:0:0:
294,58,178188,1,0,0:0:0:0:
294,58,178313,2,0,P|283:97|287:140,1,71.9999978027344,2|0,3:2|3:2,0:0:0:0:
208,149,178563,2,0,P|218:187|241:220,1,71.9999978027344,10|0,0:2|0:0,0:0:0:0:
201,286,178813,6,0,P|229:314|339:323,1,143.999995605469,2|10,3:2|0:2,0:0:0:0:
397,285,179188,1,0,0:0:0:0:
397,285,179313,2,0,P|413:243|409:203,1,71.9999978027344,2|0,3:2|3:2,0:0:0:0:
335,196,179563,2,0,P|323:141|350:52,1,143.999995605469,10|0,0:2|3:2,0:0:0:0:
281,19,179938,5,0,0:0:0:0:
281,19,180063,2,0,L|138:26,1,143.999995605469,8|10,0:2|3:2,0:0:0:0:
61,31,180438,1,8,3:2:0:0:
61,31,180563,2,0,P|56:69|61:113,1,71.9999978027344,10|10,3:2|3:2,0:0:0:0:
81,183,180813,5,10,3:2:0:0:
81,183,180938,1,8,3:2:0:0:
208,80,181813,5,10,3:2:0:0:
208,80,181938,1,8,3:2:0:0:
31,232,183313,6,0,B|12:195|12:195|30:93,1,120,6|2,3:2|0:2,0:0:0:0:
112,220,183813,2,0,B|94:185|94:185|111:90,1,120,2|2,3:2|0:2,0:0:0:0:
193,208,184313,2,0,B|176:175|176:175|192:84,2,120,2|2|2,3:2|0:2|3:2,0:0:0:0:
256,320,185063,1,2,0:2:0:0:
319,208,185313,2,0,B|335:174|335:174|319:81,1,120,2|0,3:2|0:0,0:0:0:0:
193,208,185813,2,0,B|176:174|176:174|192:81,1,120,2|0,3:2|0:0,0:0:0:0:
256,16,186188,1,2,0:2:0:0:
256,16,186313,5,6,3:2:0:0:
482,37,186563,2,0,L|423:33,1,60,2|0,0:2|0:0,0:0:0:0:
406,115,186813,2,0,L|465:119,1,60,2|2,0:2|0:2,0:0:0:0:
453,203,187063,2,0,L|393:198,1,60,2|2,0:2|0:2,0:0:0:0:
218,146,187313,6,0,P|280:172|283:240,1,143.999995605469,6|10,3:2|0:2,0:0:0:0:
282,325,187688,1,2,0:2:0:0:
282,325,187813,2,0,L|134:317,1,143.999995605469,2|10,3:2|0:2,0:0:0:0:
62,317,188188,1,0,3:2:0:0:
62,317,188313,6,0,P|54:274|64:238,1,71.9999978027344,6|0,3:2|0:0,0:0:0:0:
131,208,188563,1,10,0:2:0:0:
131,208,188688,2,0,P|138:165|127:128,1,71.9999978027344,2|0,3:2|0:0,0:0:0:0:
86,72,188938,1,2,3:2:0:0:
256,192,189188,12,2,193438,0:0:0:0:
