osu file format v14

[General]
AudioFilename: audio.mp3
AudioLeadIn: 0
PreviewTime: 159851
Countdown: 0
SampleSet: Normal
StackLeniency: 0.7
Mode: 1
LetterboxInBreaks: 0
WidescreenStoryboard: 1

[Editor]
Bookmarks: 194344
DistanceSpacing: 1.8
BeatDivisor: 4
GridSize: 16
TimelineZoom: 1.7

[Metadata]
Title:Anoyo-iki no Bus ni Notte Saraba.
TitleUnicode:あの世行きのバスに乗ってさらば。
Artist:TUYU
ArtistUnicode:ツユ
Creator:POCARI SWEAT
Version:Muzukashii.
Source:
Tags:japanese rock farewell on that bus tsuyu omotatsu pusu rei yappari ame wa ha furun da ne its it's raining after all やっぱり雨は降るんだね AzyuN おむたつ ぷす 礼衣 Sanjenin Nagi S.Nagi
BeatmapID:2527885
BeatmapSetID:1210752

[Difficulty]
HPDrainRate:6
CircleSize:5
OverallDifficulty:5
ApproachRate:5
SliderMultiplier:1.4
SliderTickRate:1

[Events]
//Background and Video events
0,0,"Evil Anime Girl.jpg",0,0
//Break Periods
//Storyboard Layer 0 (Background)
//Storyboard Layer 1 (Fail)
//Storyboard Layer 2 (Pass)
//Storyboard Layer 3 (Foreground)
//Storyboard Layer 4 (Overlay)
//Storyboard Sound Samples

[TimingPoints]
351,250,4,1,0,100,1,0
12351,-111.111111111111,4,1,0,100,0,0
28351,-100,4,1,0,100,0,0
36351,-111.111111111111,4,1,0,100,0,0
44601,-100,4,1,0,100,0,0
48351,-100,4,1,0,100,0,1
60351,-100,4,1,0,100,0,0
74351,-111.111111111111,4,1,0,100,0,0
90601,-100,4,1,0,100,0,0
98351,-111.111111111111,4,1,0,100,0,0
106351,-100,4,1,0,100,0,0
110351,-100,4,1,0,100,0,1
122351,-100,4,1,0,100,0,0
160351,-100,4,1,0,100,0,1
172351,-100,4,1,0,100,0,0
174351,-125,4,1,0,100,0,0
176351,-100,4,1,0,100,0,1
180351,-100,4,1,0,100,0,0
182351,250,4,1,0,100,1,8
182851,250,4,1,0,100,1,0
189851,-100,4,1,0,80,0,0
190851,-100,4,1,0,60,0,0
191851,-100,4,1,0,45,0,0
192851,-100,4,1,0,30,0,0

[HitObjects]
133,207,351,5,4,0:0:0:0:
265,167,851,1,0,0:0:0:0:
265,167,1351,1,0,0:0:0:0:
265,167,1851,1,0,0:0:0:0:
265,167,2351,1,0,0:0:0:0:
265,167,2851,1,0,0:0:0:0:
172,114,3351,1,8,0:0:0:0:
201,117,4351,1,4,0:0:0:0:
335,93,4601,1,8,0:0:0:0:
188,81,4851,1,0,0:0:0:0:
321,99,4976,1,0,0:0:0:0:
321,99,5101,1,8,0:0:0:0:
316,93,5351,1,0,0:0:0:0:
316,93,5601,1,8,0:0:0:0:
316,93,5726,1,0,0:0:0:0:
316,93,5976,1,0,0:0:0:0:
316,93,6101,1,8,0:0:0:0:
316,93,6351,1,0,0:0:0:0:
305,128,6601,1,8,0:0:0:0:
305,128,6726,1,0,0:0:0:0:
78,106,6851,1,0,0:0:0:0:
305,128,6976,1,0,0:0:0:0:
305,128,7101,1,8,0:0:0:0:
306,123,7351,1,8,0:0:0:0:
306,123,7476,1,8,0:0:0:0:
306,123,7601,1,0,0:0:0:0:
306,123,7726,1,8,0:0:0:0:
314,71,8351,1,8,0:0:0:0:
314,71,8601,1,8,0:0:0:0:
305,57,8851,1,0,0:0:0:0:
305,57,8976,1,0,0:0:0:0:
305,57,9101,1,8,0:0:0:0:
305,57,9351,1,0,0:0:0:0:
308,67,9601,1,8,0:0:0:0:
159,35,9726,1,0,0:0:0:0:
308,67,9851,1,0,0:0:0:0:
308,67,9976,1,0,0:0:0:0:
198,101,10101,1,8,0:0:0:0:
247,129,10351,1,0,0:0:0:0:
247,121,10601,1,8,0:0:0:0:
247,121,10726,1,0,0:0:0:0:
247,121,10851,1,8,0:0:0:0:
247,121,10976,1,0,0:0:0:0:
247,121,11101,1,8,0:0:0:0:
247,121,11226,1,8,0:0:0:0:
247,121,11288,1,8,0:0:0:0:
247,121,11351,1,8,0:0:0:0:
176,146,12351,1,4,0:0:0:0:
176,147,12851,1,8,0:0:0:0:
176,147,13351,1,0,0:0:0:0:
176,147,13601,1,0,0:0:0:0:
176,147,13851,1,8,0:0:0:0:
176,147,14351,1,0,0:0:0:0:
176,147,14851,1,8,0:0:0:0:
251,122,15226,1,8,0:0:0:0:
176,147,15351,1,0,0:0:0:0:
176,147,15601,1,0,0:0:0:0:
176,147,15851,1,8,0:0:0:0:
251,122,16101,1,8,0:0:0:0:
251,122,16226,1,8,0:0:0:0:
251,122,16351,1,4,0:0:0:0:
251,122,16851,1,8,0:0:0:0:
251,122,17351,1,0,0:0:0:0:
251,122,17601,1,0,0:0:0:0:
251,122,17851,1,8,0:0:0:0:
251,122,18351,1,0,0:0:0:0:
254,122,18851,1,8,0:0:0:0:
254,122,19226,1,8,0:0:0:0:
254,122,19351,1,0,0:0:0:0:
254,122,19601,1,0,0:0:0:0:
254,122,19851,1,8,0:0:0:0:
254,122,20101,1,8,0:0:0:0:
254,122,20226,1,8,0:0:0:0:
254,122,20351,1,4,0:0:0:0:
254,122,20851,1,8,0:0:0:0:
134,175,21101,1,8,0:0:0:0:
158,118,21351,1,0,0:0:0:0:
158,118,21601,1,0,0:0:0:0:
158,118,21851,1,8,0:0:0:0:
134,175,22351,1,0,0:0:0:0:
134,175,22601,1,0,0:0:0:0:
134,175,22851,1,8,0:0:0:0:
111,82,23351,1,0,0:0:0:0:
111,99,23601,1,0,0:0:0:0:
111,99,23851,1,8,0:0:0:0:
111,99,24101,1,8,0:0:0:0:
111,99,24226,1,8,0:0:0:0:
111,99,24351,1,4,0:0:0:0:
96,102,24851,1,8,0:0:0:0:
96,102,25351,1,0,0:0:0:0:
96,102,25601,1,0,0:0:0:0:
96,102,25851,1,8,0:0:0:0:
186,62,25976,1,8,0:0:0:0:
102,99,26226,1,8,0:0:0:0:
59,172,26351,1,4,0:0:0:0:
168,131,26851,1,8,0:0:0:0:
165,128,27226,1,8,0:0:0:0:
165,128,27351,1,0,0:0:0:0:
241,97,27601,1,0,0:0:0:0:
225,117,27851,1,8,0:0:0:0:
225,117,28101,1,8,0:0:0:0:
112,44,28351,1,4,0:0:0:0:
173,140,28601,1,8,0:0:0:0:
112,44,28851,1,0,0:0:0:0:
129,96,29101,1,8,0:0:0:0:
129,96,29226,1,8,0:0:0:0:
129,96,29351,1,0,0:0:0:0:
129,96,29601,1,8,0:0:0:0:
168,76,29851,1,0,0:0:0:0:
168,76,29976,1,0,0:0:0:0:
168,76,30101,1,8,0:0:0:0:
168,69,30351,1,0,0:0:0:0:
168,69,30601,1,8,0:0:0:0:
168,69,30851,1,0,0:0:0:0:
168,69,31101,1,8,0:0:0:0:
168,69,31226,1,8,0:0:0:0:
168,69,31351,1,0,0:0:0:0:
167,67,31601,1,8,0:0:0:0:
167,67,31851,1,0,0:0:0:0:
165,59,32101,1,8,0:0:0:0:
170,33,32351,1,0,0:0:0:0:
204,119,32851,1,0,0:0:0:0:
167,78,33101,1,8,0:0:0:0:
169,68,33226,1,8,0:0:0:0:
169,68,33351,1,0,0:0:0:0:
168,68,33601,1,8,0:0:0:0:
168,68,33851,1,0,0:0:0:0:
177,87,33976,1,0,0:0:0:0:
124,62,34101,1,8,0:0:0:0:
184,58,34351,1,0,0:0:0:0:
184,58,34601,1,8,0:0:0:0:
184,58,34726,1,8,0:0:0:0:
184,58,34851,1,0,0:0:0:0:
184,58,34976,1,8,0:0:0:0:
184,58,35101,1,0,0:0:0:0:
184,58,35351,1,8,0:0:0:0:
184,58,35601,1,8,0:0:0:0:
185,58,35851,1,0,0:0:0:0:
185,58,35976,1,8,0:0:0:0:
185,58,36101,1,8,0:0:0:0:
185,58,36351,1,4,0:0:0:0:
191,102,36851,1,8,0:0:0:0:
191,85,37226,1,0,0:0:0:0:
191,85,37288,1,0,0:0:0:0:
191,85,37351,1,0,0:0:0:0:
168,58,37601,1,0,0:0:0:0:
168,58,37851,1,8,0:0:0:0:
168,58,38351,1,0,0:0:0:0:
168,58,38601,1,0,0:0:0:0:
168,58,38851,1,8,0:0:0:0:
168,69,39226,1,0,0:0:0:0:
168,69,39288,1,0,0:0:0:0:
161,48,39351,1,0,0:0:0:0:
120,43,39601,1,0,0:0:0:0:
170,98,39851,1,8,0:0:0:0:
170,106,40101,1,8,0:0:0:0:
158,86,40226,1,0,0:0:0:0:
158,86,40351,1,4,0:0:0:0:
158,86,40601,1,0,0:0:0:0:
156,86,40851,1,8,0:0:0:0:
154,80,41226,1,0,0:0:0:0:
154,80,41288,1,0,0:0:0:0:
154,80,41351,1,0,0:0:0:0:
155,79,41601,1,0,0:0:0:0:
156,81,41851,1,8,0:0:0:0:
163,78,42101,1,8,0:0:0:0:
128,83,42351,1,0,0:0:0:0:
128,83,42851,1,8,0:0:0:0:
128,83,43226,1,0,0:0:0:0:
128,83,43288,1,0,0:0:0:0:
128,83,43351,1,0,0:0:0:0:
156,130,43601,1,0,0:0:0:0:
125,79,43851,1,8,0:0:0:0:
178,130,44101,1,8,0:0:0:0:
434,61,44226,1,8,0:0:0:0:
434,61,44351,1,0,0:0:0:0:
169,107,44601,1,8,0:0:0:0:
171,96,44726,1,0,0:0:0:0:
211,73,44976,1,0,0:0:0:0:
171,96,45101,1,8,0:0:0:0:
171,96,45351,1,0,0:0:0:0:
169,95,45601,1,8,0:0:0:0:
169,95,45726,1,0,0:0:0:0:
169,95,45976,1,0,0:0:0:0:
169,95,46101,1,8,0:0:0:0:
135,66,46351,1,0,0:0:0:0:
135,66,46601,1,8,0:0:0:0:
134,65,46851,1,8,0:0:0:0:
134,65,47101,1,8,0:0:0:0:
134,65,47351,1,8,0:0:0:0:
134,64,48351,1,4,0:0:0:0:
134,64,48601,1,8,0:0:0:0:
134,64,48851,1,0,0:0:0:0:
134,64,49101,1,8,0:0:0:0:
134,64,49351,1,0,0:0:0:0:
140,61,49601,1,8,0:0:0:0:
140,61,49726,1,0,0:0:0:0:
140,61,49976,1,0,0:0:0:0:
140,61,50101,1,8,0:0:0:0:
140,61,50351,1,0,0:0:0:0:
140,60,50601,1,8,0:0:0:0:
140,60,50851,1,0,0:0:0:0:
131,31,50976,1,0,0:0:0:0:
137,56,51101,1,8,0:0:0:0:
170,82,51351,1,0,0:0:0:0:
167,68,51851,1,0,0:0:0:0:
167,68,51976,1,0,0:0:0:0:
167,68,52101,1,8,0:0:0:0:
167,68,52226,1,8,0:0:0:0:
167,68,52351,1,0,0:0:0:0:
196,110,52601,1,8,0:0:0:0:
196,110,52726,1,8,0:0:0:0:
196,110,52851,1,0,0:0:0:0:
165,74,53101,1,8,0:0:0:0:
177,60,53351,1,0,0:0:0:0:
177,60,53601,1,8,0:0:0:0:
177,60,53726,1,0,0:0:0:0:
176,60,53976,1,0,0:0:0:0:
176,60,54101,1,8,0:0:0:0:
176,60,54226,1,8,0:0:0:0:
176,60,54351,1,0,0:0:0:0:
176,60,54601,1,8,0:0:0:0:
176,60,54726,1,0,0:0:0:0:
171,46,54851,1,8,0:0:0:0:
155,88,54976,1,0,0:0:0:0:
155,88,55101,1,8,0:0:0:0:
150,84,55351,1,8,0:0:0:0:
150,84,55851,1,0,0:0:0:0:
150,84,55976,1,8,0:0:0:0:
150,84,56101,1,8,0:0:0:0:
31,110,56226,1,8,0:0:0:0:
134,64,56351,1,4,0:0:0:0:
134,64,56601,1,8,0:0:0:0:
134,64,56851,1,0,0:0:0:0:
134,64,57101,1,8,0:0:0:0:
221,174,57351,1,0,0:0:0:0:
140,61,57601,1,8,0:0:0:0:
140,61,57726,1,0,0:0:0:0:
140,61,57976,1,0,0:0:0:0:
140,61,58101,1,8,0:0:0:0:
140,61,58351,1,0,0:0:0:0:
140,60,58601,1,8,0:0:0:0:
140,60,58726,1,8,0:0:0:0:
131,31,58976,1,0,0:0:0:0:
137,56,59101,1,8,0:0:0:0:
115,86,59226,1,8,0:0:0:0:
170,82,59351,1,0,0:0:0:0:
165,68,59601,1,8,0:0:0:0:
167,68,59851,1,0,0:0:0:0:
167,68,59976,1,0,0:0:0:0:
167,68,60101,1,8,0:0:0:0:
167,68,60226,1,8,0:0:0:0:
167,68,60351,1,0,0:0:0:0:
107,133,60476,1,0,0:0:0:0:
108,132,61351,1,0,0:0:0:0:
108,132,61476,1,0,0:0:0:0:
81,156,62351,1,4,0:0:0:0:
81,156,62851,1,0,0:0:0:0:
81,156,63351,1,0,0:0:0:0:
81,156,63851,1,0,0:0:0:0:
81,155,64351,1,0,0:0:0:0:
81,155,64850,1,0,0:0:0:0:
81,155,65350,1,8,0:0:0:0:
201,117,66351,1,4,0:0:0:0:
335,93,66601,1,8,0:0:0:0:
188,81,66851,1,0,0:0:0:0:
321,99,66976,1,0,0:0:0:0:
321,99,67101,1,8,0:0:0:0:
316,93,67351,1,0,0:0:0:0:
316,93,67601,1,8,0:0:0:0:
316,93,67726,1,0,0:0:0:0:
316,93,67976,1,0,0:0:0:0:
316,93,68101,1,8,0:0:0:0:
316,93,68351,1,0,0:0:0:0:
305,128,68601,1,8,0:0:0:0:
305,128,68851,1,0,0:0:0:0:
305,128,68976,1,0,0:0:0:0:
305,128,69101,1,8,0:0:0:0:
306,123,69351,1,8,0:0:0:0:
306,123,69476,1,8,0:0:0:0:
306,123,69601,1,0,0:0:0:0:
306,123,69726,1,8,0:0:0:0:
314,71,70351,1,8,0:0:0:0:
314,71,70601,1,8,0:0:0:0:
305,57,70851,1,0,0:0:0:0:
305,57,70976,1,0,0:0:0:0:
305,57,71101,1,8,0:0:0:0:
305,57,71351,1,0,0:0:0:0:
308,67,71601,1,8,0:0:0:0:
159,35,71726,1,0,0:0:0:0:
308,67,71851,1,0,0:0:0:0:
308,67,71976,1,0,0:0:0:0:
198,101,72101,1,8,0:0:0:0:
247,129,72351,1,0,0:0:0:0:
247,121,72476,1,0,0:0:0:0:
247,121,72601,1,8,0:0:0:0:
247,121,72726,1,0,0:0:0:0:
247,121,72851,1,8,0:0:0:0:
247,121,73101,1,8,0:0:0:0:
247,121,73226,1,8,0:0:0:0:
247,121,73288,1,8,0:0:0:0:
247,121,73351,1,8,0:0:0:0:
199,149,74351,1,4,0:0:0:0:
186,157,74851,1,8,0:0:0:0:
186,157,75351,1,0,0:0:0:0:
186,157,75601,1,0,0:0:0:0:
179,156,75851,1,8,0:0:0:0:
252,101,76351,1,0,0:0:0:0:
251,93,76851,1,8,0:0:0:0:
231,83,77226,1,8,0:0:0:0:
231,83,77351,1,0,0:0:0:0:
233,81,77601,1,0,0:0:0:0:
233,78,77851,1,8,0:0:0:0:
97,151,78101,1,8,0:0:0:0:
97,151,78226,1,8,0:0:0:0:
75,48,78351,1,4,0:0:0:0:
180,55,78851,1,8,0:0:0:0:
162,111,79351,1,0,0:0:0:0:
162,111,79601,1,0,0:0:0:0:
162,111,79851,1,8,0:0:0:0:
161,111,80101,1,0,0:0:0:0:
161,111,80351,1,0,0:0:0:0:
161,111,80601,1,0,0:0:0:0:
154,40,80851,1,8,0:0:0:0:
154,40,81226,1,8,0:0:0:0:
157,80,81351,1,0,0:0:0:0:
157,80,81601,1,8,0:0:0:0:
154,123,81851,1,8,0:0:0:0:
156,123,82101,1,8,0:0:0:0:
156,123,82226,1,8,0:0:0:0:
156,123,82351,1,4,0:0:0:0:
311,192,82601,1,0,0:0:0:0:
166,60,82851,1,8,0:0:0:0:
166,59,83101,1,8,0:0:0:0:
161,96,83351,1,0,0:0:0:0:
161,96,83601,1,0,0:0:0:0:
161,96,83851,1,8,0:0:0:0:
161,96,84101,1,8,0:0:0:0:
161,96,84226,1,8,0:0:0:0:
161,96,84351,1,0,0:0:0:0:
156,102,84851,1,8,0:0:0:0:
158,100,85101,1,8,0:0:0:0:
158,96,85351,1,0,0:0:0:0:
166,55,85601,1,0,0:0:0:0:
166,55,85851,1,8,0:0:0:0:
166,54,86101,1,8,0:0:0:0:
242,64,86226,1,8,0:0:0:0:
166,54,86351,1,4,0:0:0:0:
205,146,86851,1,8,0:0:0:0:
205,146,87351,1,0,0:0:0:0:
205,146,87601,1,0,0:0:0:0:
205,146,87851,1,8,0:0:0:0:
205,146,87976,1,8,0:0:0:0:
183,63,88226,1,8,0:0:0:0:
183,63,88351,1,0,0:0:0:0:
121,164,88851,1,8,0:0:0:0:
121,164,88976,1,0,0:0:0:0:
121,164,89226,1,8,0:0:0:0:
121,164,89351,1,0,0:0:0:0:
121,164,89601,1,0,0:0:0:0:
116,162,89851,1,8,0:0:0:0:
116,162,90101,1,8,0:0:0:0:
116,162,90226,1,8,0:0:0:0:
116,162,90351,1,4,0:0:0:0:
121,136,90601,1,8,0:0:0:0:
211,113,90726,1,8,0:0:0:0:
122,129,90851,1,0,0:0:0:0:
123,127,91101,1,8,0:0:0:0:
123,127,91226,1,8,0:0:0:0:
123,127,91351,1,0,0:0:0:0:
123,127,91601,1,8,0:0:0:0:
136,127,91851,1,0,0:0:0:0:
183,75,91976,1,0,0:0:0:0:
136,127,92101,1,8,0:0:0:0:
116,162,92351,1,0,0:0:0:0:
122,129,92851,1,0,0:0:0:0:
123,127,93101,1,8,0:0:0:0:
201,143,93226,1,8,0:0:0:0:
123,127,93351,1,0,0:0:0:0:
123,127,93601,1,8,0:0:0:0:
136,127,93851,1,0,0:0:0:0:
183,75,94101,1,8,0:0:0:0:
136,127,94226,1,8,0:0:0:0:
116,162,94351,1,0,0:0:0:0:
121,136,94601,1,8,0:0:0:0:
122,129,94851,1,0,0:0:0:0:
123,127,95101,1,8,0:0:0:0:
123,127,95226,1,8,0:0:0:0:
123,127,95351,1,0,0:0:0:0:
123,127,95601,1,8,0:0:0:0:
136,127,95851,1,0,0:0:0:0:
183,75,95976,1,0,0:0:0:0:
136,127,96101,1,8,0:0:0:0:
122,57,96351,1,0,0:0:0:0:
122,57,96601,1,8,0:0:0:0:
122,57,96726,1,0,0:0:0:0:
122,57,96851,1,8,0:0:0:0:
289,128,97101,1,8,0:0:0:0:
289,128,97351,1,8,0:0:0:0:
289,128,97601,1,8,0:0:0:0:
289,128,97726,1,8,0:0:0:0:
289,128,97851,1,0,0:0:0:0:
289,128,98101,1,8,0:0:0:0:
217,68,98351,1,0,0:0:0:0:
222,61,98851,1,8,0:0:0:0:
269,29,99226,1,0,0:0:0:0:
242,50,99288,1,0,0:0:0:0:
269,29,99351,1,0,0:0:0:0:
151,99,99476,1,0,0:0:0:0:
151,99,99601,1,8,0:0:0:0:
166,94,99851,1,8,0:0:0:0:
164,86,99976,1,8,0:0:0:0:
164,86,100101,1,0,0:0:0:0:
164,86,100351,1,8,0:0:0:0:
164,86,100476,1,0,0:0:0:0:
164,86,100601,1,8,0:0:0:0:
165,76,100851,1,8,0:0:0:0:
165,76,101101,1,8,0:0:0:0:
289,76,101226,1,0,0:0:0:0:
235,52,101288,1,0,0:0:0:0:
165,76,101351,1,0,0:0:0:0:
164,71,101601,1,0,0:0:0:0:
164,71,101851,1,8,0:0:0:0:
164,71,102101,1,8,0:0:0:0:
217,68,102351,1,0,0:0:0:0:
222,61,102851,1,8,0:0:0:0:
199,56,103226,1,0,0:0:0:0:
194,57,103288,1,0,0:0:0:0:
186,57,103351,1,0,0:0:0:0:
151,99,103476,1,0,0:0:0:0:
151,99,103601,1,8,0:0:0:0:
166,94,103851,1,8,0:0:0:0:
164,86,104101,1,8,0:0:0:0:
170,103,104351,1,0,0:0:0:0:
136,47,104851,1,8,0:0:0:0:
109,93,105226,1,0,0:0:0:0:
112,60,105288,1,0,0:0:0:0:
112,60,105351,1,0,0:0:0:0:
128,115,105601,1,0,0:0:0:0:
174,58,105851,1,8,0:0:0:0:
178,130,106101,1,8,0:0:0:0:
178,130,106351,1,8,0:0:0:0:
169,107,106601,1,8,0:0:0:0:
171,96,106851,1,0,0:0:0:0:
171,96,107101,1,8,0:0:0:0:
171,96,107226,1,8,0:0:0:0:
171,96,107351,1,0,0:0:0:0:
169,95,107601,1,8,0:0:0:0:
169,95,107726,1,0,0:0:0:0:
169,95,107976,1,0,0:0:0:0:
169,95,108101,1,8,0:0:0:0:
135,66,108351,1,0,0:0:0:0:
135,66,108601,1,8,0:0:0:0:
134,65,108851,1,8,0:0:0:0:
134,65,109101,1,8,0:0:0:0:
134,65,109351,1,8,0:0:0:0:
134,64,110351,1,4,0:0:0:0:
134,64,110601,1,8,0:0:0:0:
134,64,110851,1,0,0:0:0:0:
134,64,111101,1,8,0:0:0:0:
134,64,111351,1,0,0:0:0:0:
140,61,111601,1,8,0:0:0:0:
140,61,111726,1,0,0:0:0:0:
140,61,111976,1,0,0:0:0:0:
140,61,112101,1,8,0:0:0:0:
140,61,112351,1,0,0:0:0:0:
140,60,112601,1,8,0:0:0:0:
140,60,112726,1,0,0:0:0:0:
131,31,112976,1,0,0:0:0:0:
137,56,113101,1,8,0:0:0:0:
170,82,113351,1,0,0:0:0:0:
167,68,113851,1,0,0:0:0:0:
167,68,113976,1,0,0:0:0:0:
167,68,114101,1,8,0:0:0:0:
165,68,114226,1,8,0:0:0:0:
167,68,114351,1,0,0:0:0:0:
196,110,114601,1,8,0:0:0:0:
196,110,114726,1,8,0:0:0:0:
196,110,114851,1,0,0:0:0:0:
165,74,115101,1,8,0:0:0:0:
177,60,115351,1,0,0:0:0:0:
177,60,115601,1,8,0:0:0:0:
177,60,115726,1,0,0:0:0:0:
176,60,115976,1,0,0:0:0:0:
176,60,116101,1,8,0:0:0:0:
176,60,116226,1,8,0:0:0:0:
176,60,116351,1,0,0:0:0:0:
176,60,116601,1,8,0:0:0:0:
171,46,116851,1,8,0:0:0:0:
155,88,116976,1,0,0:0:0:0:
155,88,117101,1,8,0:0:0:0:
150,84,117351,1,8,0:0:0:0:
150,84,117851,1,0,0:0:0:0:
150,84,117976,1,8,0:0:0:0:
150,84,118101,1,8,0:0:0:0:
209,53,118226,1,8,0:0:0:0:
134,64,118351,1,4,0:0:0:0:
134,64,118601,1,8,0:0:0:0:
134,64,118851,1,0,0:0:0:0:
134,64,119101,1,8,0:0:0:0:
134,64,119351,1,0,0:0:0:0:
140,61,119601,1,8,0:0:0:0:
140,61,119726,1,0,0:0:0:0:
140,61,119976,1,0,0:0:0:0:
140,61,120101,1,8,0:0:0:0:
140,61,120226,1,8,0:0:0:0:
140,61,120351,1,0,0:0:0:0:
140,60,120601,1,8,0:0:0:0:
140,60,120851,1,0,0:0:0:0:
131,31,120976,1,0,0:0:0:0:
137,56,121101,1,8,0:0:0:0:
115,86,121226,1,8,0:0:0:0:
170,82,121351,1,0,0:0:0:0:
165,68,121601,1,8,0:0:0:0:
167,68,121851,1,0,0:0:0:0:
167,68,121976,1,0,0:0:0:0:
167,68,122101,1,8,0:0:0:0:
167,68,122226,1,8,0:0:0:0:
167,68,122351,1,0,0:0:0:0:
107,133,122476,1,0,0:0:0:0:
108,132,123351,1,0,0:0:0:0:
108,132,123476,1,0,0:0:0:0:
312,140,124351,1,0,0:0:0:0:
304,141,124851,1,0,0:0:0:0:
304,141,125351,1,0,0:0:0:0:
209,144,125601,1,8,0:0:0:0:
209,144,125726,1,8,0:0:0:0:
304,113,125851,1,0,0:0:0:0:
304,113,125976,1,8,0:0:0:0:
227,83,126351,1,0,0:0:0:0:
227,83,126601,1,8,0:0:0:0:
227,83,126851,1,0,0:0:0:0:
227,83,127101,1,8,0:0:0:0:
206,57,127351,1,0,0:0:0:0:
206,58,127601,1,8,0:0:0:0:
206,58,127726,1,8,0:0:0:0:
206,58,127851,1,0,0:0:0:0:
206,58,128101,1,8,0:0:0:0:
206,58,128351,1,0,0:0:0:0:
206,58,128600,1,8,0:0:0:0:
206,58,128850,1,0,0:0:0:0:
206,58,129100,1,8,0:0:0:0:
206,58,129350,1,0,0:0:0:0:
206,58,129600,1,8,0:0:0:0:
206,58,129725,1,8,0:0:0:0:
206,58,129850,1,0,0:0:0:0:
206,58,129975,1,0,0:0:0:0:
206,58,130100,1,8,0:0:0:0:
206,58,130350,1,0,0:0:0:0:
206,58,130600,1,0,0:0:0:0:
206,58,130725,1,8,0:0:0:0:
206,58,130850,1,0,0:0:0:0:
196,53,131351,1,0,0:0:0:0:
194,59,131601,1,8,0:0:0:0:
194,59,131851,1,0,0:0:0:0:
194,59,132101,1,8,0:0:0:0:
209,79,132226,1,8,0:0:0:0:
204,69,132351,1,0,0:0:0:0:
209,79,132601,1,0,0:0:0:0:
209,79,132726,1,8,0:0:0:0:
204,127,132851,1,0,0:0:0:0:
329,128,133101,1,8,0:0:0:0:
204,128,133226,1,8,0:0:0:0:
204,128,133351,1,0,0:0:0:0:
200,122,133476,1,8,0:0:0:0:
204,128,133601,1,0,0:0:0:0:
201,122,133851,1,0,0:0:0:0:
204,107,134101,1,8,0:0:0:0:
204,105,134351,1,0,0:0:0:0:
198,84,134476,1,0,0:0:0:0:
204,105,134601,1,8,0:0:0:0:
204,105,134851,1,0,0:0:0:0:
197,82,135101,1,8,0:0:0:0:
197,82,135351,1,0,0:0:0:0:
198,77,135476,1,8,0:0:0:0:
198,77,135601,1,8,0:0:0:0:
201,92,135851,1,0,0:0:0:0:
201,92,135976,1,0,0:0:0:0:
198,85,136351,1,8,0:0:0:0:
198,85,136476,1,0,0:0:0:0:
198,85,136601,1,8,0:0:0:0:
198,85,136726,1,0,0:0:0:0:
198,85,136851,1,8,0:0:0:0:
196,78,137101,1,0,0:0:0:0:
196,78,137226,1,0,0:0:0:0:
196,78,137351,1,8,0:0:0:0:
196,78,137851,1,0,0:0:0:0:
196,74,138101,1,8,0:0:0:0:
196,74,138351,1,8,0:0:0:0:
196,74,138476,1,0,0:0:0:0:
196,74,138601,1,8,0:0:0:0:
196,74,138726,1,0,0:0:0:0:
196,74,138851,1,8,0:0:0:0:
196,74,139101,1,8,0:0:0:0:
196,74,139351,1,0,0:0:0:0:
196,74,139601,1,8,0:0:0:0:
162,59,139851,1,8,0:0:0:0:
162,59,140101,1,0,0:0:0:0:
161,58,140351,1,0,0:0:0:0:
188,160,140851,1,0,0:0:0:0:
187,159,141101,1,8,0:0:0:0:
187,159,141226,1,8,0:0:0:0:
187,159,141351,1,0,0:0:0:0:
177,167,141851,1,0,0:0:0:0:
177,167,142101,1,8,0:0:0:0:
177,167,142351,1,0,0:0:0:0:
175,167,142601,1,0,0:0:0:0:
175,167,142851,1,0,0:0:0:0:
245,183,143101,1,0,0:0:0:0:
173,167,143351,1,0,0:0:0:0:
179,117,143851,1,8,0:0:0:0:
179,117,144101,1,8,0:0:0:0:
169,129,144351,1,0,0:0:0:0:
128,52,144601,1,8,0:0:0:0:
128,52,144851,1,0,0:0:0:0:
127,39,145101,1,8,0:0:0:0:
127,39,145351,1,0,0:0:0:0:
127,39,145601,1,8,0:0:0:0:
127,39,145726,1,8,0:0:0:0:
127,39,145851,1,0,0:0:0:0:
127,39,146101,1,8,0:0:0:0:
127,38,146351,1,0,0:0:0:0:
181,72,146601,1,8,0:0:0:0:
181,72,146851,1,0,0:0:0:0:
181,72,146976,1,8,0:0:0:0:
181,72,147226,1,8,0:0:0:0:
181,72,147351,1,0,0:0:0:0:
181,63,147851,1,0,0:0:0:0:
181,63,148101,1,8,0:0:0:0:
181,63,148226,1,8,0:0:0:0:
181,63,148351,1,0,0:0:0:0:
64,80,148476,1,8,0:0:0:0:
163,48,148601,1,8,0:0:0:0:
70,69,148851,1,0,0:0:0:0:
70,69,149101,1,8,0:0:0:0:
70,69,149351,1,0,0:0:0:0:
146,106,149601,1,8,0:0:0:0:
146,106,149851,1,0,0:0:0:0:
146,119,150351,1,0,0:0:0:0:
146,119,150601,1,8,0:0:0:0:
146,119,150851,1,0,0:0:0:0:
147,119,151101,1,8,0:0:0:0:
135,81,151351,1,0,0:0:0:0:
166,48,151476,1,0,0:0:0:0:
139,83,151601,1,0,0:0:0:0:
139,83,151851,1,0,0:0:0:0:
173,55,151976,1,8,0:0:0:0:
139,83,152101,1,0,0:0:0:0:
151,87,152351,1,0,0:0:0:0:
151,87,152851,1,0,0:0:0:0:
151,87,153101,1,8,0:0:0:0:
151,87,153351,1,0,0:0:0:0:
400,95,153601,1,8,0:0:0:0:
400,95,153726,1,8,0:0:0:0:
400,95,153851,1,0,0:0:0:0:
392,92,154101,1,0,0:0:0:0:
392,92,154351,1,0,0:0:0:0:
392,92,154601,1,8,0:0:0:0:
392,92,154851,1,0,0:0:0:0:
392,92,154976,1,8,0:0:0:0:
257,81,155226,1,8,0:0:0:0:
257,81,155351,1,0,0:0:0:0:
181,17,155851,1,0,0:0:0:0:
181,17,156101,1,8,0:0:0:0:
181,17,156351,1,0,0:0:0:0:
181,17,156476,1,8,0:0:0:0:
181,17,156601,1,0,0:0:0:0:
181,17,156851,1,8,0:0:0:0:
181,18,157101,1,0,0:0:0:0:
181,18,157226,1,8,0:0:0:0:
181,18,157351,1,0,0:0:0:0:
181,18,157601,1,8,0:0:0:0:
146,98,157726,1,8,0:0:0:0:
50,116,157851,1,0,0:0:0:0:
146,90,158101,1,0,0:0:0:0:
161,72,158351,1,4,0:0:0:0:
161,72,158601,1,0,0:0:0:0:
171,90,158726,1,0,0:0:0:0:
171,90,158851,1,0,0:0:0:0:
171,90,158976,1,0,0:0:0:0:
171,90,159101,1,0,0:0:0:0:
171,90,159351,1,12,0:0:0:0:
134,64,160351,1,4,0:0:0:0:
134,64,160601,1,8,0:0:0:0:
134,64,160851,1,0,0:0:0:0:
134,64,161101,1,8,0:0:0:0:
134,64,161226,1,0,0:0:0:0:
134,64,161351,1,0,0:0:0:0:
140,61,161601,1,8,0:0:0:0:
140,61,161726,1,0,0:0:0:0:
140,61,161976,1,0,0:0:0:0:
140,61,162101,1,8,0:0:0:0:
140,61,162351,1,0,0:0:0:0:
140,60,162601,1,8,0:0:0:0:
140,60,162726,1,0,0:0:0:0:
131,31,162976,1,0,0:0:0:0:
137,56,163101,1,8,0:0:0:0:
192,16,163226,1,8,0:0:0:0:
170,82,163351,1,0,0:0:0:0:
167,68,163851,1,0,0:0:0:0:
167,68,163976,1,0,0:0:0:0:
167,68,164101,1,8,0:0:0:0:
165,68,164226,1,8,0:0:0:0:
167,68,164351,1,0,0:0:0:0:
196,110,164601,1,8,0:0:0:0:
196,110,164726,1,8,0:0:0:0:
196,110,164851,1,0,0:0:0:0:
165,74,165101,1,8,0:0:0:0:
177,60,165351,1,0,0:0:0:0:
177,60,165601,1,8,0:0:0:0:
177,60,165726,1,0,0:0:0:0:
176,60,165976,1,0,0:0:0:0:
176,60,166101,1,8,0:0:0:0:
176,60,166226,1,8,0:0:0:0:
176,60,166351,1,0,0:0:0:0:
176,60,166601,1,8,0:0:0:0:
176,60,166726,1,0,0:0:0:0:
171,46,166851,1,8,0:0:0:0:
155,88,167101,1,8,0:0:0:0:
150,84,167351,1,8,0:0:0:0:
150,84,167601,1,8,0:0:0:0:
150,84,167726,1,0,0:0:0:0:
150,84,167851,1,8,0:0:0:0:
150,84,167976,1,8,0:0:0:0:
309,170,168038,1,8,0:0:0:0:
150,84,168101,1,8,0:0:0:0:
134,64,168351,1,4,0:0:0:0:
134,64,168601,1,8,0:0:0:0:
134,64,168851,1,0,0:0:0:0:
134,64,168976,1,0,0:0:0:0:
134,64,169101,1,8,0:0:0:0:
134,64,169351,1,0,0:0:0:0:
140,61,169601,1,8,0:0:0:0:
140,61,169726,1,0,0:0:0:0:
140,61,169976,1,0,0:0:0:0:
140,61,170101,1,8,0:0:0:0:
140,61,170351,1,0,0:0:0:0:
140,60,170601,1,8,0:0:0:0:
140,60,170726,1,0,0:0:0:0:
131,31,170976,1,0,0:0:0:0:
137,56,171101,1,8,0:0:0:0:
115,86,171226,1,8,0:0:0:0:
170,82,171351,1,0,0:0:0:0:
165,68,171601,1,8,0:0:0:0:
167,68,171851,1,0,0:0:0:0:
167,68,171976,1,0,0:0:0:0:
167,68,172101,1,8,0:0:0:0:
167,68,172226,1,8,0:0:0:0:
167,68,172351,1,0,0:0:0:0:
107,133,172476,1,0,0:0:0:0:
108,132,173351,1,0,0:0:0:0:
108,132,173476,1,0,0:0:0:0:
151,111,174851,1,8,0:0:0:0:
151,111,175351,1,8,0:0:0:0:
151,111,175851,1,8,0:0:0:0:
235,131,176351,1,4,0:0:0:0:
235,129,176601,1,8,0:0:0:0:
235,129,176726,1,0,0:0:0:0:
234,122,176851,1,0,0:0:0:0:
231,109,177101,1,8,0:0:0:0:
231,109,177226,1,0,0:0:0:0:
231,109,177351,1,0,0:0:0:0:
231,109,177476,1,0,0:0:0:0:
231,109,177601,1,8,0:0:0:0:
231,109,177851,1,0,0:0:0:0:
231,109,178101,1,8,0:0:0:0:
231,109,178226,1,8,0:0:0:0:
231,109,178351,1,0,0:0:0:0:
156,98,178476,1,0,0:0:0:0:
165,87,178601,1,8,0:0:0:0:
165,87,178726,1,0,0:0:0:0:
165,87,178851,1,8,0:0:0:0:
168,72,179101,1,8,0:0:0:0:
168,72,179226,1,0,0:0:0:0:
168,72,179351,1,0,0:0:0:0:
159,89,179601,1,8,0:0:0:0:
159,89,179851,1,0,0:0:0:0:
160,82,179976,1,0,0:0:0:0:
162,86,180101,1,8,0:0:0:0:
162,86,180226,1,8,0:0:0:0:
162,86,180351,1,0,0:0:0:0:
162,86,180476,1,0,0:0:0:0:
168,141,181351,1,0,0:0:0:0:
168,141,181476,1,0,0:0:0:0:
152,90,182851,1,4,0:0:0:0:
150,143,183351,1,0,0:0:0:0:
150,143,183851,1,0,0:0:0:0:
150,143,184351,1,0,0:0:0:0:
150,143,184851,1,0,0:0:0:0:
150,143,185351,1,0,0:0:0:0:
150,143,185851,1,8,0:0:0:0:
150,143,186851,1,4,0:0:0:0:
150,143,187101,1,8,0:0:0:0:
147,138,187226,1,0,0:0:0:0:
147,138,187351,1,8,0:0:0:0:
143,134,187476,1,8,0:0:0:0:
142,132,187601,1,0,0:0:0:0:
142,132,187726,1,8,0:0:0:0:
191,81,187788,1,8,0:0:0:0:
149,120,187851,1,8,0:0:0:0:
156,112,188101,1,8,0:0:0:0:
156,112,188226,1,8,0:0:0:0:
207,99,188476,1,0,0:0:0:0:
256,192,188726,12,0,192851,0:0:0:0:
