osu file format v14

[General]
AudioFilename: audio.mp3
AudioLeadIn: 0
PreviewTime: 159851
Countdown: 0
SampleSet: Normal
StackLeniency: 0.7
Mode: 1
LetterboxInBreaks: 0
WidescreenStoryboard: 1

[Editor]
DistanceSpacing: 1.1
BeatDivisor: 4
GridSize: 16
TimelineZoom: 1.7

[Metadata]
Title:Anoyo-iki no Bus ni Notte Saraba.
TitleUnicode:あの世行きのバスに乗ってさらば。
Artist:TUYU
ArtistUnicode:ツユ
Creator:POCARI SWEAT
Version:Inner Oni.
Source:
Tags:japanese rock farewell on that bus tsuyu omotatsu pusu rei yappari ame wa ha furun da ne its it's raining after all やっぱり雨は降るんだね AzyuN おむたつ ぷす 礼衣 Sanjenin Nagi S.Nagi
BeatmapID:2520758
BeatmapSetID:1210752

[Difficulty]
HPDrainRate:7
CircleSize:5
OverallDifficulty:6.5
ApproachRate:5
SliderMultiplier:1.4
SliderTickRate:1

[Events]
//Background and Video events
0,0,"bg.jpg",0,0
//Break Periods
//Storyboard Layer 0 (Background)
//Storyboard Layer 1 (Fail)
//Storyboard Layer 2 (Pass)
//Storyboard Layer 3 (Foreground)
//Storyboard Layer 4 (Overlay)
//Storyboard Sound Samples

[TimingPoints]
351,250,4,1,0,100,1,0
12351,-125,4,1,0,100,0,0
27351,-119.047619047619,4,1,0,100,0,0
27601,-113.636363636364,4,1,0,100,0,0
27851,-108.695652173913,4,1,0,100,0,0
28101,-104.166666666667,4,1,0,100,0,0
28226,-100,4,1,0,100,0,0
28351,-96.1538461538461,4,1,0,100,0,0
35601,-98.0392156862745,4,1,0,100,0,0
35726,-100,4,1,0,100,0,0
35851,-102.040816326531,4,1,0,100,0,0
35976,-104.166666666667,4,1,0,100,0,0
36101,-106.382978723404,4,1,0,100,0,0
36226,-108.695652173913,4,1,0,100,0,0
36351,-111.111111111111,4,1,0,100,0,0
43851,-108.695652173913,4,1,0,100,0,0
44101,-106.382978723404,4,1,0,100,0,0
44226,-105.263157894737,4,1,0,100,0,0
44351,-104.166666666667,4,1,0,100,0,0
44601,-102.040816326531,4,1,0,100,0,0
48351,-100,4,1,0,100,0,1
60351,-100,4,1,0,100,0,0
74351,-125,4,1,0,100,0,0
89351,-119.047619047619,4,1,0,100,0,0
89601,-113.636363636364,4,1,0,100,0,0
89851,-108.695652173913,4,1,0,100,0,0
90101,-104.166666666667,4,1,0,100,0,0
90226,-100,4,1,0,100,0,0
90351,-96.1538461538461,4,1,0,100,0,0
97601,-98.0392156862745,4,1,0,100,0,0
97726,-100,4,1,0,100,0,0
97851,-102.040816326531,4,1,0,100,0,0
97976,-104.166666666667,4,1,0,100,0,0
98101,-106.382978723404,4,1,0,100,0,0
98226,-108.695652173913,4,1,0,100,0,0
98351,-111.111111111111,4,1,0,100,0,0
105851,-108.695652173913,4,1,0,100,0,0
106101,-106.382978723404,4,1,0,100,0,0
106226,-105.263157894737,4,1,0,100,0,0
106351,-104.166666666667,4,1,0,100,0,0
106476,-102.040816326531,4,1,0,100,0,0
110351,-100,4,1,0,100,0,1
122351,-100,4,1,0,100,0,0
124351,-125,4,1,0,100,0,0
158351,-123.456790123457,4,1,0,100,0,0
158601,-120.481927710843,4,1,0,100,0,0
158726,-117.647058823529,4,1,0,100,0,0
158851,-114.942528735632,4,1,0,100,0,0
158976,-112.359550561798,4,1,0,100,0,0
159101,-109.89010989011,4,1,0,100,0,0
159226,-107.52688172043,4,1,0,100,0,0
159351,-105.263157894737,4,1,0,100,0,0
160351,-100,4,1,0,100,0,1
172351,-100,4,1,0,100,0,0
174351,-125,4,1,0,100,0,0
175851,-117.647058823529,4,1,0,100,0,0
176351,-100,4,1,0,100,0,1
180351,-100,4,1,0,100,0,0
182351,250,4,1,0,100,1,8
182851,250,4,1,0,100,1,0
186851,-90.9090909090909,4,1,0,100,0,0
189851,-100,4,1,0,80,0,0
190851,-100,4,1,0,60,0,0
191851,-100,4,1,0,45,0,0
192851,-100,4,1,0,30,0,0

[HitObjects]
276,179,351,5,4,0:0:0:0:
282,139,851,1,0,0:0:0:0:
282,139,1351,1,0,0:0:0:0:
282,139,1851,1,0,0:0:0:0:
282,139,2351,1,0,0:0:0:0:
282,139,2851,1,0,0:0:0:0:
191,166,3351,1,8,0:0:0:0:
205,144,4351,1,4,0:0:0:0:
97,144,4476,1,0,0:0:0:0:
223,107,4601,1,8,0:0:0:0:
223,107,4726,1,0,0:0:0:0:
223,107,4788,1,0,0:0:0:0:
223,107,4851,1,0,0:0:0:0:
223,107,4976,1,0,0:0:0:0:
223,107,5101,1,8,0:0:0:0:
196,55,5226,1,0,0:0:0:0:
29,159,5288,1,0,0:0:0:0:
29,159,5351,1,0,0:0:0:0:
135,83,5476,1,0,0:0:0:0:
135,83,5601,1,8,0:0:0:0:
135,83,5726,1,0,0:0:0:0:
93,159,5788,1,0,0:0:0:0:
48,117,5851,1,8,0:0:0:0:
48,117,5913,1,8,0:0:0:0:
135,83,5976,1,0,0:0:0:0:
135,83,6101,1,8,0:0:0:0:
48,117,6226,1,8,0:0:0:0:
48,117,6288,1,8,0:0:0:0:
135,83,6351,1,0,0:0:0:0:
48,117,6476,1,0,0:0:0:0:
48,117,6538,1,0,0:0:0:0:
135,83,6601,1,8,0:0:0:0:
135,83,6726,1,0,0:0:0:0:
196,55,6851,1,0,0:0:0:0:
135,83,6976,1,0,0:0:0:0:
58,91,7038,1,0,0:0:0:0:
135,83,7101,1,8,0:0:0:0:
187,77,7226,1,0,0:0:0:0:
187,83,7351,1,8,0:0:0:0:
187,83,7476,1,0,0:0:0:0:
187,83,7538,1,0,0:0:0:0:
187,83,7601,1,8,0:0:0:0:
187,83,7726,1,8,0:0:0:0:
58,91,7851,1,0,0:0:0:0:
187,83,7976,1,0,0:0:0:0:
187,83,8101,1,8,0:0:0:0:
291,91,8351,1,8,0:0:0:0:
291,91,8476,1,0,0:0:0:0:
291,91,8601,1,8,0:0:0:0:
291,91,8726,1,0,0:0:0:0:
291,91,8788,1,0,0:0:0:0:
291,91,8851,1,8,0:0:0:0:
291,91,8976,1,0,0:0:0:0:
128,37,9038,1,0,0:0:0:0:
291,91,9101,1,8,0:0:0:0:
291,91,9226,1,0,0:0:0:0:
291,91,9351,1,0,0:0:0:0:
126,62,9476,1,0,0:0:0:0:
126,62,9601,1,8,0:0:0:0:
126,62,9726,1,0,0:0:0:0:
127,67,9788,1,0,0:0:0:0:
127,67,9851,1,0,0:0:0:0:
127,67,9976,1,0,0:0:0:0:
127,67,10038,1,0,0:0:0:0:
127,67,10101,1,8,0:0:0:0:
127,67,10226,1,0,0:0:0:0:
127,67,10351,1,8,0:0:0:0:
127,67,10413,1,8,0:0:0:0:
127,67,10476,1,0,0:0:0:0:
125,73,10538,1,0,0:0:0:0:
125,73,10601,1,8,0:0:0:0:
127,67,10726,1,0,0:0:0:0:
125,73,10851,1,8,0:0:0:0:
125,73,10913,1,0,0:0:0:0:
127,67,10976,1,8,0:0:0:0:
153,22,11101,1,8,0:0:0:0:
362,94,11226,1,8,0:0:0:0:
153,56,11288,1,0,0:0:0:0:
151,58,11351,1,0,0:0:0:0:
146,107,12351,1,4,0:0:0:0:
146,107,12851,1,8,0:0:0:0:
170,116,13351,1,0,0:0:0:0:
170,116,13601,1,0,0:0:0:0:
170,116,13851,1,8,0:0:0:0:
170,116,14351,1,0,0:0:0:0:
170,116,14851,1,8,0:0:0:0:
178,68,15226,1,8,0:0:0:0:
170,116,15351,1,0,0:0:0:0:
170,116,15601,1,0,0:0:0:0:
178,68,15851,1,8,0:0:0:0:
178,68,16101,1,8,0:0:0:0:
178,68,16226,1,8,0:0:0:0:
178,68,16351,1,4,0:0:0:0:
162,158,16851,1,8,0:0:0:0:
289,128,17351,1,0,0:0:0:0:
289,128,17601,1,0,0:0:0:0:
289,128,17851,1,8,0:0:0:0:
40,122,18351,1,0,0:0:0:0:
40,122,18851,1,8,0:0:0:0:
40,122,19226,1,8,0:0:0:0:
40,122,19351,1,0,0:0:0:0:
40,122,19601,1,0,0:0:0:0:
40,122,19851,1,8,0:0:0:0:
40,122,20101,1,8,0:0:0:0:
40,122,20226,1,8,0:0:0:0:
40,122,20351,1,4,0:0:0:0:
209,103,20601,1,0,0:0:0:0:
209,103,20851,1,8,0:0:0:0:
211,103,21351,1,0,0:0:0:0:
211,103,21601,1,0,0:0:0:0:
211,103,21851,1,8,0:0:0:0:
211,103,22101,1,8,0:0:0:0:
211,103,22226,1,8,0:0:0:0:
158,132,22351,1,0,0:0:0:0:
164,100,22851,1,8,0:0:0:0:
163,100,23101,1,0,0:0:0:0:
163,100,23226,1,8,0:0:0:0:
163,100,23351,1,0,0:0:0:0:
163,100,23601,1,0,0:0:0:0:
163,100,23851,1,8,0:0:0:0:
87,123,24101,1,8,0:0:0:0:
87,123,24226,1,8,0:0:0:0:
87,123,24351,1,4,0:0:0:0:
88,123,24851,1,8,0:0:0:0:
88,123,25351,1,0,0:0:0:0:
88,123,25601,1,0,0:0:0:0:
88,123,25726,1,0,0:0:0:0:
88,123,25851,1,8,0:0:0:0:
88,123,25976,1,8,0:0:0:0:
88,123,26226,1,8,0:0:0:0:
88,123,26351,1,4,0:0:0:0:
73,126,26851,1,8,0:0:0:0:
73,126,27226,1,8,0:0:0:0:
73,126,27351,1,0,0:0:0:0:
73,126,27601,1,0,0:0:0:0:
73,126,27851,1,8,0:0:0:0:
73,126,28101,1,8,0:0:0:0:
73,126,28226,1,8,0:0:0:0:
73,126,28351,1,4,0:0:0:0:
131,139,28601,1,8,0:0:0:0:
131,139,28726,1,8,0:0:0:0:
131,139,28851,1,0,0:0:0:0:
134,100,29101,1,8,0:0:0:0:
134,100,29226,1,8,0:0:0:0:
331,69,29288,1,8,0:0:0:0:
129,97,29351,1,0,0:0:0:0:
129,97,29601,1,8,0:0:0:0:
129,97,29726,1,8,0:0:0:0:
129,97,29851,1,0,0:0:0:0:
129,97,29976,1,8,0:0:0:0:
129,97,30101,1,8,0:0:0:0:
129,97,30226,1,8,0:0:0:0:
277,76,30288,1,8,0:0:0:0:
129,97,30351,1,0,0:0:0:0:
190,73,30601,1,8,0:0:0:0:
190,73,30726,1,8,0:0:0:0:
190,73,30851,1,0,0:0:0:0:
188,73,31101,1,8,0:0:0:0:
188,73,31226,1,8,0:0:0:0:
188,73,31288,1,8,0:0:0:0:
181,77,31351,1,0,0:0:0:0:
180,78,31601,1,8,0:0:0:0:
54,135,31726,1,0,0:0:0:0:
54,135,31851,1,0,0:0:0:0:
54,135,31976,1,8,0:0:0:0:
54,135,32101,1,8,0:0:0:0:
54,135,32226,1,8,0:0:0:0:
98,88,32351,1,0,0:0:0:0:
79,108,32600,1,8,0:0:0:0:
79,108,32725,1,8,0:0:0:0:
79,108,32851,1,0,0:0:0:0:
79,108,33101,1,8,0:0:0:0:
79,108,33226,1,8,0:0:0:0:
79,108,33288,1,8,0:0:0:0:
79,108,33351,1,0,0:0:0:0:
79,108,33601,1,8,0:0:0:0:
79,108,33726,1,8,0:0:0:0:
126,97,33851,1,0,0:0:0:0:
126,97,33976,1,8,0:0:0:0:
126,97,34101,1,8,0:0:0:0:
126,97,34226,1,8,0:0:0:0:
126,97,34288,1,8,0:0:0:0:
126,97,34351,1,0,0:0:0:0:
126,97,34476,1,0,0:0:0:0:
126,97,34601,1,8,0:0:0:0:
126,97,34726,1,0,0:0:0:0:
123,90,34851,1,8,0:0:0:0:
123,90,34976,1,0,0:0:0:0:
123,90,35101,1,8,0:0:0:0:
123,90,35226,1,8,0:0:0:0:
111,130,35351,1,0,0:0:0:0:
111,130,35601,1,8,0:0:0:0:
90,91,35726,1,0,0:0:0:0:
90,91,35851,1,0,0:0:0:0:
90,91,35976,1,8,0:0:0:0:
90,91,36101,1,8,0:0:0:0:
90,91,36226,1,8,0:0:0:0:
90,91,36351,1,4,0:0:0:0:
90,94,36601,1,0,0:0:0:0:
90,94,36726,1,0,0:0:0:0:
90,94,36851,1,8,0:0:0:0:
90,94,36976,1,8,0:0:0:0:
90,94,37038,1,8,0:0:0:0:
90,94,37101,1,0,0:0:0:0:
90,94,37226,1,0,0:0:0:0:
90,94,37351,1,0,0:0:0:0:
90,93,37601,1,0,0:0:0:0:
90,93,37851,1,8,0:0:0:0:
90,93,37976,1,8,0:0:0:0:
90,93,38038,1,8,0:0:0:0:
90,93,38101,1,0,0:0:0:0:
90,93,38226,1,0,0:0:0:0:
90,93,38351,1,0,0:0:0:0:
90,93,38476,1,0,0:0:0:0:
90,93,38601,1,0,0:0:0:0:
90,93,38726,1,0,0:0:0:0:
90,93,38851,1,8,0:0:0:0:
90,93,38976,1,8,0:0:0:0:
90,93,39038,1,8,0:0:0:0:
90,93,39101,1,0,0:0:0:0:
90,93,39226,1,0,0:0:0:0:
90,93,39351,1,0,0:0:0:0:
88,97,39601,1,0,0:0:0:0:
143,81,39851,1,8,0:0:0:0:
143,81,39976,1,8,0:0:0:0:
143,81,40038,1,8,0:0:0:0:
143,81,40101,1,0,0:0:0:0:
143,81,40226,1,8,0:0:0:0:
143,81,40351,1,4,0:0:0:0:
184,87,40601,1,0,0:0:0:0:
184,87,40726,1,0,0:0:0:0:
184,87,40851,1,8,0:0:0:0:
184,87,40976,1,8,0:0:0:0:
184,87,41038,1,8,0:0:0:0:
184,87,41101,1,0,0:0:0:0:
184,87,41226,1,0,0:0:0:0:
184,87,41351,1,0,0:0:0:0:
184,87,41601,1,0,0:0:0:0:
184,87,41726,1,0,0:0:0:0:
184,87,41851,1,8,0:0:0:0:
184,87,41976,1,8,0:0:0:0:
184,87,42038,1,8,0:0:0:0:
184,87,42101,1,0,0:0:0:0:
184,87,42226,1,0,0:0:0:0:
184,87,42351,1,8,0:0:0:0:
211,104,42601,1,0,0:0:0:0:
211,104,42851,1,8,0:0:0:0:
140,67,42976,1,8,0:0:0:0:
140,67,43101,1,0,0:0:0:0:
140,67,43226,1,0,0:0:0:0:
140,67,43288,1,0,0:0:0:0:
140,67,43351,1,8,0:0:0:0:
140,67,43476,1,8,0:0:0:0:
140,67,43601,1,0,0:0:0:0:
141,64,43851,1,8,0:0:0:0:
142,64,44101,1,8,0:0:0:0:
142,64,44226,1,8,0:0:0:0:
188,57,44351,1,0,0:0:0:0:
188,57,44601,1,8,0:0:0:0:
188,57,44726,1,0,0:0:0:0:
188,57,44976,1,0,0:0:0:0:
188,57,45101,1,8,0:0:0:0:
188,57,45226,1,0,0:0:0:0:
188,57,45351,1,0,0:0:0:0:
179,78,45413,1,0,0:0:0:0:
178,79,45476,1,0,0:0:0:0:
178,79,45601,1,8,0:0:0:0:
216,77,45726,1,0,0:0:0:0:
216,77,45976,1,0,0:0:0:0:
216,77,46101,1,8,0:0:0:0:
216,77,46226,1,0,0:0:0:0:
216,77,46351,1,0,0:0:0:0:
209,76,46476,1,0,0:0:0:0:
209,76,46538,1,0,0:0:0:0:
209,76,46601,1,8,0:0:0:0:
209,76,46726,1,0,0:0:0:0:
205,135,46788,1,0,0:0:0:0:
206,79,46851,1,8,0:0:0:0:
207,68,46976,1,0,0:0:0:0:
207,68,47038,1,0,0:0:0:0:
207,68,47101,1,8,0:0:0:0:
207,68,47163,1,0,0:0:0:0:
207,68,47226,1,0,0:0:0:0:
207,68,47288,1,0,0:0:0:0:
207,68,47351,1,8,0:0:0:0:
59,146,48351,1,4,0:0:0:0:
159,192,48601,1,8,0:0:0:0:
159,192,48726,1,0,0:0:0:0:
159,192,48788,1,0,0:0:0:0:
159,192,48851,1,0,0:0:0:0:
176,183,48976,1,0,0:0:0:0:
176,183,49101,1,8,0:0:0:0:
161,115,49226,1,0,0:0:0:0:
176,183,49351,1,0,0:0:0:0:
176,183,49413,1,8,0:0:0:0:
176,183,49476,1,0,0:0:0:0:
176,183,49538,1,0,0:0:0:0:
176,183,49601,1,8,0:0:0:0:
161,115,49726,1,0,0:0:0:0:
161,115,49788,1,0,0:0:0:0:
161,115,49851,1,0,0:0:0:0:
161,115,49976,1,0,0:0:0:0:
161,115,50101,1,8,0:0:0:0:
15,109,50226,1,8,0:0:0:0:
68,62,50288,1,8,0:0:0:0:
15,109,50351,1,0,0:0:0:0:
68,62,50476,1,0,0:0:0:0:
68,62,50601,1,8,0:0:0:0:
71,68,50726,1,0,0:0:0:0:
71,68,50788,1,0,0:0:0:0:
71,68,50851,1,8,0:0:0:0:
71,68,50976,1,0,0:0:0:0:
71,68,51101,1,8,0:0:0:0:
71,68,51226,1,8,0:0:0:0:
71,68,51288,1,8,0:0:0:0:
71,68,51351,1,0,0:0:0:0:
264,43,51413,1,8,0:0:0:0:
71,68,51476,1,0,0:0:0:0:
71,68,51601,1,8,0:0:0:0:
116,82,51726,1,0,0:0:0:0:
116,82,51788,1,0,0:0:0:0:
116,82,51851,1,0,0:0:0:0:
116,82,51976,1,0,0:0:0:0:
22,91,52101,1,8,0:0:0:0:
139,68,52226,1,8,0:0:0:0:
139,68,52288,1,8,0:0:0:0:
51,101,52351,1,0,0:0:0:0:
53,76,52476,1,0,0:0:0:0:
53,76,52601,1,8,0:0:0:0:
53,76,52726,1,0,0:0:0:0:
53,76,52788,1,0,0:0:0:0:
53,76,52851,1,8,0:0:0:0:
4,153,52913,1,0,0:0:0:0:
53,76,52976,1,0,0:0:0:0:
171,87,53101,1,8,0:0:0:0:
171,87,53226,1,0,0:0:0:0:
171,87,53288,1,0,0:0:0:0:
171,87,53351,1,8,0:0:0:0:
171,87,53476,1,0,0:0:0:0:
171,87,53601,1,8,0:0:0:0:
171,87,53726,1,0,0:0:0:0:
171,87,53788,1,0,0:0:0:0:
171,87,53851,1,0,0:0:0:0:
163,83,53976,1,0,0:0:0:0:
166,84,54101,1,8,0:0:0:0:
165,78,54226,1,0,0:0:0:0:
165,78,54288,1,8,0:0:0:0:
165,78,54351,1,0,0:0:0:0:
165,78,54476,1,0,0:0:0:0:
165,78,54601,1,8,0:0:0:0:
165,78,54726,1,0,0:0:0:0:
165,78,54788,1,0,0:0:0:0:
165,78,54851,1,8,0:0:0:0:
165,78,54913,1,8,0:0:0:0:
165,78,54976,1,0,0:0:0:0:
165,78,55101,1,8,0:0:0:0:
56,57,55226,1,0,0:0:0:0:
56,57,55351,1,8,0:0:0:0:
229,92,55413,1,8,0:0:0:0:
56,57,55476,1,0,0:0:0:0:
56,57,55601,1,8,0:0:0:0:
56,57,55663,1,8,0:0:0:0:
56,57,55726,1,0,0:0:0:0:
42,82,55851,1,0,0:0:0:0:
42,82,55976,1,8,0:0:0:0:
42,82,56101,1,8,0:0:0:0:
42,82,56163,1,8,0:0:0:0:
42,82,56226,1,8,0:0:0:0:
42,82,56288,1,8,0:0:0:0:
59,146,56351,1,4,0:0:0:0:
159,192,56601,1,8,0:0:0:0:
159,192,56726,1,0,0:0:0:0:
159,192,56788,1,0,0:0:0:0:
159,192,56851,1,0,0:0:0:0:
176,183,56976,1,0,0:0:0:0:
176,183,57101,1,8,0:0:0:0:
161,115,57226,1,0,0:0:0:0:
161,115,57288,1,0,0:0:0:0:
176,183,57351,1,0,0:0:0:0:
176,183,57476,1,0,0:0:0:0:
176,183,57538,1,0,0:0:0:0:
176,183,57601,1,8,0:0:0:0:
161,115,57726,1,0,0:0:0:0:
161,115,57851,1,0,0:0:0:0:
161,115,57976,1,0,0:0:0:0:
161,115,58101,1,8,0:0:0:0:
156,34,58163,1,8,0:0:0:0:
15,109,58226,1,8,0:0:0:0:
68,62,58288,1,8,0:0:0:0:
15,109,58351,1,0,0:0:0:0:
68,62,58476,1,0,0:0:0:0:
68,62,58601,1,8,0:0:0:0:
205,74,58663,1,8,0:0:0:0:
71,68,58726,1,0,0:0:0:0:
71,68,58788,1,8,0:0:0:0:
71,68,58851,1,0,0:0:0:0:
71,68,58976,1,0,0:0:0:0:
71,68,59101,1,8,0:0:0:0:
71,68,59226,1,8,0:0:0:0:
71,68,59288,1,8,0:0:0:0:
71,68,59351,1,0,0:0:0:0:
71,68,59476,1,0,0:0:0:0:
71,68,59538,1,0,0:0:0:0:
71,68,59601,1,8,0:0:0:0:
116,82,59726,1,0,0:0:0:0:
116,82,59851,1,8,0:0:0:0:
364,124,59913,1,8,0:0:0:0:
116,82,59976,1,0,0:0:0:0:
22,91,60101,1,8,0:0:0:0:
139,68,60226,1,8,0:0:0:0:
139,68,60288,1,8,0:0:0:0:
51,101,60351,1,0,0:0:0:0:
169,28,60476,1,0,0:0:0:0:
169,28,61351,1,0,0:0:0:0:
169,28,61476,1,0,0:0:0:0:
146,107,62351,1,4,0:0:0:0:
146,107,62851,1,0,0:0:0:0:
170,116,63351,1,0,0:0:0:0:
170,116,63851,1,0,0:0:0:0:
170,116,64351,1,0,0:0:0:0:
170,116,64851,1,0,0:0:0:0:
170,116,65350,1,8,0:0:0:0:
205,144,66351,1,4,0:0:0:0:
97,144,66476,1,0,0:0:0:0:
223,107,66601,1,8,0:0:0:0:
223,107,66726,1,0,0:0:0:0:
223,107,66788,1,0,0:0:0:0:
223,107,66851,1,0,0:0:0:0:
223,107,66976,1,0,0:0:0:0:
223,107,67101,1,8,0:0:0:0:
196,55,67226,1,0,0:0:0:0:
29,159,67351,1,8,0:0:0:0:
156,169,67413,1,0,0:0:0:0:
135,83,67476,1,0,0:0:0:0:
135,83,67538,1,0,0:0:0:0:
135,83,67601,1,8,0:0:0:0:
135,83,67726,1,0,0:0:0:0:
48,117,67851,1,0,0:0:0:0:
48,117,67913,1,0,0:0:0:0:
135,83,67976,1,0,0:0:0:0:
135,83,68101,1,8,0:0:0:0:
48,117,68226,1,8,0:0:0:0:
135,83,68351,1,0,0:0:0:0:
135,83,68601,1,8,0:0:0:0:
135,83,68726,1,0,0:0:0:0:
135,83,68976,1,0,0:0:0:0:
135,83,69101,1,8,0:0:0:0:
187,77,69226,1,0,0:0:0:0:
156,153,69351,1,8,0:0:0:0:
156,153,69413,1,8,0:0:0:0:
187,83,69476,1,0,0:0:0:0:
187,83,69601,1,8,0:0:0:0:
187,83,69726,1,0,0:0:0:0:
156,153,69788,1,0,0:0:0:0:
58,91,69851,1,0,0:0:0:0:
187,83,69976,1,0,0:0:0:0:
187,83,70101,1,8,0:0:0:0:
291,91,70351,1,8,0:0:0:0:
291,91,70413,1,8,0:0:0:0:
291,91,70476,1,0,0:0:0:0:
291,91,70601,1,8,0:0:0:0:
291,91,70726,1,0,0:0:0:0:
291,91,70851,1,8,0:0:0:0:
291,91,70913,1,0,0:0:0:0:
291,91,70976,1,0,0:0:0:0:
128,37,71038,1,0,0:0:0:0:
291,91,71101,1,8,0:0:0:0:
291,91,71226,1,0,0:0:0:0:
291,91,71351,1,0,0:0:0:0:
199,149,71413,1,0,0:0:0:0:
126,62,71476,1,0,0:0:0:0:
126,62,71601,1,8,0:0:0:0:
126,62,71726,1,0,0:0:0:0:
127,67,71851,1,0,0:0:0:0:
189,72,71913,1,8,0:0:0:0:
127,67,71976,1,0,0:0:0:0:
127,67,72038,1,0,0:0:0:0:
127,67,72101,1,8,0:0:0:0:
127,67,72226,1,0,0:0:0:0:
127,67,72351,1,8,0:0:0:0:
127,67,72413,1,8,0:0:0:0:
127,67,72476,1,0,0:0:0:0:
125,73,72601,1,8,0:0:0:0:
127,67,72726,1,0,0:0:0:0:
125,73,72788,1,0,0:0:0:0:
125,73,72851,1,8,0:0:0:0:
127,67,72976,1,8,0:0:0:0:
153,22,73101,1,8,0:0:0:0:
362,94,73163,1,0,0:0:0:0:
362,94,73226,1,8,0:0:0:0:
153,56,73288,1,0,0:0:0:0:
151,58,73351,1,0,0:0:0:0:
146,107,74351,1,4,0:0:0:0:
146,107,74851,1,8,0:0:0:0:
170,116,75351,1,0,0:0:0:0:
170,116,75601,1,0,0:0:0:0:
170,116,75851,1,8,0:0:0:0:
170,116,76351,1,0,0:0:0:0:
170,116,76851,1,8,0:0:0:0:
178,68,77226,1,8,0:0:0:0:
170,116,77351,1,0,0:0:0:0:
170,116,77601,1,0,0:0:0:0:
178,68,77851,1,8,0:0:0:0:
178,68,78101,1,8,0:0:0:0:
178,68,78226,1,8,0:0:0:0:
178,68,78351,1,4,0:0:0:0:
162,158,78851,1,8,0:0:0:0:
289,128,79351,1,0,0:0:0:0:
289,128,79601,1,0,0:0:0:0:
289,128,79851,1,8,0:0:0:0:
186,99,80101,1,0,0:0:0:0:
40,122,80351,1,0,0:0:0:0:
301,170,80601,1,0,0:0:0:0:
40,122,80851,1,8,0:0:0:0:
40,122,81226,1,8,0:0:0:0:
40,122,81351,1,0,0:0:0:0:
40,122,81601,1,0,0:0:0:0:
40,122,81851,1,8,0:0:0:0:
40,122,82101,1,8,0:0:0:0:
40,122,82226,1,8,0:0:0:0:
40,122,82351,1,4,0:0:0:0:
209,103,82601,1,0,0:0:0:0:
209,103,82851,1,8,0:0:0:0:
221,152,83101,1,8,0:0:0:0:
211,103,83351,1,0,0:0:0:0:
211,103,83601,1,0,0:0:0:0:
211,103,83851,1,8,0:0:0:0:
211,103,84101,1,8,0:0:0:0:
211,103,84226,1,8,0:0:0:0:
158,132,84351,1,0,0:0:0:0:
164,100,84601,1,8,0:0:0:0:
164,100,84851,1,8,0:0:0:0:
163,100,85101,1,0,0:0:0:0:
163,100,85226,1,8,0:0:0:0:
163,100,85351,1,0,0:0:0:0:
163,100,85601,1,0,0:0:0:0:
163,100,85851,1,8,0:0:0:0:
87,123,86101,1,8,0:0:0:0:
87,123,86226,1,8,0:0:0:0:
87,123,86351,1,4,0:0:0:0:
88,123,86851,1,8,0:0:0:0:
88,123,87101,1,0,0:0:0:0:
88,123,87351,1,0,0:0:0:0:
88,123,87601,1,0,0:0:0:0:
88,123,87726,1,0,0:0:0:0:
88,123,87851,1,8,0:0:0:0:
88,123,87976,1,8,0:0:0:0:
88,123,88226,1,8,0:0:0:0:
88,123,88351,1,0,0:0:0:0:
236,86,88851,1,8,0:0:0:0:
236,86,89226,1,8,0:0:0:0:
236,86,89351,1,0,0:0:0:0:
236,86,89601,1,0,0:0:0:0:
236,86,89851,1,8,0:0:0:0:
236,86,90101,1,8,0:0:0:0:
236,86,90226,1,8,0:0:0:0:
236,86,90351,1,4,0:0:0:0:
249,54,90601,1,8,0:0:0:0:
249,54,90726,1,8,0:0:0:0:
249,54,90851,1,0,0:0:0:0:
249,54,90976,1,0,0:0:0:0:
249,54,91101,1,8,0:0:0:0:
249,54,91226,1,8,0:0:0:0:
201,36,91288,1,8,0:0:0:0:
249,54,91351,1,0,0:0:0:0:
249,54,91476,1,0,0:0:0:0:
249,54,91601,1,8,0:0:0:0:
257,54,91726,1,8,0:0:0:0:
257,54,91851,1,0,0:0:0:0:
257,54,91976,1,0,0:0:0:0:
257,54,92101,1,8,0:0:0:0:
257,54,92226,1,8,0:0:0:0:
156,128,92288,1,8,0:0:0:0:
257,54,92351,1,0,0:0:0:0:
260,64,92476,1,0,0:0:0:0:
260,64,92601,1,8,0:0:0:0:
263,56,92726,1,8,0:0:0:0:
194,54,92851,1,0,0:0:0:0:
194,54,92976,1,0,0:0:0:0:
194,54,93101,1,8,0:0:0:0:
194,54,93226,1,8,0:0:0:0:
194,54,93351,1,0,0:0:0:0:
47,91,93476,1,0,0:0:0:0:
47,91,93538,1,0,0:0:0:0:
47,91,93601,1,8,0:0:0:0:
41,90,93726,1,8,0:0:0:0:
257,54,93851,1,0,0:0:0:0:
257,54,93976,1,0,0:0:0:0:
257,54,94101,1,8,0:0:0:0:
257,54,94226,1,8,0:0:0:0:
261,144,94288,1,8,0:0:0:0:
257,54,94351,1,0,0:0:0:0:
136,190,94476,1,0,0:0:0:0:
136,190,94601,1,8,0:0:0:0:
136,190,94726,1,8,0:0:0:0:
136,190,94851,1,0,0:0:0:0:
136,190,94976,1,0,0:0:0:0:
136,190,95101,1,8,0:0:0:0:
136,190,95226,1,8,0:0:0:0:
129,186,95351,1,0,0:0:0:0:
129,186,95476,1,0,0:0:0:0:
129,186,95538,1,0,0:0:0:0:
129,186,95601,1,8,0:0:0:0:
129,186,95726,1,8,0:0:0:0:
129,186,95851,1,0,0:0:0:0:
124,188,95976,1,0,0:0:0:0:
124,188,96101,1,8,0:0:0:0:
124,188,96226,1,8,0:0:0:0:
244,119,96288,1,8,0:0:0:0:
124,188,96351,1,0,0:0:0:0:
202,74,96476,1,0,0:0:0:0:
202,74,96601,1,8,0:0:0:0:
195,53,96726,1,0,0:0:0:0:
196,53,96851,1,8,0:0:0:0:
120,53,96976,1,0,0:0:0:0:
120,53,97101,1,8,0:0:0:0:
120,53,97226,1,8,0:0:0:0:
120,53,97351,1,0,0:0:0:0:
235,90,97601,1,8,0:0:0:0:
235,90,97726,1,8,0:0:0:0:
235,90,97851,1,0,0:0:0:0:
235,90,97976,1,8,0:0:0:0:
195,75,98101,1,8,0:0:0:0:
195,75,98226,1,8,0:0:0:0:
188,65,98351,1,0,0:0:0:0:
216,159,98601,1,0,0:0:0:0:
153,89,98726,1,0,0:0:0:0:
216,159,98851,1,8,0:0:0:0:
216,159,98976,1,8,0:0:0:0:
151,89,99038,1,8,0:0:0:0:
216,159,99101,1,0,0:0:0:0:
216,159,99226,1,8,0:0:0:0:
216,159,99351,1,0,0:0:0:0:
151,90,99476,1,0,0:0:0:0:
143,95,99601,1,8,0:0:0:0:
143,95,99726,1,0,0:0:0:0:
143,95,99851,1,8,0:0:0:0:
143,95,99976,1,8,0:0:0:0:
143,95,100038,1,8,0:0:0:0:
143,95,100101,1,0,0:0:0:0:
143,95,100226,1,8,0:0:0:0:
143,95,100351,1,0,0:0:0:0:
136,92,100476,1,0,0:0:0:0:
136,92,100538,1,0,0:0:0:0:
136,92,100601,1,8,0:0:0:0:
136,92,100726,1,0,0:0:0:0:
136,92,100851,1,8,0:0:0:0:
136,92,100976,1,8,0:0:0:0:
136,92,101101,1,0,0:0:0:0:
136,92,101226,1,8,0:0:0:0:
136,92,101351,1,0,0:0:0:0:
136,92,101601,1,0,0:0:0:0:
136,92,101851,1,8,0:0:0:0:
136,92,102101,1,8,0:0:0:0:
136,92,102226,1,8,0:0:0:0:
163,85,102351,1,0,0:0:0:0:
352,122,102476,1,0,0:0:0:0:
352,122,102538,1,0,0:0:0:0:
352,122,102601,1,8,0:0:0:0:
352,122,102726,1,0,0:0:0:0:
352,122,102851,1,8,0:0:0:0:
352,122,102976,1,8,0:0:0:0:
334,123,103101,1,0,0:0:0:0:
333,122,103226,1,8,0:0:0:0:
163,85,103351,1,0,0:0:0:0:
352,122,103476,1,0,0:0:0:0:
352,122,103601,1,8,0:0:0:0:
352,122,103726,1,0,0:0:0:0:
352,122,103851,1,8,0:0:0:0:
352,122,103976,1,0,0:0:0:0:
334,123,104101,1,8,0:0:0:0:
333,122,104226,1,8,0:0:0:0:
172,174,104351,1,0,0:0:0:0:
149,150,104601,1,0,0:0:0:0:
149,150,104851,1,8,0:0:0:0:
12,131,105226,1,0,0:0:0:0:
160,63,105288,1,0,0:0:0:0:
154,64,105351,1,0,0:0:0:0:
319,71,105601,1,0,0:0:0:0:
314,82,105851,1,8,0:0:0:0:
314,82,106101,1,8,0:0:0:0:
314,82,106226,1,0,0:0:0:0:
314,82,106351,1,0,0:0:0:0:
179,114,106476,1,0,0:0:0:0:
179,114,106601,1,8,0:0:0:0:
191,81,106726,1,0,0:0:0:0:
191,81,106851,1,0,0:0:0:0:
191,81,106913,1,0,0:0:0:0:
191,81,106976,1,0,0:0:0:0:
191,81,107101,1,8,0:0:0:0:
191,81,107351,1,8,0:0:0:0:
187,12,107476,1,0,0:0:0:0:
171,70,107601,1,8,0:0:0:0:
171,70,107726,1,8,0:0:0:0:
171,70,107851,1,0,0:0:0:0:
171,70,107976,1,0,0:0:0:0:
171,70,108101,1,8,0:0:0:0:
171,70,108351,1,0,0:0:0:0:
171,70,108476,1,0,0:0:0:0:
171,70,108538,1,0,0:0:0:0:
171,70,108601,1,8,0:0:0:0:
171,70,108726,1,0,0:0:0:0:
171,70,108788,1,0,0:0:0:0:
171,70,108851,1,8,0:0:0:0:
171,70,108976,1,8,0:0:0:0:
171,70,109038,1,0,0:0:0:0:
171,70,109101,1,8,0:0:0:0:
171,70,109163,1,8,0:0:0:0:
171,70,109226,1,0,0:0:0:0:
138,71,109288,1,0,0:0:0:0:
171,70,109351,1,8,0:0:0:0:
59,146,110351,1,4,0:0:0:0:
159,192,110601,1,8,0:0:0:0:
159,192,110726,1,0,0:0:0:0:
159,192,110788,1,0,0:0:0:0:
159,192,110851,1,0,0:0:0:0:
176,183,110976,1,0,0:0:0:0:
176,183,111101,1,8,0:0:0:0:
161,115,111226,1,0,0:0:0:0:
161,115,111288,1,8,0:0:0:0:
176,183,111351,1,0,0:0:0:0:
176,183,111476,1,0,0:0:0:0:
176,183,111538,1,0,0:0:0:0:
176,183,111601,1,8,0:0:0:0:
161,115,111726,1,0,0:0:0:0:
161,115,111788,1,0,0:0:0:0:
161,115,111851,1,0,0:0:0:0:
161,115,111913,1,8,0:0:0:0:
161,115,111976,1,0,0:0:0:0:
161,115,112101,1,8,0:0:0:0:
15,109,112226,1,8,0:0:0:0:
15,109,112351,1,0,0:0:0:0:
68,62,112476,1,0,0:0:0:0:
68,62,112538,1,0,0:0:0:0:
68,62,112601,1,8,0:0:0:0:
71,68,112726,1,0,0:0:0:0:
71,68,112788,1,0,0:0:0:0:
71,68,112851,1,0,0:0:0:0:
71,68,112976,1,0,0:0:0:0:
71,68,113101,1,8,0:0:0:0:
71,68,113226,1,8,0:0:0:0:
71,68,113288,1,8,0:0:0:0:
71,68,113351,1,0,0:0:0:0:
71,68,113476,1,0,0:0:0:0:
71,68,113601,1,8,0:0:0:0:
116,82,113726,1,0,0:0:0:0:
116,82,113788,1,0,0:0:0:0:
116,82,113851,1,8,0:0:0:0:
116,82,113976,1,0,0:0:0:0:
22,91,114101,1,8,0:0:0:0:
139,68,114226,1,8,0:0:0:0:
139,68,114288,1,8,0:0:0:0:
51,101,114351,1,0,0:0:0:0:
53,76,114476,1,0,0:0:0:0:
53,76,114538,1,0,0:0:0:0:
53,76,114601,1,8,0:0:0:0:
213,79,114663,1,8,0:0:0:0:
53,76,114726,1,0,0:0:0:0:
53,76,114851,1,0,0:0:0:0:
53,76,114976,1,0,0:0:0:0:
171,87,115101,1,8,0:0:0:0:
171,87,115226,1,0,0:0:0:0:
171,87,115351,1,8,0:0:0:0:
171,87,115476,1,0,0:0:0:0:
171,87,115538,1,0,0:0:0:0:
171,87,115601,1,8,0:0:0:0:
171,87,115726,1,0,0:0:0:0:
171,87,115788,1,0,0:0:0:0:
171,87,115851,1,8,0:0:0:0:
52,143,115913,1,8,0:0:0:0:
163,83,115976,1,0,0:0:0:0:
166,84,116101,1,8,0:0:0:0:
165,78,116226,1,0,0:0:0:0:
165,78,116351,1,0,0:0:0:0:
165,78,116476,1,0,0:0:0:0:
165,78,116538,1,0,0:0:0:0:
165,78,116601,1,8,0:0:0:0:
165,78,116726,1,0,0:0:0:0:
165,78,116788,1,0,0:0:0:0:
165,78,116851,1,8,0:0:0:0:
165,78,116976,1,0,0:0:0:0:
165,78,117101,1,8,0:0:0:0:
56,57,117226,1,0,0:0:0:0:
56,57,117351,1,8,0:0:0:0:
56,57,117413,1,8,0:0:0:0:
56,57,117476,1,0,0:0:0:0:
213,79,117538,1,0,0:0:0:0:
56,57,117601,1,8,0:0:0:0:
56,57,117726,1,0,0:0:0:0:
42,82,117851,1,0,0:0:0:0:
42,82,117976,1,8,0:0:0:0:
42,82,118038,1,0,0:0:0:0:
42,82,118101,1,8,0:0:0:0:
42,82,118226,1,8,0:0:0:0:
59,146,118351,1,4,0:0:0:0:
159,192,118601,1,8,0:0:0:0:
159,192,118726,1,0,0:0:0:0:
159,192,118788,1,0,0:0:0:0:
159,192,118851,1,0,0:0:0:0:
176,183,118976,1,0,0:0:0:0:
176,183,119101,1,8,0:0:0:0:
161,115,119226,1,0,0:0:0:0:
161,115,119288,1,0,0:0:0:0:
176,183,119351,1,0,0:0:0:0:
176,183,119476,1,0,0:0:0:0:
176,183,119538,1,0,0:0:0:0:
176,183,119601,1,8,0:0:0:0:
161,115,119726,1,0,0:0:0:0:
161,115,119788,1,0,0:0:0:0:
161,115,119851,1,0,0:0:0:0:
161,115,119976,1,0,0:0:0:0:
161,115,120101,1,8,0:0:0:0:
15,109,120226,1,8,0:0:0:0:
15,109,120351,1,0,0:0:0:0:
68,62,120476,1,0,0:0:0:0:
68,62,120538,1,0,0:0:0:0:
68,62,120601,1,8,0:0:0:0:
71,68,120726,1,0,0:0:0:0:
71,68,120851,1,0,0:0:0:0:
71,68,120913,1,8,0:0:0:0:
71,68,120976,1,0,0:0:0:0:
71,68,121101,1,8,0:0:0:0:
71,68,121226,1,8,0:0:0:0:
71,68,121288,1,8,0:0:0:0:
71,68,121351,1,0,0:0:0:0:
71,68,121476,1,0,0:0:0:0:
71,68,121601,1,8,0:0:0:0:
116,82,121726,1,8,0:0:0:0:
116,82,121788,1,8,0:0:0:0:
116,82,121851,1,0,0:0:0:0:
116,82,121913,1,8,0:0:0:0:
116,82,121976,1,0,0:0:0:0:
22,91,122101,1,8,0:0:0:0:
139,68,122163,1,8,0:0:0:0:
139,68,122226,1,8,0:0:0:0:
139,68,122288,1,8,0:0:0:0:
51,101,122351,1,0,0:0:0:0:
169,28,122476,1,0,0:0:0:0:
194,99,123351,1,0,0:0:0:0:
194,99,123476,1,0,0:0:0:0:
279,224,124351,1,0,0:0:0:0:
279,224,124851,1,0,0:0:0:0:
279,224,125351,1,0,0:0:0:0:
290,142,125601,1,8,0:0:0:0:
290,142,125726,1,8,0:0:0:0:
279,224,125851,1,0,0:0:0:0:
290,142,125976,1,0,0:0:0:0:
279,224,126351,1,0,0:0:0:0:
290,142,126601,1,0,0:0:0:0:
279,224,126851,1,8,0:0:0:0:
290,142,127101,1,8,0:0:0:0:
279,224,127351,1,0,0:0:0:0:
288,142,127601,1,8,0:0:0:0:
288,142,127726,1,8,0:0:0:0:
279,224,127851,1,0,0:0:0:0:
190,152,127976,1,8,0:0:0:0:
279,224,128101,1,8,0:0:0:0:
288,142,128226,1,0,0:0:0:0:
279,224,128351,1,8,0:0:0:0:
288,132,128601,1,8,0:0:0:0:
279,224,128851,1,0,0:0:0:0:
289,131,129100,1,8,0:0:0:0:
279,224,129350,1,0,0:0:0:0:
289,131,129600,1,8,0:0:0:0:
247,68,129684,1,8,0:0:0:0:
247,68,129767,1,8,0:0:0:0:
279,224,129850,1,0,0:0:0:0:
412,47,129975,1,8,0:0:0:0:
114,126,130101,1,8,0:0:0:0:
412,47,130225,1,0,0:0:0:0:
279,224,130350,1,8,0:0:0:0:
317,109,130475,1,8,0:0:0:0:
254,178,130601,1,0,0:0:0:0:
317,109,130725,1,8,0:0:0:0:
279,224,130850,1,0,0:0:0:0:
279,224,131351,1,0,0:0:0:0:
317,109,131601,1,8,0:0:0:0:
176,112,131726,1,0,0:0:0:0:
279,224,131851,1,0,0:0:0:0:
317,109,131976,1,0,0:0:0:0:
317,109,132101,1,8,0:0:0:0:
317,109,132226,1,8,0:0:0:0:
279,224,132351,1,0,0:0:0:0:
128,160,132476,1,0,0:0:0:0:
317,109,132601,1,8,0:0:0:0:
317,109,132726,1,8,0:0:0:0:
279,224,132851,1,0,0:0:0:0:
317,109,132976,1,8,0:0:0:0:
144,160,133101,1,8,0:0:0:0:
317,109,133226,1,8,0:0:0:0:
279,224,133351,1,0,0:0:0:0:
366,114,133434,1,8,0:0:0:0:
366,114,133517,1,8,0:0:0:0:
366,114,133601,1,0,0:0:0:0:
311,65,133726,1,8,0:0:0:0:
279,224,133851,1,0,0:0:0:0:
160,128,133976,1,0,0:0:0:0:
311,65,134101,1,8,0:0:0:0:
311,65,134226,1,8,0:0:0:0:
279,224,134351,1,0,0:0:0:0:
330,56,134476,1,0,0:0:0:0:
160,96,134601,1,8,0:0:0:0:
330,56,134726,1,0,0:0:0:0:
279,224,134851,1,0,0:0:0:0:
12,85,134976,1,8,0:0:0:0:
12,85,135101,1,8,0:0:0:0:
96,144,135226,1,0,0:0:0:0:
279,224,135351,1,0,0:0:0:0:
26,73,135476,1,8,0:0:0:0:
26,73,135601,1,8,0:0:0:0:
279,224,135851,1,8,0:0:0:0:
152,55,135976,1,0,0:0:0:0:
279,224,136351,1,0,0:0:0:0:
454,47,136434,1,8,0:0:0:0:
454,47,136517,1,8,0:0:0:0:
454,47,136601,1,0,0:0:0:0:
454,47,136684,1,8,0:0:0:0:
320,64,136767,1,8,0:0:0:0:
279,224,136851,1,0,0:0:0:0:
379,84,136934,1,0,0:0:0:0:
379,84,137017,1,8,0:0:0:0:
379,84,137101,1,0,0:0:0:0:
379,84,137184,1,8,0:0:0:0:
379,84,137267,1,8,0:0:0:0:
279,224,137351,1,0,0:0:0:0:
279,224,137851,1,0,0:0:0:0:
279,224,138101,1,8,0:0:0:0:
279,224,138351,1,0,0:0:0:0:
83,86,138434,1,8,0:0:0:0:
83,86,138517,1,8,0:0:0:0:
83,86,138601,1,0,0:0:0:0:
83,86,138684,1,8,0:0:0:0:
288,48,138767,1,0,0:0:0:0:
279,224,138851,1,8,0:0:0:0:
75,85,139101,1,8,0:0:0:0:
279,224,139351,1,0,0:0:0:0:
86,83,139601,1,8,0:0:0:0:
279,224,139851,1,8,0:0:0:0:
279,224,140101,1,0,0:0:0:0:
279,224,140351,1,8,0:0:0:0:
279,224,140851,1,0,0:0:0:0:
128,64,141101,1,8,0:0:0:0:
384,64,141226,1,8,0:0:0:0:
279,224,141351,1,0,0:0:0:0:
279,224,141851,1,0,0:0:0:0:
160,112,141976,1,0,0:0:0:0:
201,57,142101,1,8,0:0:0:0:
194,54,142226,1,8,0:0:0:0:
279,224,142351,1,0,0:0:0:0:
279,224,142601,1,8,0:0:0:0:
112,128,142726,1,0,0:0:0:0:
279,224,142851,1,8,0:0:0:0:
240,128,142976,1,0,0:0:0:0:
279,224,143101,1,8,0:0:0:0:
279,224,143351,1,0,0:0:0:0:
139,161,143851,1,8,0:0:0:0:
139,161,144101,1,8,0:0:0:0:
139,161,144226,1,8,0:0:0:0:
279,225,144351,1,0,0:0:0:0:
139,161,144601,1,8,0:0:0:0:
176,91,144851,1,0,0:0:0:0:
144,159,145101,1,8,0:0:0:0:
124,124,145351,1,0,0:0:0:0:
144,159,145601,1,8,0:0:0:0:
144,159,145726,1,8,0:0:0:0:
176,91,145851,1,0,0:0:0:0:
144,159,146101,1,0,0:0:0:0:
144,159,146226,1,8,0:0:0:0:
176,91,146351,1,0,0:0:0:0:
176,116,146601,1,8,0:0:0:0:
176,116,146726,1,8,0:0:0:0:
176,91,146851,1,0,0:0:0:0:
176,117,146976,1,8,0:0:0:0:
162,136,147226,1,8,0:0:0:0:
176,91,147351,1,0,0:0:0:0:
176,91,147851,1,0,0:0:0:0:
181,89,148101,1,0,0:0:0:0:
181,89,148226,1,8,0:0:0:0:
176,91,148351,1,0,0:0:0:0:
176,91,148476,1,0,0:0:0:0:
176,91,148601,1,8,0:0:0:0:
179,87,148851,1,0,0:0:0:0:
164,31,149101,1,8,0:0:0:0:
179,87,149226,1,0,0:0:0:0:
179,87,149351,1,0,0:0:0:0:
164,31,149476,1,8,0:0:0:0:
164,31,149601,1,8,0:0:0:0:
162,37,149726,1,0,0:0:0:0:
162,37,149851,1,0,0:0:0:0:
162,37,149976,1,8,0:0:0:0:
161,42,150226,1,0,0:0:0:0:
180,145,150351,1,0,0:0:0:0:
180,145,150476,1,0,0:0:0:0:
180,145,150601,1,8,0:0:0:0:
180,145,150726,1,8,0:0:0:0:
180,145,150851,1,0,0:0:0:0:
178,126,150976,1,8,0:0:0:0:
178,126,151226,1,8,0:0:0:0:
178,126,151351,1,0,0:0:0:0:
178,126,151476,1,8,0:0:0:0:
178,126,151601,1,8,0:0:0:0:
180,124,151851,1,0,0:0:0:0:
180,124,151976,1,8,0:0:0:0:
180,124,152101,1,0,0:0:0:0:
180,124,152226,1,0,0:0:0:0:
180,124,152351,1,0,0:0:0:0:
156,65,152601,1,8,0:0:0:0:
180,124,152851,1,0,0:0:0:0:
156,65,153101,1,8,0:0:0:0:
180,124,153351,1,0,0:0:0:0:
156,65,153601,1,8,0:0:0:0:
156,65,153726,1,8,0:0:0:0:
180,124,153851,1,0,0:0:0:0:
156,65,154101,1,0,0:0:0:0:
156,65,154226,1,8,0:0:0:0:
180,124,154351,1,0,0:0:0:0:
306,112,154601,1,8,0:0:0:0:
306,112,154726,1,8,0:0:0:0:
180,124,154851,1,0,0:0:0:0:
306,112,154976,1,8,0:0:0:0:
306,112,155226,1,8,0:0:0:0:
180,124,155351,1,0,0:0:0:0:
180,124,155851,1,0,0:0:0:0:
229,94,156101,1,8,0:0:0:0:
180,124,156351,1,0,0:0:0:0:
450,70,156517,1,8,0:0:0:0:
450,70,156601,1,0,0:0:0:0:
450,70,156684,1,8,0:0:0:0:
450,70,156767,1,8,0:0:0:0:
450,70,156851,1,0,0:0:0:0:
363,90,156976,1,8,0:0:0:0:
363,90,157101,1,0,0:0:0:0:
363,90,157226,1,8,0:0:0:0:
288,53,157351,1,0,0:0:0:0:
288,53,157476,1,0,0:0:0:0:
288,53,157601,1,8,0:0:0:0:
288,53,157726,1,0,0:0:0:0:
245,103,158101,1,0,0:0:0:0:
245,103,158351,1,4,0:0:0:0:
122,101,158601,1,0,0:0:0:0:
122,101,158726,1,0,0:0:0:0:
122,68,158851,1,0,0:0:0:0:
122,68,158976,1,0,0:0:0:0:
122,68,159101,1,0,0:0:0:0:
122,68,159226,1,0,0:0:0:0:
122,68,159351,1,12,0:0:0:0:
59,146,160351,1,4,0:0:0:0:
159,192,160601,1,8,0:0:0:0:
159,192,160726,1,0,0:0:0:0:
159,192,160788,1,0,0:0:0:0:
159,192,160851,1,0,0:0:0:0:
176,183,160976,1,0,0:0:0:0:
176,183,161038,1,0,0:0:0:0:
176,183,161101,1,8,0:0:0:0:
161,115,161226,1,0,0:0:0:0:
176,183,161351,1,0,0:0:0:0:
176,183,161413,1,0,0:0:0:0:
176,183,161476,1,0,0:0:0:0:
176,183,161538,1,0,0:0:0:0:
176,183,161601,1,8,0:0:0:0:
161,115,161726,1,0,0:0:0:0:
161,115,161788,1,0,0:0:0:0:
161,115,161851,1,0,0:0:0:0:
161,115,161913,1,8,0:0:0:0:
161,115,161976,1,0,0:0:0:0:
161,115,162101,1,8,0:0:0:0:
15,109,162226,1,8,0:0:0:0:
68,62,162288,1,8,0:0:0:0:
15,109,162351,1,0,0:0:0:0:
68,62,162476,1,0,0:0:0:0:
68,62,162538,1,0,0:0:0:0:
68,62,162601,1,8,0:0:0:0:
71,68,162726,1,0,0:0:0:0:
71,68,162788,1,0,0:0:0:0:
71,68,162851,1,8,0:0:0:0:
71,68,162913,1,8,0:0:0:0:
71,68,162976,1,0,0:0:0:0:
71,68,163101,1,8,0:0:0:0:
71,68,163226,1,8,0:0:0:0:
71,68,163288,1,8,0:0:0:0:
71,68,163351,1,0,0:0:0:0:
71,68,163476,1,0,0:0:0:0:
71,68,163538,1,0,0:0:0:0:
71,68,163601,1,8,0:0:0:0:
116,82,163726,1,0,0:0:0:0:
116,82,163788,1,8,0:0:0:0:
116,82,163851,1,0,0:0:0:0:
116,82,163913,1,8,0:0:0:0:
116,82,163976,1,0,0:0:0:0:
22,91,164101,1,8,0:0:0:0:
139,68,164163,1,8,0:0:0:0:
139,68,164226,1,8,0:0:0:0:
139,68,164288,1,8,0:0:0:0:
51,101,164351,1,0,0:0:0:0:
53,76,164476,1,0,0:0:0:0:
53,76,164601,1,8,0:0:0:0:
213,79,164663,1,8,0:0:0:0:
53,76,164726,1,0,0:0:0:0:
53,76,164851,1,0,0:0:0:0:
53,76,164976,1,0,0:0:0:0:
171,87,165101,1,8,0:0:0:0:
171,87,165226,1,0,0:0:0:0:
171,87,165288,1,0,0:0:0:0:
171,87,165351,1,8,0:0:0:0:
171,87,165476,1,0,0:0:0:0:
171,87,165601,1,8,0:0:0:0:
171,87,165726,1,0,0:0:0:0:
171,87,165788,1,0,0:0:0:0:
171,87,165851,1,0,0:0:0:0:
166,84,165913,1,8,0:0:0:0:
163,83,165976,1,0,0:0:0:0:
166,84,166101,1,8,0:0:0:0:
165,78,166226,1,0,0:0:0:0:
165,78,166288,1,8,0:0:0:0:
165,78,166351,1,0,0:0:0:0:
165,78,166476,1,0,0:0:0:0:
165,78,166538,1,0,0:0:0:0:
165,78,166601,1,8,0:0:0:0:
177,43,166663,1,8,0:0:0:0:
165,78,166726,1,0,0:0:0:0:
165,78,166851,1,8,0:0:0:0:
165,78,166913,1,8,0:0:0:0:
165,78,166976,1,0,0:0:0:0:
165,78,167101,1,8,0:0:0:0:
56,57,167226,1,0,0:0:0:0:
56,57,167351,1,8,0:0:0:0:
56,57,167413,1,8,0:0:0:0:
56,57,167476,1,0,0:0:0:0:
213,79,167538,1,0,0:0:0:0:
56,57,167601,1,8,0:0:0:0:
56,57,167663,1,8,0:0:0:0:
56,57,167726,1,0,0:0:0:0:
42,82,167851,1,0,0:0:0:0:
42,82,167976,1,8,0:0:0:0:
42,82,168038,1,0,0:0:0:0:
42,82,168101,1,8,0:0:0:0:
42,82,168163,1,0,0:0:0:0:
42,82,168226,1,8,0:0:0:0:
59,146,168351,1,4,0:0:0:0:
159,192,168601,1,8,0:0:0:0:
159,192,168726,1,0,0:0:0:0:
159,192,168788,1,0,0:0:0:0:
159,192,168851,1,0,0:0:0:0:
176,183,168976,1,0,0:0:0:0:
176,183,169038,1,0,0:0:0:0:
176,183,169101,1,8,0:0:0:0:
161,115,169226,1,0,0:0:0:0:
176,183,169351,1,0,0:0:0:0:
176,183,169413,1,8,0:0:0:0:
176,183,169476,1,0,0:0:0:0:
176,183,169538,1,0,0:0:0:0:
176,183,169601,1,8,0:0:0:0:
161,115,169726,1,0,0:0:0:0:
161,115,169788,1,0,0:0:0:0:
161,115,169851,1,8,0:0:0:0:
161,115,169976,1,0,0:0:0:0:
161,115,170101,1,8,0:0:0:0:
156,34,170163,1,8,0:0:0:0:
15,109,170226,1,8,0:0:0:0:
68,62,170288,1,8,0:0:0:0:
15,109,170351,1,0,0:0:0:0:
68,62,170476,1,0,0:0:0:0:
68,62,170538,1,0,0:0:0:0:
68,62,170601,1,8,0:0:0:0:
249,89,170663,1,8,0:0:0:0:
71,68,170726,1,0,0:0:0:0:
71,68,170851,1,0,0:0:0:0:
71,68,170976,1,0,0:0:0:0:
71,68,171101,1,8,0:0:0:0:
71,68,171226,1,8,0:0:0:0:
71,68,171288,1,8,0:0:0:0:
71,68,171351,1,0,0:0:0:0:
71,68,171476,1,0,0:0:0:0:
71,68,171538,1,0,0:0:0:0:
71,68,171601,1,8,0:0:0:0:
116,82,171726,1,8,0:0:0:0:
116,82,171788,1,8,0:0:0:0:
116,82,171851,1,0,0:0:0:0:
116,82,171976,1,0,0:0:0:0:
194,99,172038,1,0,0:0:0:0:
22,91,172101,1,8,0:0:0:0:
139,68,172163,1,8,0:0:0:0:
139,68,172226,1,8,0:0:0:0:
139,68,172288,1,8,0:0:0:0:
51,101,172351,1,0,0:0:0:0:
169,28,172476,1,0,0:0:0:0:
249,89,173351,1,0,0:0:0:0:
249,89,173476,1,0,0:0:0:0:
187,152,174851,1,8,0:0:0:0:
149,136,175351,1,8,0:0:0:0:
145,138,175851,1,8,0:0:0:0:
205,144,176351,1,4,0:0:0:0:
223,107,176601,1,8,0:0:0:0:
223,107,176726,1,0,0:0:0:0:
223,107,176788,1,0,0:0:0:0:
223,107,176851,1,0,0:0:0:0:
223,107,176976,1,0,0:0:0:0:
223,107,177101,1,8,0:0:0:0:
196,55,177226,1,0,0:0:0:0:
29,159,177288,1,0,0:0:0:0:
29,159,177351,1,8,0:0:0:0:
135,83,177476,1,0,0:0:0:0:
135,83,177601,1,8,0:0:0:0:
135,83,177726,1,0,0:0:0:0:
48,117,177851,1,0,0:0:0:0:
48,117,177913,1,0,0:0:0:0:
135,83,177976,1,0,0:0:0:0:
48,117,178038,1,0,0:0:0:0:
135,83,178101,1,8,0:0:0:0:
48,117,178226,1,8,0:0:0:0:
48,117,178288,1,8,0:0:0:0:
135,83,178351,1,0,0:0:0:0:
48,117,178476,1,0,0:0:0:0:
135,83,178601,1,8,0:0:0:0:
135,83,178726,1,0,0:0:0:0:
196,55,178788,1,8,0:0:0:0:
196,55,178851,1,0,0:0:0:0:
178,105,178913,1,0,0:0:0:0:
135,83,178976,1,0,0:0:0:0:
135,83,179101,1,8,0:0:0:0:
187,77,179226,1,0,0:0:0:0:
68,156,179288,1,8,0:0:0:0:
187,83,179351,1,8,0:0:0:0:
68,156,179413,1,8,0:0:0:0:
187,83,179476,1,0,0:0:0:0:
187,83,179601,1,8,0:0:0:0:
187,83,179726,1,8,0:0:0:0:
80,100,179788,1,0,0:0:0:0:
58,91,179851,1,0,0:0:0:0:
58,91,179913,1,0,0:0:0:0:
80,100,179976,1,8,0:0:0:0:
187,83,180101,1,8,0:0:0:0:
149,118,180163,1,8,0:0:0:0:
149,118,180226,1,0,0:0:0:0:
149,118,180288,1,0,0:0:0:0:
149,118,180351,1,8,0:0:0:0:
156,118,180476,1,0,0:0:0:0:
170,162,181351,1,0,0:0:0:0:
170,162,181476,1,0,0:0:0:0:
160,154,182851,1,4,0:0:0:0:
160,154,183351,1,0,0:0:0:0:
160,154,183851,1,0,0:0:0:0:
160,154,184351,1,0,0:0:0:0:
160,154,184851,1,0,0:0:0:0:
160,154,185351,1,0,0:0:0:0:
160,154,185851,1,8,0:0:0:0:
263,118,186851,1,4,0:0:0:0:
247,110,186976,1,0,0:0:0:0:
247,110,187101,1,8,0:0:0:0:
247,108,187226,1,0,0:0:0:0:
247,110,187288,1,0,0:0:0:0:
247,108,187351,1,8,0:0:0:0:
247,108,187413,1,8,0:0:0:0:
247,110,187476,1,0,0:0:0:0:
200,110,187601,1,8,0:0:0:0:
200,110,187726,1,8,0:0:0:0:
200,110,187788,1,8,0:0:0:0:
200,110,187851,1,0,0:0:0:0:
200,110,188101,1,8,0:0:0:0:
200,110,188226,1,0,0:0:0:0:
163,157,188476,1,0,0:0:0:0:
256,192,188726,12,0,192851,0:0:0:0:
