osu file format v14

[General]
AudioFilename: audio.mp3
AudioLeadIn: 0
PreviewTime: 159851
Countdown: 0
SampleSet: Normal
StackLeniency: 0.7
Mode: 1
LetterboxInBreaks: 0
WidescreenStoryboard: 1

[Editor]
DistanceSpacing: 1.1
BeatDivisor: 4
GridSize: 16
TimelineZoom: 1.7

[Metadata]
Title:Anoyo-iki no Bus ni Notte Saraba.
TitleUnicode:あの世行きのバスに乗ってさらば。
Artist:TUYU
ArtistUnicode:ツユ
Creator:POCARI SWEAT
Version:Futsuu.
Source:
Tags:japanese rock farewell on that bus tsuyu omotatsu pusu rei yappari ame wa ha furun da ne its it's raining after all やっぱり雨は降るんだね AzyuN おむたつ ぷす 礼衣 Sanjenin Nagi S.Nagi
BeatmapID:2520533
BeatmapSetID:1210752

[Difficulty]
HPDrainRate:7
CircleSize:5
OverallDifficulty:4
ApproachRate:5
SliderMultiplier:1.4
SliderTickRate:1

[Events]
//Background and Video events
0,0,"Evil Anime Girl.jpg",0,0
//Break Periods
//Storyboard Layer 0 (Background)
//Storyboard Layer 1 (Fail)
//Storyboard Layer 2 (Pass)
//Storyboard Layer 3 (Foreground)
//Storyboard Layer 4 (Overlay)
//Storyboard Sound Samples

[TimingPoints]
351,250,4,1,0,100,1,0
351,-111.111111111111,4,1,0,100,0,0
28351,-111.111111111111,4,1,0,100,0,0
48351,-111.111111111111,4,1,0,100,0,1
60351,-111.111111111111,4,1,0,100,0,0
110351,-111.111111111111,4,1,0,100,0,1
122351,-111.111111111111,4,1,0,100,0,0
160351,-111.111111111111,4,1,0,100,0,1
172351,-111.111111111111,4,1,0,100,0,0
176351,-111.111111111111,4,1,0,100,0,1
180351,-111.111111111111,4,1,0,100,0,0
182351,250,4,1,0,100,1,8
182351,-111.111111111111,4,1,0,100,0,8
182851,250,4,1,0,100,1,0
182851,-111.111111111111,4,1,0,100,0,0
189851,-111.111111111111,4,1,0,80,0,0
190851,-111.111111111111,4,1,0,60,0,0
191851,-111.111111111111,4,1,0,45,0,0
192851,-111.111111111111,4,1,0,30,0,0

[HitObjects]
204,152,351,5,4,0:0:0:0:
193,172,851,1,0,0:0:0:0:
193,172,1351,1,0,0:0:0:0:
205,153,1851,1,0,0:0:0:0:
193,172,2351,1,0,0:0:0:0:
193,172,2851,1,0,0:0:0:0:
193,172,3351,1,8,0:0:0:0:
450,187,4351,1,4,0:0:0:0:
367,95,4601,1,8,0:0:0:0:
7,175,4976,1,0,0:0:0:0:
306,107,5101,1,8,0:0:0:0:
223,77,5351,1,0,0:0:0:0:
254,182,5601,1,8,0:0:0:0:
237,120,5976,1,0,0:0:0:0:
145,15,6101,1,8,0:0:0:0:
145,20,6351,1,0,0:0:0:0:
156,66,6601,1,8,0:0:0:0:
157,63,7101,1,8,0:0:0:0:
247,129,7351,1,0,0:0:0:0:
247,129,7601,1,8,0:0:0:0:
61,136,7726,1,0,0:0:0:0:
257,121,8351,1,8,0:0:0:0:
244,108,8601,1,8,0:0:0:0:
244,108,8851,1,0,0:0:0:0:
244,108,9101,1,8,0:0:0:0:
243,97,9351,1,0,0:0:0:0:
227,105,9601,1,8,0:0:0:0:
291,225,9726,1,0,0:0:0:0:
227,105,10101,1,8,0:0:0:0:
250,54,10351,1,0,0:0:0:0:
246,115,10601,1,8,0:0:0:0:
247,109,10851,1,8,0:0:0:0:
247,109,11101,1,0,0:0:0:0:
169,79,11226,1,0,0:0:0:0:
247,109,11351,1,0,0:0:0:0:
192,51,12351,1,4,0:0:0:0:
192,51,12851,1,8,0:0:0:0:
192,51,13351,1,0,0:0:0:0:
192,51,13601,1,0,0:0:0:0:
192,51,13851,1,8,0:0:0:0:
192,51,14351,1,0,0:0:0:0:
191,54,14851,1,8,0:0:0:0:
186,88,15226,1,8,0:0:0:0:
190,60,15351,1,0,0:0:0:0:
189,123,15601,1,0,0:0:0:0:
190,60,15851,1,8,0:0:0:0:
189,123,16101,1,8,0:0:0:0:
194,122,16351,1,4,0:0:0:0:
195,118,16851,1,8,0:0:0:0:
196,115,17351,1,0,0:0:0:0:
196,115,17601,1,0,0:0:0:0:
196,115,17851,1,8,0:0:0:0:
196,115,18351,1,0,0:0:0:0:
196,115,18851,1,8,0:0:0:0:
196,115,19226,1,8,0:0:0:0:
196,115,19351,1,0,0:0:0:0:
196,115,19851,1,8,0:0:0:0:
198,116,20351,1,4,0:0:0:0:
198,116,20601,1,0,0:0:0:0:
198,116,20851,1,8,0:0:0:0:
198,116,21351,1,0,0:0:0:0:
82,127,21601,1,0,0:0:0:0:
198,116,21851,1,8,0:0:0:0:
198,116,22351,1,0,0:0:0:0:
198,116,22851,1,8,0:0:0:0:
198,116,23226,1,8,0:0:0:0:
198,116,23351,1,0,0:0:0:0:
198,116,23851,1,8,0:0:0:0:
198,116,24101,1,8,0:0:0:0:
198,116,24351,1,4,0:0:0:0:
198,116,24851,1,8,0:0:0:0:
198,116,25351,1,0,0:0:0:0:
198,116,25601,1,0,0:0:0:0:
198,116,25851,1,8,0:0:0:0:
198,116,26351,1,4,0:0:0:0:
198,116,26851,1,8,0:0:0:0:
198,116,27351,1,0,0:0:0:0:
198,116,27601,1,0,0:0:0:0:
198,116,27851,1,8,0:0:0:0:
198,116,28101,1,8,0:0:0:0:
198,116,28351,1,4,0:0:0:0:
198,116,28851,1,0,0:0:0:0:
198,116,29351,1,0,0:0:0:0:
227,47,29601,1,8,0:0:0:0:
231,41,29851,1,8,0:0:0:0:
231,41,29976,1,8,0:0:0:0:
198,116,30101,1,8,0:0:0:0:
198,116,30351,1,0,0:0:0:0:
198,116,30851,1,0,0:0:0:0:
198,116,31351,1,0,0:0:0:0:
434,103,31601,1,8,0:0:0:0:
198,116,31851,1,8,0:0:0:0:
198,116,32101,1,8,0:0:0:0:
232,33,32351,1,0,0:0:0:0:
158,56,32851,1,0,0:0:0:0:
245,81,33351,1,0,0:0:0:0:
245,81,33601,1,8,0:0:0:0:
245,80,33851,1,0,0:0:0:0:
245,80,34101,1,8,0:0:0:0:
247,77,34351,1,0,0:0:0:0:
247,77,34851,1,8,0:0:0:0:
247,77,35101,1,0,0:0:0:0:
162,39,35226,1,0,0:0:0:0:
248,76,35351,1,0,0:0:0:0:
248,73,35601,1,8,0:0:0:0:
197,89,35851,1,0,0:0:0:0:
16,143,36351,1,4,0:0:0:0:
16,143,36851,1,8,0:0:0:0:
16,143,37351,1,0,0:0:0:0:
16,143,37601,1,0,0:0:0:0:
16,143,37851,1,8,0:0:0:0:
16,143,38351,1,0,0:0:0:0:
16,143,38851,1,8,0:0:0:0:
16,143,39351,1,0,0:0:0:0:
16,143,39601,1,0,0:0:0:0:
16,143,39851,1,8,0:0:0:0:
16,143,40101,1,8,0:0:0:0:
16,143,40351,1,4,0:0:0:0:
16,143,40851,1,8,0:0:0:0:
16,143,41351,1,0,0:0:0:0:
16,143,41601,1,0,0:0:0:0:
16,143,41851,1,8,0:0:0:0:
16,143,42351,1,0,0:0:0:0:
16,143,42851,1,8,0:0:0:0:
16,143,43351,1,0,0:0:0:0:
16,143,43601,1,0,0:0:0:0:
16,143,43851,1,8,0:0:0:0:
16,143,44351,1,0,0:0:0:0:
16,143,44601,1,8,0:0:0:0:
16,143,44976,1,0,0:0:0:0:
16,143,45101,1,8,0:0:0:0:
274,215,45351,1,0,0:0:0:0:
274,215,45601,1,8,0:0:0:0:
274,215,45976,1,0,0:0:0:0:
274,215,46101,1,8,0:0:0:0:
274,215,46351,1,0,0:0:0:0:
274,215,46601,1,8,0:0:0:0:
274,215,46851,1,8,0:0:0:0:
274,215,47101,1,8,0:0:0:0:
274,215,47351,1,8,0:0:0:0:
274,215,48351,1,4,0:0:0:0:
274,215,48601,1,8,0:0:0:0:
274,215,48851,1,0,0:0:0:0:
274,215,49101,1,8,0:0:0:0:
274,215,49351,1,0,0:0:0:0:
274,215,49601,1,8,0:0:0:0:
274,215,49976,1,0,0:0:0:0:
274,215,50101,1,8,0:0:0:0:
274,215,50351,1,0,0:0:0:0:
126,113,50601,1,8,0:0:0:0:
274,215,50976,1,0,0:0:0:0:
274,215,51101,1,8,0:0:0:0:
274,215,51351,1,0,0:0:0:0:
274,215,51851,1,8,0:0:0:0:
243,104,51976,1,8,0:0:0:0:
274,215,52101,1,8,0:0:0:0:
274,215,52351,1,0,0:0:0:0:
274,215,52851,1,0,0:0:0:0:
274,215,53101,1,8,0:0:0:0:
274,215,53351,1,0,0:0:0:0:
274,215,53601,1,8,0:0:0:0:
274,215,53976,1,0,0:0:0:0:
274,215,54101,1,8,0:0:0:0:
274,215,54351,1,0,0:0:0:0:
274,215,54601,1,8,0:0:0:0:
274,215,54851,1,8,0:0:0:0:
274,215,55101,1,8,0:0:0:0:
274,215,55351,1,8,0:0:0:0:
274,215,55851,1,8,0:0:0:0:
240,101,55976,1,8,0:0:0:0:
274,215,56101,1,8,0:0:0:0:
274,215,56351,1,4,0:0:0:0:
274,215,56851,1,0,0:0:0:0:
274,215,57101,1,8,0:0:0:0:
274,215,57351,1,0,0:0:0:0:
274,215,57601,1,8,0:0:0:0:
274,215,57726,1,0,0:0:0:0:
274,215,58101,1,8,0:0:0:0:
274,215,58351,1,0,0:0:0:0:
239,68,58851,1,0,0:0:0:0:
274,215,59101,1,8,0:0:0:0:
274,215,59351,1,0,0:0:0:0:
274,215,59601,1,8,0:0:0:0:
274,215,59851,1,8,0:0:0:0:
150,118,59976,1,8,0:0:0:0:
274,215,60101,1,8,0:0:0:0:
274,215,60351,1,0,0:0:0:0:
239,68,60476,1,0,0:0:0:0:
274,215,61351,1,0,0:0:0:0:
82,100,61476,1,0,0:0:0:0:
274,215,62351,1,4,0:0:0:0:
233,109,62851,1,0,0:0:0:0:
232,109,63351,1,0,0:0:0:0:
232,109,63851,1,0,0:0:0:0:
232,109,64351,1,0,0:0:0:0:
232,109,64850,1,0,0:0:0:0:
231,109,65350,1,8,0:0:0:0:
450,187,66351,1,4,0:0:0:0:
166,32,66851,1,0,0:0:0:0:
306,107,67101,1,8,0:0:0:0:
223,77,67351,1,0,0:0:0:0:
254,182,67601,1,8,0:0:0:0:
176,45,67726,1,0,0:0:0:0:
145,15,68101,1,8,0:0:0:0:
145,20,68351,1,0,0:0:0:0:
156,66,68601,1,8,0:0:0:0:
157,63,69101,1,8,0:0:0:0:
247,129,69351,1,0,0:0:0:0:
247,129,69601,1,8,0:0:0:0:
130,111,69726,1,0,0:0:0:0:
257,121,70351,1,8,0:0:0:0:
244,108,70601,1,8,0:0:0:0:
244,108,70851,1,0,0:0:0:0:
241,103,70976,1,0,0:0:0:0:
244,108,71101,1,0,0:0:0:0:
243,97,71351,1,0,0:0:0:0:
227,105,71601,1,8,0:0:0:0:
291,225,72101,1,8,0:0:0:0:
250,54,72351,1,0,0:0:0:0:
246,115,72601,1,8,0:0:0:0:
247,109,72851,1,8,0:0:0:0:
247,109,73101,1,8,0:0:0:0:
329,168,73226,1,8,0:0:0:0:
247,109,73351,1,8,0:0:0:0:
192,51,74351,1,4,0:0:0:0:
192,51,74851,1,8,0:0:0:0:
192,51,75351,1,0,0:0:0:0:
192,51,75601,1,0,0:0:0:0:
192,51,75851,1,8,0:0:0:0:
192,51,76351,1,0,0:0:0:0:
191,54,76851,1,8,0:0:0:0:
186,88,77226,1,8,0:0:0:0:
190,60,77351,1,0,0:0:0:0:
189,123,77601,1,0,0:0:0:0:
190,60,77851,1,8,0:0:0:0:
189,123,78101,1,8,0:0:0:0:
194,122,78351,1,4,0:0:0:0:
195,118,78851,1,8,0:0:0:0:
196,115,79351,1,0,0:0:0:0:
196,115,79601,1,0,0:0:0:0:
196,115,79851,1,8,0:0:0:0:
196,115,80351,1,0,0:0:0:0:
196,115,80851,1,8,0:0:0:0:
150,120,81226,1,8,0:0:0:0:
196,115,81351,1,0,0:0:0:0:
161,93,81601,1,8,0:0:0:0:
196,115,81851,1,8,0:0:0:0:
198,116,82351,1,4,0:0:0:0:
198,116,82601,1,0,0:0:0:0:
198,116,82851,1,8,0:0:0:0:
198,116,83101,1,8,0:0:0:0:
198,116,83351,1,0,0:0:0:0:
198,116,83851,1,8,0:0:0:0:
216,136,84101,1,8,0:0:0:0:
198,116,84351,1,0,0:0:0:0:
198,116,84851,1,8,0:0:0:0:
198,116,85226,1,8,0:0:0:0:
198,116,85351,1,0,0:0:0:0:
85,58,85601,1,0,0:0:0:0:
85,58,85851,1,8,0:0:0:0:
198,116,86351,1,0,0:0:0:0:
198,116,86851,1,8,0:0:0:0:
198,116,87351,1,0,0:0:0:0:
198,116,87601,1,0,0:0:0:0:
198,116,87851,1,8,0:0:0:0:
198,116,88351,1,0,0:0:0:0:
198,116,88851,1,8,0:0:0:0:
63,119,89226,1,8,0:0:0:0:
198,116,89351,1,0,0:0:0:0:
198,116,89601,1,0,0:0:0:0:
198,116,89851,1,8,0:0:0:0:
198,116,90351,1,4,0:0:0:0:
230,37,90601,1,0,0:0:0:0:
230,37,90726,1,0,0:0:0:0:
198,116,90851,1,8,0:0:0:0:
199,55,91101,1,8,0:0:0:0:
294,170,91351,1,0,0:0:0:0:
231,41,91851,1,8,0:0:0:0:
231,41,91976,1,8,0:0:0:0:
198,116,92101,1,8,0:0:0:0:
198,116,92351,1,0,0:0:0:0:
232,33,92851,1,0,0:0:0:0:
198,116,93101,1,8,0:0:0:0:
198,116,93351,1,0,0:0:0:0:
198,116,93851,1,0,0:0:0:0:
198,116,94101,1,8,0:0:0:0:
193,48,94226,1,8,0:0:0:0:
232,33,94351,1,8,0:0:0:0:
224,105,94851,1,0,0:0:0:0:
237,99,95101,1,8,0:0:0:0:
234,103,95351,1,0,0:0:0:0:
115,113,95851,1,8,0:0:0:0:
115,113,95976,1,8,0:0:0:0:
245,80,96101,1,8,0:0:0:0:
247,77,96351,1,0,0:0:0:0:
247,77,96851,1,8,0:0:0:0:
247,77,97101,1,0,0:0:0:0:
248,76,97351,1,8,0:0:0:0:
248,73,97601,1,8,0:0:0:0:
107,42,97726,1,8,0:0:0:0:
197,89,97851,1,8,0:0:0:0:
16,143,98351,1,0,0:0:0:0:
16,143,98851,1,8,0:0:0:0:
171,66,99226,1,0,0:0:0:0:
16,143,99351,1,0,0:0:0:0:
16,143,99601,1,0,0:0:0:0:
16,143,99851,1,8,0:0:0:0:
16,143,100351,1,8,0:0:0:0:
164,71,100601,1,8,0:0:0:0:
16,143,100851,1,8,0:0:0:0:
164,66,101226,1,8,0:0:0:0:
16,143,101351,1,0,0:0:0:0:
16,143,101601,1,0,0:0:0:0:
16,143,101851,1,8,0:0:0:0:
16,143,102351,1,0,0:0:0:0:
16,143,102851,1,8,0:0:0:0:
194,140,103226,1,0,0:0:0:0:
16,143,103351,1,0,0:0:0:0:
16,143,103601,1,8,0:0:0:0:
16,143,103851,1,8,0:0:0:0:
16,143,104351,1,0,0:0:0:0:
16,143,104851,1,8,0:0:0:0:
160,38,105226,1,0,0:0:0:0:
16,143,105351,1,0,0:0:0:0:
16,143,105601,1,0,0:0:0:0:
16,143,105851,1,8,0:0:0:0:
16,143,106351,1,8,0:0:0:0:
16,143,106601,1,8,0:0:0:0:
16,143,106976,1,0,0:0:0:0:
16,143,107101,1,8,0:0:0:0:
274,215,107351,1,0,0:0:0:0:
274,215,107601,1,8,0:0:0:0:
274,215,107976,1,0,0:0:0:0:
274,215,108101,1,8,0:0:0:0:
274,215,108351,1,0,0:0:0:0:
274,215,108601,1,8,0:0:0:0:
274,215,108851,1,8,0:0:0:0:
274,215,109101,1,8,0:0:0:0:
274,215,109351,1,8,0:0:0:0:
274,215,110351,1,4,0:0:0:0:
274,215,110851,1,0,0:0:0:0:
274,215,111101,1,8,0:0:0:0:
274,215,111351,1,0,0:0:0:0:
274,215,111601,1,8,0:0:0:0:
173,30,111726,1,0,0:0:0:0:
274,215,112101,1,8,0:0:0:0:
274,215,112351,1,0,0:0:0:0:
274,215,112601,1,8,0:0:0:0:
274,215,112976,1,0,0:0:0:0:
274,215,113101,1,8,0:0:0:0:
274,215,113351,1,0,0:0:0:0:
259,76,113851,1,8,0:0:0:0:
274,215,114101,1,8,0:0:0:0:
274,215,114351,1,0,0:0:0:0:
274,215,114601,1,8,0:0:0:0:
274,215,114976,1,0,0:0:0:0:
274,215,115101,1,8,0:0:0:0:
274,215,115351,1,0,0:0:0:0:
274,215,115601,1,8,0:0:0:0:
274,215,116101,1,8,0:0:0:0:
274,215,116351,1,0,0:0:0:0:
274,215,116601,1,8,0:0:0:0:
274,215,116851,1,8,0:0:0:0:
274,215,117101,1,8,0:0:0:0:
274,215,117351,1,8,0:0:0:0:
274,215,117851,1,0,0:0:0:0:
240,101,117976,1,0,0:0:0:0:
274,215,118101,1,8,0:0:0:0:
274,215,118351,1,4,0:0:0:0:
274,215,118601,1,8,0:0:0:0:
274,215,119101,1,8,0:0:0:0:
274,215,119351,1,0,0:0:0:0:
274,215,119601,1,8,0:0:0:0:
274,215,119726,1,0,0:0:0:0:
274,215,120101,1,8,0:0:0:0:
274,215,120351,1,0,0:0:0:0:
274,215,120601,1,8,0:0:0:0:
330,86,120976,1,0,0:0:0:0:
274,215,121101,1,8,0:0:0:0:
274,215,121351,1,0,0:0:0:0:
274,215,121601,1,8,0:0:0:0:
274,215,121851,1,0,0:0:0:0:
274,215,122101,1,8,0:0:0:0:
274,215,122351,1,0,0:0:0:0:
239,68,122476,1,0,0:0:0:0:
274,215,123351,1,0,0:0:0:0:
196,34,123476,1,0,0:0:0:0:
135,178,124351,1,0,0:0:0:0:
88,158,124851,1,0,0:0:0:0:
86,177,125351,1,0,0:0:0:0:
152,99,125601,1,8,0:0:0:0:
152,99,125851,1,0,0:0:0:0:
200,59,126351,1,0,0:0:0:0:
281,127,126601,1,8,0:0:0:0:
175,155,126851,1,0,0:0:0:0:
207,52,127101,1,8,0:0:0:0:
207,52,127351,1,0,0:0:0:0:
207,52,127601,1,8,0:0:0:0:
207,52,127851,1,8,0:0:0:0:
207,52,128101,1,8,0:0:0:0:
207,52,128351,1,0,0:0:0:0:
127,141,128850,1,0,0:0:0:0:
132,100,129100,1,8,0:0:0:0:
133,102,129350,1,0,0:0:0:0:
135,108,129850,1,0,0:0:0:0:
135,108,130100,1,8,0:0:0:0:
135,103,130350,1,0,0:0:0:0:
128,122,130850,1,0,0:0:0:0:
128,122,131351,1,0,0:0:0:0:
128,122,131601,1,8,0:0:0:0:
128,122,131851,1,0,0:0:0:0:
128,122,132101,1,8,0:0:0:0:
128,122,132226,1,8,0:0:0:0:
128,122,132351,1,0,0:0:0:0:
128,122,132601,1,8,0:0:0:0:
131,114,132851,1,0,0:0:0:0:
354,78,133101,1,8,0:0:0:0:
138,105,133351,1,8,0:0:0:0:
138,105,133851,1,0,0:0:0:0:
138,105,134101,1,8,0:0:0:0:
135,102,134351,1,0,0:0:0:0:
187,42,134601,1,8,0:0:0:0:
135,102,134851,1,0,0:0:0:0:
85,129,135351,1,0,0:0:0:0:
85,127,135601,1,8,0:0:0:0:
156,133,135851,1,0,0:0:0:0:
141,82,136351,1,8,0:0:0:0:
206,59,136476,1,0,0:0:0:0:
139,76,136601,1,8,0:0:0:0:
131,55,136851,1,8,0:0:0:0:
84,110,137101,1,8,0:0:0:0:
131,55,137351,1,8,0:0:0:0:
174,197,137851,1,0,0:0:0:0:
174,197,138101,1,8,0:0:0:0:
141,82,138351,1,8,0:0:0:0:
206,59,138476,1,0,0:0:0:0:
139,76,138601,1,8,0:0:0:0:
131,55,138851,1,8,0:0:0:0:
84,110,139101,1,8,0:0:0:0:
131,55,139351,1,0,0:0:0:0:
154,85,139601,1,8,0:0:0:0:
288,66,139851,1,0,0:0:0:0:
154,85,140351,1,0,0:0:0:0:
154,85,140851,1,0,0:0:0:0:
154,85,141101,1,8,0:0:0:0:
154,85,141351,1,0,0:0:0:0:
166,105,141851,1,0,0:0:0:0:
169,98,142101,1,8,0:0:0:0:
168,124,142351,1,0,0:0:0:0:
168,124,142601,1,0,0:0:0:0:
168,124,142851,1,0,0:0:0:0:
168,124,143101,1,0,0:0:0:0:
168,124,143351,1,0,0:0:0:0:
168,124,143851,1,8,0:0:0:0:
169,119,144101,1,8,0:0:0:0:
168,124,144351,1,0,0:0:0:0:
168,124,144851,1,0,0:0:0:0:
157,125,145351,1,0,0:0:0:0:
168,138,145601,1,8,0:0:0:0:
168,124,145851,1,0,0:0:0:0:
168,124,146351,1,0,0:0:0:0:
168,124,146851,1,0,0:0:0:0:
247,103,147101,1,8,0:0:0:0:
170,57,147351,1,0,0:0:0:0:
45,104,147851,1,0,0:0:0:0:
45,104,148101,1,8,0:0:0:0:
45,104,148226,1,8,0:0:0:0:
45,104,148351,1,8,0:0:0:0:
51,48,148601,1,8,0:0:0:0:
51,49,148851,1,0,0:0:0:0:
223,103,149101,1,8,0:0:0:0:
222,112,149351,1,0,0:0:0:0:
222,111,149851,1,0,0:0:0:0:
222,107,150101,1,0,0:0:0:0:
222,107,150351,1,0,0:0:0:0:
222,104,150851,1,0,0:0:0:0:
222,104,151101,1,8,0:0:0:0:
140,111,151351,1,0,0:0:0:0:
52,131,151851,1,0,0:0:0:0:
168,124,152351,1,0,0:0:0:0:
168,124,152851,1,0,0:0:0:0:
284,108,153101,1,8,0:0:0:0:
157,125,153351,1,0,0:0:0:0:
264,95,153851,1,0,0:0:0:0:
168,124,154351,1,0,0:0:0:0:
168,124,154851,1,0,0:0:0:0:
234,46,155101,1,8,0:0:0:0:
170,57,155351,1,0,0:0:0:0:
159,122,155851,1,0,0:0:0:0:
159,122,156101,1,8,0:0:0:0:
163,97,156351,1,0,0:0:0:0:
163,97,156476,1,8,0:0:0:0:
163,97,156601,1,0,0:0:0:0:
173,79,156851,1,8,0:0:0:0:
170,95,157101,1,8,0:0:0:0:
170,95,157351,1,8,0:0:0:0:
166,111,157851,1,8,0:0:0:0:
161,105,158351,1,4,0:0:0:0:
161,105,158601,1,0,0:0:0:0:
161,105,158726,1,0,0:0:0:0:
161,105,158851,1,0,0:0:0:0:
287,127,158976,1,0,0:0:0:0:
161,105,159101,1,0,0:0:0:0:
192,158,159351,1,12,0:0:0:0:
274,215,160351,1,4,0:0:0:0:
274,215,160851,1,0,0:0:0:0:
274,215,161101,1,8,0:0:0:0:
274,215,161351,1,0,0:0:0:0:
274,215,161601,1,8,0:0:0:0:
274,215,161976,1,0,0:0:0:0:
274,215,162101,1,8,0:0:0:0:
274,215,162351,1,0,0:0:0:0:
274,215,162601,1,8,0:0:0:0:
274,215,162976,1,0,0:0:0:0:
274,215,163101,1,8,0:0:0:0:
274,215,163351,1,0,0:0:0:0:
274,215,163851,1,8,0:0:0:0:
274,215,164101,1,8,0:0:0:0:
274,215,164351,1,0,0:0:0:0:
274,215,164601,1,8,0:0:0:0:
274,215,164851,1,8,0:0:0:0:
274,215,165101,1,8,0:0:0:0:
274,215,165351,1,0,0:0:0:0:
274,215,165601,1,8,0:0:0:0:
274,215,165976,1,0,0:0:0:0:
274,215,166101,1,8,0:0:0:0:
274,215,166351,1,0,0:0:0:0:
274,215,166601,1,8,0:0:0:0:
274,215,166851,1,8,0:0:0:0:
274,215,167101,1,8,0:0:0:0:
274,215,167351,1,0,0:0:0:0:
274,215,167851,1,8,0:0:0:0:
274,215,168101,1,8,0:0:0:0:
274,215,168351,1,4,0:0:0:0:
274,215,168851,1,0,0:0:0:0:
274,215,169101,1,8,0:0:0:0:
274,215,169351,1,0,0:0:0:0:
108,119,169601,1,8,0:0:0:0:
274,215,169976,1,0,0:0:0:0:
274,215,170101,1,8,0:0:0:0:
274,215,170351,1,0,0:0:0:0:
274,215,170601,1,8,0:0:0:0:
196,34,170976,1,0,0:0:0:0:
274,215,171101,1,8,0:0:0:0:
274,215,171351,1,0,0:0:0:0:
274,215,171601,1,8,0:0:0:0:
276,142,171851,1,8,0:0:0:0:
276,142,171976,1,8,0:0:0:0:
274,215,172101,1,8,0:0:0:0:
274,215,172351,1,0,0:0:0:0:
239,68,172476,1,0,0:0:0:0:
274,215,173351,1,0,0:0:0:0:
196,34,173476,1,0,0:0:0:0:
185,133,174851,1,8,0:0:0:0:
185,133,175351,1,8,0:0:0:0:
185,133,175851,1,8,0:0:0:0:
181,134,176351,1,4,0:0:0:0:
181,130,176601,1,8,0:0:0:0:
181,130,176976,1,0,0:0:0:0:
181,130,177101,1,8,0:0:0:0:
181,130,177351,1,0,0:0:0:0:
181,130,177601,1,8,0:0:0:0:
113,168,177851,1,0,0:0:0:0:
181,130,178101,1,8,0:0:0:0:
181,130,178351,1,0,0:0:0:0:
182,134,178601,1,8,0:0:0:0:
182,134,178851,1,8,0:0:0:0:
294,101,178976,1,8,0:0:0:0:
182,134,179101,1,8,0:0:0:0:
340,153,179351,1,0,0:0:0:0:
182,141,179601,1,8,0:0:0:0:
163,50,179851,1,8,0:0:0:0:
175,134,179976,1,8,0:0:0:0:
175,134,180101,1,8,0:0:0:0:
175,134,180351,1,0,0:0:0:0:
226,42,180476,1,0,0:0:0:0:
126,87,181351,1,0,0:0:0:0:
126,87,181476,1,0,0:0:0:0:
147,157,182851,1,0,0:0:0:0:
147,157,183351,1,0,0:0:0:0:
147,157,183851,1,0,0:0:0:0:
147,156,184351,1,0,0:0:0:0:
148,156,184851,1,0,0:0:0:0:
150,156,185351,1,0,0:0:0:0:
150,156,185851,1,8,0:0:0:0:
161,145,186851,1,4,0:0:0:0:
152,139,187101,1,8,0:0:0:0:
148,122,187351,1,8,0:0:0:0:
148,122,187601,1,0,0:0:0:0:
13,104,187726,1,0,0:0:0:0:
148,121,187851,1,0,0:0:0:0:
162,101,188226,1,8,0:0:0:0:
126,80,188476,1,8,0:0:0:0:
256,192,188726,12,0,192851,0:0:0:0:
