osu file format v14

[General]
AudioFilename: audio.mp3
AudioLeadIn: 0
PreviewTime: 48284
Countdown: 0
SampleSet: Soft
StackLeniency: 0.7
Mode: 0
LetterboxInBreaks: 0
WidescreenStoryboard: 0

[Editor]
DistanceSpacing: 0.75
BeatDivisor: 2
GridSize: 32
TimelineZoom: 2.999999

[Metadata]
Title:Anoyo-iki no Bus ni Notte Saraba.
TitleUnicode:あの世行きのバスに乗ってさらば。
Artist:TUYU
ArtistUnicode:ツユ
Creator:Half
Version:Easy
Source:
Tags:Rieri ProEzreal frozz Agatsu Djulus farewell on that basu やっぱり雨は降るんだね yappari ame wa furun da ne it's raining after all japanese rock Pusu ぷす Rei 礼衣 I'm getting on the bus to the other world, see ya! jrock j-rock
BeatmapID:2436235
BeatmapSetID:1066557

[Difficulty]
HPDrainRate:3
CircleSize:3
OverallDifficulty:3
ApproachRate:5
SliderMultiplier:1.00000000596046
SliderTickRate:1

[Events]
//Background and Video events
0,0,"bg.jpg",0,0
//Break Periods
2,4784,11584
2,66784,73584
2,124784,143584
2,174784,175584
//Storyboard Layer 0 (Background)
//Storyboard Layer 1 (Fail)
//Storyboard Layer 2 (Pass)
//Storyboard Layer 3 (Foreground)
//Storyboard Layer 4 (Overlay)
//Storyboard Sound Samples

[TimingPoints]
784,250,4,2,1,45,1,0
784,-142.857142857143,4,2,1,45,0,0
4784,-142.857142857143,4,2,1,45,0,0
12284,-142.857142857143,4,2,1,45,0,0
13034,-142.857142857143,4,2,1,45,0,0
28784,-142.857142857143,4,2,1,55,0,0
44784,-142.857142857143,4,2,1,55,0,0
48784,-142.857142857143,4,2,1,75,0,1
62784,-142.857142857143,4,2,1,45,0,0
66284,-142.857142857143,4,2,1,45,0,0
74284,-142.857142857143,4,2,1,45,0,0
74534,-142.857142857143,4,2,1,45,0,0
75034,-142.857142857143,4,2,1,45,0,0
90784,-142.857142857143,4,2,1,55,0,0
106784,-142.857142857143,4,2,1,55,0,0
110784,-142.857142857143,4,2,1,75,0,1
124784,-142.857142857143,4,2,1,45,0,0
144284,-142.857142857143,4,2,1,45,0,0
158784,-142.857142857143,4,2,1,55,0,0
160784,-142.857142857143,4,2,1,75,0,1
174784,-142.857142857143,4,2,1,55,0,0
175284,-142.857142857143,4,2,1,55,0,0
175784,-142.857142857143,4,2,1,55,0,0
176284,-142.857142857143,4,2,1,45,0,0
176784,-142.857142857143,4,2,1,75,0,1
183284,250,4,2,1,55,1,0
183284,-142.857142857143,4,2,1,55,0,0
187284,-142.857142857143,4,2,1,75,0,1
189159,-142.857142857143,4,2,1,50,0,0
193409,-142.857142857143,4,2,1,30,0,0

[Colours]
Combo1 : 72,149,242
Combo2 : 1,45,116

[HitObjects]
0,315,784,6,0,B|130:268|130:268|238:359|238:359|372:310,1,419.999989686011,2|2,3:2|3:2,3:0:0:0:
313,223,2784,2,0,L|328:82,1,139.999996562004,2|2,1:2|1:2,0:0:0:0:
235,34,3784,1,14,1:2:0:0:
235,34,12784,6,0,P|165:47|98:60,1,139.999996562004,6|10,1:2|0:0,0:0:0:0:
113,164,13784,2,0,P|181:150|250:137,1,139.999996562004,2|10,1:2|0:0,0:0:0:0:
319,58,14784,2,0,P|378:87|388:155,1,139.999996562004,2|10,1:2|0:0,0:0:0:0:
318,234,15784,1,2,1:2:0:0:
384,315,16284,1,8,0:0:0:0:
280,330,16784,6,0,L|140:349,1,139.999996562004,6|10,1:2|0:0,0:0:0:0:
36,359,17784,2,0,L|19:205,1,139.999996562004,2|8,1:2|0:0,0:0:0:0:
5,115,18784,2,0,P|65:80|127:104,1,139.999996562004,2|10,1:2|0:0,0:0:0:0:
137,208,19784,2,0,L|282:233,1,139.999996562004,2|10,1:2|0:0,0:0:0:0:
320,205,20534,1,8,0:0:0:0:
363,175,20784,6,0,L|342:32,1,139.999996562004,6|10,1:2|0:0,0:0:0:0:
446,19,21784,2,0,L|466:157,1,139.999996562004,2|10,1:2|0:0,0:0:0:0:
482,261,22784,2,0,P|447:300|364:283,1,139.999996562004,2|10,1:2|0:0,0:0:0:0:
331,187,23784,2,0,P|280:142|216:161,1,139.999996562004,2|10,1:2|0:0,0:0:0:0:
186,204,24534,1,10,0:0:0:0:
162,250,24784,6,0,L|21:266,1,139.999996562004,4|10,1:2|0:0,0:0:0:0:
32,370,25784,2,0,L|171:354,1,139.999996562004,0|10,1:2|0:0,0:0:0:0:
251,286,26784,2,0,P|314:269|366:315,1,139.999996562004,0|8,1:2|0:0,0:0:0:0:
469,293,27784,1,2,1:2:0:0:
494,191,28284,1,10,0:0:0:0:
451,94,28784,6,0,B|393:55|393:55|323:79,1,139.999996562004,6|2,1:2|1:2,0:0:0:0:
281,169,29784,2,0,B|213:189|213:189|155:152,1,139.999996562004,2|2,1:2|1:2,0:0:0:0:
144,101,30534,1,10,0:0:0:0:
99,78,30784,2,0,B|55:97|55:97|39:192,1,139.999996562004,6|2,1:2|1:2,0:0:0:0:
53,290,31784,2,0,B|107:335|107:335|173:313,1,139.999996562004,2|2,1:2|1:2,0:0:0:0:
189,263,32534,1,10,0:0:0:0:
197,211,32784,5,6,1:2:0:0:
210,106,33284,1,2,1:2:0:0:
313,123,33784,2,0,L|456:148,1,139.999996562004,2|2,1:2|1:2,0:0:0:0:
454,199,34534,1,10,0:0:0:0:
454,251,34784,2,0,L|313:281,1,139.999996562004,6|2,1:2|1:2,0:0:0:0:
233,344,35784,2,0,P|173:368|98:344,1,139.999996562004,2|2,1:2|1:2,0:0:0:0:
68,308,36534,1,10,0:0:0:0:
39,257,36784,6,0,B|63:119|63:119|201:143,1,279.999993124007,6|2,1:2|1:2,0:0:0:0:
255,232,38284,1,10,0:0:0:0:
317,318,38784,2,0,B|454:342|454:342|479:204,1,279.999993124007,2|2,1:2|1:2,0:0:0:0:
407,126,40284,1,10,0:0:0:0:
329,57,40784,6,0,P|190:78|42:101,1,279.999993124007,4|2,1:2|1:2,0:0:0:0:
62,204,42284,1,10,0:0:0:0:
73,308,42784,2,0,P|211:286|349:265,1,279.999993124007,2|2,1:2|1:2,0:0:0:0:
369,162,44284,1,10,0:0:0:0:
377,57,44784,6,0,L|286:70,1,69.9999982810018,6|10,1:2|0:0,0:0:0:0:
255,74,45284,1,2,1:2:0:0:
180,148,45784,2,0,L|89:135,1,69.9999982810018,2|10,1:2|0:0,0:0:0:0:
58,131,46284,1,2,1:2:0:0:
40,234,46784,2,0,B|152:317|152:317|283:267,1,279.999993124007,6|10,1:2|0:0,0:0:0:0:
194,147,48784,5,6,1:2:0:0:
267,72,49284,1,2,1:2:0:0:
364,112,49784,2,0,L|391:259,1,139.999996562004,2|2,1:2|1:2,0:0:0:0:
375,300,50534,1,10,0:0:0:0:
361,351,50784,2,0,P|292:362|231:330,1,139.999996562004,2|2,1:2|1:2,0:0:0:0:
231,225,51784,2,0,P|169:193|101:204,1,139.999996562004,2|2,1:2|1:2,0:0:0:0:
53,224,52534,1,10,0:0:0:0:
21,266,52784,6,0,L|41:128,1,139.999996562004,6|2,1:2|1:2,0:0:0:0:
57,23,53784,2,0,L|226:47,1,139.999996562004,2|2,1:2|1:2,0:0:0:0:
228,83,54534,1,10,0:0:0:0:
272,112,54784,2,0,L|361:99,1,69.9999982810018,6|10,1:2|0:0,0:0:0:0:
393,95,55284,2,0,L|406:184,1,69.9999982810018,10|10,0:0|0:0,0:0:0:0:
408,216,55784,2,0,P|366:269|252:216,1,209.999994843005,10|10,0:0|0:0,0:0:0:0:
206,196,56784,5,6,1:2:0:0:
101,189,57284,1,2,1:2:0:0:
49,281,57784,2,0,L|188:293,1,139.999996562004,2|2,1:2|1:2,0:0:0:0:
225,330,58534,1,10,0:0:0:0:
265,364,58784,2,0,P|319:350|323:271,1,139.999996562004,2|2,1:2|1:2,0:0:0:0:
250,202,59784,2,0,L|266:58,1,139.999996562004,2|2,1:2|1:2,0:0:0:0:
359,16,60784,1,6,1:2:0:0:
495,175,61784,1,6,1:2:0:0:
495,175,62784,6,0,P|445:221|375:207,1,139.999996562004,6|2,1:2|1:2,0:0:0:0:
338,112,63784,2,0,P|288:66|221:77,1,139.999996562004,2|2,1:2|1:2,0:0:0:0:
184,175,64784,2,0,L|38:195,1,139.999996562004,2|2,1:2|1:2,0:0:0:0:
56,298,65784,1,14,1:2:0:0:
119,327,74784,6,0,L|270:308,1,139.999996562004,6|10,1:2|0:0,0:0:0:0:
362,295,75784,2,0,P|379:248|334:173,1,139.999996562004,2|10,1:2|0:0,0:0:0:0:
237,138,76784,2,0,L|92:153,1,139.999996562004,2|10,1:2|0:0,0:0:0:0:
21,225,77784,1,2,1:2:0:0:
33,329,78284,1,10,0:0:0:0:
137,314,78784,6,0,L|287:292,1,139.999996562004,6|10,1:2|0:0,0:0:0:0:
379,275,79784,2,0,L|358:136,1,139.999996562004,2|10,1:2|0:0,0:0:0:0:
344,32,80784,2,0,P|273:15|216:57,1,139.999996562004,2|10,1:2|0:0,0:0:0:0:
220,154,81784,2,0,P|162:175|91:136,1,139.999996562004,2|10,1:2|0:0,0:0:0:0:
47,119,82534,1,8,0:0:0:0:
12,158,82784,6,0,L|39:309,1,139.999996562004,6|10,1:2|0:0,0:0:0:0:
121,357,83784,2,0,L|269:330,1,139.999996562004,2|10,1:2|0:0,0:0:0:0:
361,311,84784,2,0,P|373:253|325:192,1,139.999996562004,2|10,1:2|0:0,0:0:0:0:
232,144,85784,2,0,P|220:86|268:25,1,139.999996562004,2|10,1:2|0:0,0:0:0:0:
318,14,86534,1,10,0:0:0:0:
355,50,86784,6,0,L|498:67,1,139.999996562004,4|10,1:2|0:0,0:0:0:0:
484,171,87784,2,0,L|467:314,1,139.999996562004,2|10,1:2|0:0,0:0:0:0:
362,299,88784,2,0,L|220:280,1,139.999996562004,2|8,1:2|0:0,0:0:0:0:
119,265,89784,1,2,1:2:0:0:
134,161,90284,1,10,0:0:0:0:
151,57,90784,6,0,B|215:28|215:28|282:57,1,139.999996562004,6|2,1:2|1:2,0:0:0:0:
281,160,91784,2,0,B|342:194|342:194|408:171,1,139.999996562004,2|2,1:2|1:2,0:0:0:0:
440,130,92534,1,10,0:0:0:0:
493,124,92784,2,0,B|524:169|524:169|505:276,1,139.999996562004,6|2,1:2|1:2,0:0:0:0:
433,326,93784,2,0,L|294:347,1,139.999996562004,2|2,1:2|1:2,0:0:0:0:
303,295,94534,1,10,0:0:0:0:
315,244,94784,5,6,1:2:0:0:
285,143,95284,1,2,1:2:0:0:
258,41,95784,2,0,B|191:23|191:23|128:56,1,139.999996562004,2|2,1:2|1:2,0:0:0:0:
85,85,96534,1,10,0:0:0:0:
72,135,96784,2,0,L|89:281,1,139.999996562004,4|2,1:2|1:2,0:0:0:0:
190,296,97784,2,0,L|356:321,1,139.999996562004,2|2,1:2|1:2,0:0:0:0:
379,330,98534,1,10,0:0:0:0:
431,335,98784,6,0,L|374:48,1,279.999993124007,6|2,1:2|1:2,0:0:0:0:
272,46,100284,1,10,0:0:0:0:
168,31,100784,6,0,L|222:305,1,279.999993124007,2|2,1:2|1:2,0:0:0:0:
326,322,102284,1,10,0:0:0:0:
401,248,102784,2,0,P|429:152|300:172,1,279.999993124007,6|2,1:2|1:2,0:0:0:0:
224,244,104284,1,10,0:0:0:0:
147,316,104784,2,0,P|36:357|46:239,1,279.999993124007,2|2,1:2|1:2,0:0:0:0:
146,215,106284,1,10,0:0:0:0:
247,189,106784,6,0,L|237:100,1,69.9999982810018,6|10,1:2|0:0,0:0:0:0:
231,67,107284,1,2,1:2:0:0:
334,52,107784,6,0,L|344:141,1,69.9999982810018,2|10,1:2|0:0,0:0:0:0:
350,174,108284,1,2,1:2:0:0:
408,261,108784,2,0,B|294:341|294:341|165:279,1,279.999993124007,6|10,1:2|0:0,0:0:0:0:
222,130,110784,5,6,1:2:0:0:
127,85,111284,1,2,1:2:0:0:
47,152,111784,2,0,L|62:291,1,139.999996562004,2|2,1:2|1:2,0:0:0:0:
93,333,112534,1,10,0:0:0:0:
130,370,112784,2,0,P|198:369|245:318,1,139.999996562004,2|2,1:2|1:2,0:0:0:0:
213,218,113784,2,0,P|268:177|335:189,1,139.999996562004,2|2,1:2|1:2,0:0:0:0:
379,218,114534,1,10,0:0:0:0:
429,203,114784,6,0,L|454:59,1,139.999996562004,6|2,1:2|1:2,0:0:0:0:
349,44,115784,2,0,L|205:19,1,139.999996562004,2|2,1:2|1:2,0:0:0:0:
171,55,116534,1,10,0:0:0:0:
143,100,116784,2,0,L|63:111,1,69.9999982810018,6|10,1:2|0:0,0:0:0:0:
21,116,117284,2,0,L|32:196,1,69.9999982810018,10|10,0:0|0:0,0:0:0:0:
39,237,117784,2,0,B|89:284|89:284|235:239,1,209.999994843005,10|10,0:0|0:0,0:0:0:0:
274,226,118784,5,6,1:2:0:0:
353,157,119284,1,2,1:2:0:0:
458,166,119784,2,0,L|445:313,1,139.999996562004,2|2,1:2|1:2,0:0:0:0:
398,328,120534,1,10,0:0:0:0:
354,356,120784,2,0,P|285:329|287:266,1,139.999996562004,2|2,1:2|1:2,0:0:0:0:
346,186,121784,2,0,L|325:48,1,139.999996562004,2|2,1:2|1:2,0:0:0:0:
225,14,122784,1,6,1:2:0:0:
98,182,123784,1,6,1:2:0:0:
256,192,144784,5,6,1:2:0:0:
256,38,145784,1,2,1:2:0:0:
256,192,146784,5,2,1:2:0:0:
410,192,147784,1,2,1:2:0:0:
256,192,148784,5,2,1:2:0:0:
256,346,149784,1,2,1:2:0:0:
256,192,150784,5,2,1:2:0:0:
102,192,151784,1,2,1:2:0:0:
256,192,152784,5,6,1:2:0:0:
364,83,153784,1,2,1:2:0:0:
256,192,154784,5,2,1:2:0:0:
364,300,155784,1,2,1:2:0:0:
256,192,156784,5,6,1:2:0:0:
147,300,157784,1,2,1:2:0:0:
256,192,158784,2,0,L|256:42,2,139.999996562004,6|2|2,1:2|1:2|1:2,1:2:0:0:
148,80,160784,5,6,1:2:0:0:
230,14,161284,1,2,1:2:0:0:
333,34,161784,2,0,L|358:171,1,139.999996562004,2|2,1:2|1:2,0:0:0:0:
339,220,162534,1,10,0:0:0:0:
321,270,162784,2,0,P|268:297|193:268,1,139.999996562004,2|2,1:2|1:2,0:0:0:0:
177,167,163784,2,0,P|145:127|58:128,1,139.999996562004,2|2,1:2|1:2,0:0:0:0:
22,160,164534,1,10,0:0:0:0:
31,211,164784,6,0,L|44:297,1,69.9999982810018,6|10,1:2|0:0,0:0:0:0:
48,332,165284,2,0,L|134:319,1,69.9999982810018,2|10,1:2|0:0,0:0:0:0:
151,282,165784,2,0,L|294:300,1,139.999996562004,2|2,1:2|1:2,0:0:0:0:
341,306,166534,1,10,0:0:0:0:
394,312,166784,2,0,L|404:230,1,69.9999982810018,6|10,1:2|0:0,0:0:0:0:
406,189,167284,2,0,L|321:177,1,69.9999982810018,10|10,0:0|0:0,0:0:0:0:
284,173,167784,2,0,P|231:124|299:31,1,209.999994843005,10|10,0:0|0:0,0:0:0:0:
341,63,168784,5,6,1:2:0:0:
445,49,169284,1,2,1:2:0:0:
479,149,169784,2,0,L|465:291,1,139.999996562004,2|2,1:2|1:2,0:0:0:0:
423,320,170534,1,10,0:0:0:0:
381,352,170784,2,0,L|233:322,1,139.999996562004,2|2,1:2|1:2,0:0:0:0:
230,219,171784,2,0,P|186:174|111:193,1,139.999996562004,2|2,1:2|1:2,0:0:0:0:
76,223,172534,1,10,0:0:0:0:
76,223,172784,5,6,1:2:0:0:
156,28,173784,1,6,1:2:0:0:
282,12,176784,6,0,P|275:73|265:150,1,139.999996562004,4|2,1:2|1:2,0:0:0:0:
318,241,177784,2,0,P|279:292|209:272,1,139.999996562004,2|2,1:2|1:2,0:0:0:0:
181,234,178534,1,10,0:0:0:0:
152,189,178784,2,0,L|13:211,1,139.999996562004,2|2,1:2|1:2,0:0:0:0:
22,315,179784,2,0,P|70:370|132:358,1,139.999996562004,2|2,1:2|1:2,0:0:0:0:
165,320,180534,1,10,0:0:0:0:
165,320,180784,5,6,1:2:0:0:
115,110,181784,1,6,1:2:0:0:
115,110,183284,6,0,P|169:68|238:90,1,139.999996562004,2|2,1:2|1:2,0:0:0:0:
312,154,184284,2,0,L|303:311,1,139.999996562004,2|2,1:2|1:2,0:0:0:0:
215,350,185284,2,0,B|69:339,1,139.999996562004,2|2,1:2|1:2,0:0:0:0:
26,246,186284,1,14,1:2:0:0:
26,246,187284,6,0,L|40:148,1,69.9999982810018,6|8,1:2|0:0,0:0:0:0:
43,124,187784,2,0,L|141:138,1,69.9999982810018,2|10,1:2|0:0,0:0:0:0:
152,167,188284,2,0,P|240:199|276:141,1,174.999995702504,14|2,0:0|1:2,0:0:0:0:
256,192,189159,12,0,193409,0:0:0:0:
