osu file format v14

[General]
AudioFilename: audio.mp3
AudioLeadIn: 0
PreviewTime: 153749
Countdown: 1
SampleSet: Soft
StackLeniency: 0.7
Mode: 0
LetterboxInBreaks: 0
WidescreenStoryboard: 1

[Editor]
Bookmarks: 244017
DistanceSpacing: 2
BeatDivisor: 2
GridSize: 8
TimelineZoom: 1

[Metadata]
Title:Twilight Borderline
TitleUnicode:黄昏ボーダーライン
Artist:TUMENECO
ArtistUnicode:TUMENECO
Creator:ANuko
Version:ded
Source:Touhou
Tags:Maribel Han Renko Usami
BeatmapID:1839000
BeatmapSetID:567046

[Difficulty]
HPDrainRate:4.5
CircleSize:3.8
OverallDifficulty:6.1
ApproachRate:7.7
SliderMultiplier:0.5
SliderTickRate:1

[Events]
//Background and Video events
0,0,"bgg.jpg",0,0
//Break Periods
//Storyboard Layer 0 (Background)
//Storyboard Layer 1 (Fail)
//Storyboard Layer 2 (Pass)
//Storyboard Layer 3 (Foreground)
//Storyboard Layer 4 (Overlay)
//Storyboard Sound Samples

[TimingPoints]
349.483606557377,491.803278688525,4,2,0,60,1,0
91087,-100,4,2,0,5,0,0
91117,-100,4,2,0,60,0,0
91578,-100,4,2,0,5,0,0
91608,-100,4,2,0,60,0,0
92070,-100,4,2,0,5,0,0
92100,-100,4,2,0,60,0,0
92562,-100,4,2,0,5,0,0
92592,-100,4,2,0,60,0,0
98710,-66.6666666666667,4,2,0,60,0,1
130185,-100,4,2,0,60,0,0
165595,-66.6666666666667,4,2,0,60,0,1
201005,-100,4,2,0,60,0,0
230513,491.803278688525,4,2,0,60,1,0
232460,491.803278688525,4,2,0,60,1,0
248197,-66.6666666666667,4,2,0,60,0,1
263935,-100,4,2,0,60,0,0
295410,-200,4,2,0,60,0,0

[HitObjects]
26,280,349,6,0,P|103:215|36:185,3,200
228,222,8218,6,0,P|219:215|221:35,3,200
292,130,16087,6,0,P|326:110|393:114,1,100
354,179,17562,1,0,0:0:0:0:
375,250,17808,1,0,0:0:0:0:
434,297,18054,1,0,0:0:0:0:
460,283,18546,1,0,0:0:0:0:
479,260,19038,1,0,0:0:0:0:
480,230,19529,1,0,0:0:0:0:
459,157,19775,1,0,0:0:0:0:
484,86,20021,6,0,P|387:70|312:138,1,200
227,206,23956,6,0,P|281:221|341:198,1,100
396,122,25431,1,0,0:0:0:0:
358,186,25677,1,0,0:0:0:0:
352,260,25923,1,0,0:0:0:0:
378,246,26415,1,0,0:0:0:0:
407,243,26906,1,0,0:0:0:0:
435,253,27398,1,0,0:0:0:0:
492,204,27644,1,0,0:0:0:0:
463,134,27890,6,0,P|346:166|280:134,1,200
276,44,31824,6,0,P|218:35|173:55,1,100
138,111,33300,1,0,0:0:0:0:
185,168,33546,1,0,0:0:0:0:
196,242,33792,5,0,0:0:0:0:
235,237,34283,1,0,0:0:0:0:
269,216,34775,1,0,0:0:0:0:
280,177,35267,1,0,0:0:0:0:
318,112,35513,1,0,0:0:0:0:
384,77,35759,5,0,0:0:0:0:
420,94,36251,1,0,0:0:0:0:
459,97,36742,1,0,0:0:0:0:
496,82,37234,1,0,0:0:0:0:
465,150,37480,1,0,0:0:0:0:
396,180,37726,5,0,0:0:0:0:
362,202,38218,1,0,0:0:0:0:
346,238,38710,2,0,P|371:253|409:250,1,50
463,324,39693,6,0,P|381:305|352:313,1,100
301,343,41169,1,0,0:0:0:0:
226,331,41415,1,0,0:0:0:0:
171,280,41660,1,0,0:0:0:0:
193,246,42152,1,0,0:0:0:0:
198,203,42644,1,0,0:0:0:0:
184,165,43136,1,0,0:0:0:0:
232,107,43382,1,0,0:0:0:0:
306,104,43628,6,0,P|409:90|457:-9,1,200
300,28,47562,5,0,0:0:0:0:
322,128,47808,1,0,0:0:0:0:
224,71,48054,1,0,0:0:0:0:
216,167,48300,1,0,0:0:0:0:
144,108,48546,1,0,0:0:0:0:
136,137,49038,1,0,0:0:0:0:
188,254,49529,5,0,0:0:0:0:
236,179,49775,1,0,0:0:0:0:
270,305,50021,1,0,0:0:0:0:
289,226,50267,1,0,0:0:0:0:
355,325,50513,1,0,0:0:0:0:
448,223,51005,1,0,0:0:0:0:
461,341,51251,1,0,0:0:0:0:
383,292,51497,5,0,0:0:0:0:
433,190,51742,1,0,0:0:0:0:
309,210,51988,1,0,0:0:0:0:
361,126,52234,1,0,0:0:0:0:
342,105,52480,1,0,0:0:0:0:
473,91,52972,1,0,0:0:0:0:
284,25,53464,5,0,0:0:0:0:
277,48,53956,1,0,0:0:0:0:
182,119,54447,1,0,0:0:0:0:
191,102,54939,1,0,0:0:0:0:
246,198,55431,5,0,0:0:0:0:
334,168,55677,1,0,0:0:0:0:
283,282,55923,1,0,0:0:0:0:
360,228,56169,1,0,0:0:0:0:
360,348,56415,1,0,0:0:0:0:
374,325,56906,1,0,0:0:0:0:
243,359,57398,5,0,0:0:0:0:
156,251,57644,1,0,0:0:0:0:
172,326,57890,1,0,0:0:0:0:
237,231,58136,1,0,0:0:0:0:
332,310,58382,1,0,0:0:0:0:
366,200,58874,1,0,0:0:0:0:
299,261,59119,1,0,0:0:0:0:
310,113,59365,5,0,0:0:0:0:
226,87,59611,1,0,0:0:0:0:
385,152,59857,1,0,0:0:0:0:
298,180,60103,1,0,0:0:0:0:
388,71,60349,1,0,0:0:0:0:
447,198,61333,5,0,0:0:0:0:
439,239,61824,1,0,0:0:0:0:
343,287,62316,1,0,0:0:0:0:
331,325,62808,1,0,0:0:0:0:
222,327,63300,6,0,P|251:291|249:230,1,100
201,183,64775,1,0,0:0:0:0:
166,116,65021,1,0,0:0:0:0:
186,43,65267,2,0,P|224:35|246:11,2,50
114,21,66742,1,0,0:0:0:0:
53,64,66988,1,0,0:0:0:0:
45,138,67234,5,0,0:0:0:0:
119,130,67480,1,0,0:0:0:0:
185,164,67726,2,0,P|239:171|303:95,1,150
309,15,70185,1,0,0:0:0:0:
319,102,70677,1,0,0:0:0:0:
297,32,71169,6,0,P|248:73|206:80,1,100
112,36,72644,1,0,0:0:0:0:
137,106,72890,1,0,0:0:0:0:
124,179,73136,2,0,P|170:175|191:162,2,50
61,221,74611,1,0,0:0:0:0:
47,294,74857,1,0,0:0:0:0:
77,362,75103,6,0,P|145:389|279:355,1,200
318,273,77316,1,0,0:0:0:0:
311,304,77562,1,0,0:0:0:0:
266,209,78054,1,0,0:0:0:0:
174,158,78546,1,0,0:0:0:0:
201,273,79038,6,0,P|239:276|298:246,1,100
334,187,80513,1,0,0:0:0:0:
330,112,80759,1,0,0:0:0:0:
273,62,81005,2,0,P|225:61|210:67,2,50
248,132,82480,5,0,0:0:0:0:
181,167,82726,1,0,0:0:0:0:
105,168,82972,1,0,0:0:0:0:
111,207,83464,1,0,0:0:0:0:
117,246,83956,1,0,0:0:0:0:
121,285,84447,5,0,0:0:0:0:
192,306,84693,1,0,0:0:0:0:
266,297,84939,2,0,P|294:279|310:257,1,50
257,180,85923,2,0,P|242:219|241:238,1,50
284,361,86906,6,0,P|341:360|384:325,1,100
386,216,88382,1,0,0:0:0:0:
316,291,88628,1,0,0:0:0:0:
448,264,88874,2,0,P|457:240|463:216,2,50
427,138,90349,5,0,0:0:0:0:
377,216,90595,2,0,P|336:219|241:79,1,225
168,123,93792,6,0,L|164:176,1,50
148,304,94775,5,0,0:0:0:0:
243,207,95021,1,0,0:0:0:0:
235,311,95267,1,0,0:0:0:0:
124,234,95513,1,0,0:0:0:0:
201,383,95759,5,0,0:0:0:0:
317,376,96005,1,0,0:0:0:0:
260,315,96251,5,0,0:0:0:0:
417,347,96497,1,0,0:0:0:0:
351,267,96742,5,0,0:0:0:0:
224,322,96988,1,0,0:0:0:0:
303,253,97234,1,0,0:0:0:0:
164,269,97480,1,0,0:0:0:0:
111,95,97726,5,0,0:0:0:0:
128,181,97972,1,0,0:0:0:0:
140,244,98218,1,0,0:0:0:0:
281,262,98710,5,0,0:0:0:0:
183,344,98956,1,0,0:0:0:0:
281,262,99201,1,0,0:0:0:0:
183,344,99447,1,0,0:0:0:0:
356,348,99693,1,0,0:0:0:0:
299,259,99939,1,0,0:0:0:0:
295,152,100185,2,0,P|325:126|373:113,1,75.0000028610231
445,159,100923,5,0,0:0:0:0:
362,192,101169,1,0,0:0:0:0:
437,177,101415,1,0,0:0:0:0:
347,273,101660,1,0,0:0:0:0:
414,328,101906,1,0,0:0:0:0:
306,335,102152,2,0,P|290:324|280:308,1,37.5000014305115
284,192,102644,5,0,0:0:0:0:
166,261,102890,1,0,0:0:0:0:
284,192,103136,1,0,0:0:0:0:
166,261,103382,1,0,0:0:0:0:
189,189,103628,1,0,0:0:0:0:
180,114,103874,1,0,0:0:0:0:
127,61,104119,2,0,P|88:56|67:38,1,37.5000014305115
6,140,104611,5,0,0:0:0:0:
124,201,104857,1,0,0:0:0:0:
6,140,105103,1,0,0:0:0:0:
124,201,105349,1,0,0:0:0:0:
0,301,105595,1,0,0:0:0:0:
46,230,105841,1,0,0:0:0:0:
108,361,106087,2,0,P|119:342|126:321,1,37.5000014305115
155,221,106578,5,0,0:0:0:0:
207,339,106824,1,0,0:0:0:0:
155,221,107070,1,0,0:0:0:0:
207,339,107316,1,0,0:0:0:0:
273,218,107562,1,0,0:0:0:0:
347,282,107808,1,0,0:0:0:0:
433,211,108054,2,0,P|431:231|405:264,1,37.5000014305115
312,106,108546,5,0,0:0:0:0:
281,194,108792,1,0,0:0:0:0:
229,28,109038,1,0,0:0:0:0:
137,158,109283,1,0,0:0:0:0:
138,32,109529,1,0,0:0:0:0:
217,116,109775,1,0,0:0:0:0:
63,112,110021,2,0,P|52:132|50:152,1,37.5000014305115
118,263,110513,6,0,P|138:228|136:159,1,75.0000028610231
196,295,111251,1,0,0:0:0:0:
298,241,111497,2,0,P|260:226|192:229,1,75.0000028610231
306,324,112234,1,0,0:0:0:0:
391,220,112480,5,0,0:0:0:0:
329,329,112726,1,0,0:0:0:0:
241,237,112972,1,0,0:0:0:0:
343,359,113218,2,0,P|365:361|381:357,1,37.5000014305115
480,312,113710,6,0,P|473:329|468:347,1,37.5000014305115
443,229,114201,1,0,0:0:0:0:
512,142,114447,5,0,0:0:0:0:
399,104,114693,1,0,0:0:0:0:
512,142,114939,1,0,0:0:0:0:
399,104,115185,1,0,0:0:0:0:
346,204,115431,6,0,P|329:178|326:149,1,37.5000014305115
254,139,115923,2,0,P|271:97|269:77,1,37.5000014305115
243,22,116415,5,0,0:0:0:0:
229,36,116660,1,0,0:0:0:0:
158,60,116906,1,0,0:0:0:0:
83,49,117152,1,0,0:0:0:0:
40,182,117398,5,0,0:0:0:0:
84,91,117644,1,0,0:0:0:0:
124,209,117890,2,0,P|147:234|181:232,1,37.5000014305115
297,230,118382,5,0,0:0:0:0:
224,333,118628,1,0,0:0:0:0:
297,230,118874,1,0,0:0:0:0:
224,333,119119,1,0,0:0:0:0:
192,183,119365,1,0,0:0:0:0:
228,257,119611,1,0,0:0:0:0:
274,155,119857,2,0,P|275:142|273:115,1,37.5000014305115
227,28,120349,5,0,0:0:0:0:
227,28,120595,1,0,0:0:0:0:
202,139,120841,1,0,0:0:0:0:
202,139,121087,1,0,0:0:0:0:
115,74,121333,1,0,0:0:0:0:
115,74,121578,1,0,0:0:0:0:
47,152,121824,2,0,P|45:174|50:203,1,37.5000014305115
129,332,122316,5,0,0:0:0:0:
12,267,122562,1,0,0:0:0:0:
129,332,122808,1,0,0:0:0:0:
12,267,123054,1,0,0:0:0:0:
61,370,123300,1,0,0:0:0:0:
129,332,123546,1,0,0:0:0:0:
207,324,123792,2,0,P|213:309|212:286,1,37.5000014305115
201,181,124283,5,0,0:0:0:0:
223,214,124529,1,0,0:0:0:0:
297,209,124775,1,0,0:0:0:0:
356,163,125021,1,0,0:0:0:0:
417,120,125267,1,0,0:0:0:0:
491,130,125513,1,0,0:0:0:0:
509,202,125759,2,0,P|478:205|444:192,1,37.5000014305115
151,292,126251,6,0,P|191:292|271:200,1,150.000005722046
229,84,127480,1,0,0:0:0:0:
282,136,127726,1,0,0:0:0:0:
354,156,127972,1,0,0:0:0:0:
428,153,128218,5,0,0:0:0:0:
377,277,128464,1,0,0:0:0:0:
481,231,128710,1,0,0:0:0:0:
440,335,128956,2,0,P|421:351|395:362,1,37.5000014305115
269,296,129447,2,0,P|294:296|312:305,1,37.5000014305115
179,333,129939,1,0,0:0:0:0:
133,183,130185,5,0,0:0:0:0:
159,305,130431,1,0,0:0:0:0:
44,206,130677,1,0,0:0:0:0:
198,211,130923,2,0,P|224:182|225:175,1,25
233,87,131415,1,0,0:0:0:0:
310,127,131660,1,0,0:0:0:0:
283,2,131906,1,0,0:0:0:0:
214,78,132152,5,0,0:0:0:0:
142,132,132398,1,0,0:0:0:0:
47,165,132644,2,0,P|22:160|7:145,1,25
165,43,133136,5,0,0:0:0:0:
201,158,133382,2,0,P|200:191|185:225,1,50
91,313,134365,5,0,0:0:0:0:
162,229,134611,1,0,0:0:0:0:
77,234,134857,1,0,0:0:0:0:
178,330,135103,2,0,P|202:341|205:341,1,25
328,295,135595,2,0,P|306:295|294:297,1,25
231,222,136087,5,0,0:0:0:0:
345,153,136333,1,0,0:0:0:0:
221,123,136578,1,0,0:0:0:0:
356,233,136824,1,0,0:0:0:0:
292,126,137070,2,0,P|282:105|284:93,1,25
401,52,137562,2,0,P|404:33|401:21,1,25
289,81,138054,5,0,0:0:0:0:
180,22,138300,1,0,0:0:0:0:
211,109,138546,1,0,0:0:0:0:
190,199,138792,2,0,P|138:210|135:209,1,50
94,342,139529,2,0,P|106:328|112:312,1,25
34,179,140021,5,0,0:0:0:0:
12,266,140267,1,0,0:0:0:0:
117,134,140513,2,0,P|135:127|151:131,1,25
291,202,141005,1,0,0:0:0:0:
265,92,141251,2,0,P|256:124|256:147,1,50
361,261,142234,5,0,0:0:0:0:
265,314,142480,1,0,0:0:0:0:
346,276,142726,1,0,0:0:0:0:
235,375,142972,2,0,P|217:364|208:356,1,25
119,312,143464,2,0,P|115:290|114:277,1,25
172,181,143956,5,0,0:0:0:0:
61,205,144201,1,0,0:0:0:0:
191,231,144447,2,0,P|204:236|216:237,1,25
307,178,144939,2,0,P|326:173|336:163,1,25
356,79,145431,2,0,P|368:64|369:53,1,25
226,34,145923,6,0,P|164:34|127:59,1,100
70,266,147398,1,0,0:0:0:0:
189,128,147644,1,0,0:0:0:0:
125,353,147890,6,0,P|155:327|161:309,1,50
273,77,148874,2,0,P|275:91|295:129,1,50
426,277,149611,1,0,0:0:0:0:
188,236,149857,1,0,0:0:0:0:
272,341,150103,1,0,0:0:0:0:
435,362,150349,2,0,P|455:357|512:249,2,150
193,305,153792,6,0,P|265:306|291:292,1,100
97,350,155267,1,0,0:0:0:0:
235,150,155513,1,0,0:0:0:0:
397,329,155759,2,0,L|404:359,1,25
495,200,156251,2,0,L|489:230,1,25
279,72,156742,2,0,L|286:105,1,25
512,11,157234,1,0,0:0:0:0:
357,176,157480,6,0,P|300:199|240:184,1,125
460,293,159693,2,0,P|429:314|360:319,1,100
138,196,161169,1,0,0:0:0:0:
146,314,161660,5,0,0:0:0:0:
77,244,161906,1,0,0:0:0:0:
45,346,162152,1,0,0:0:0:0:
10,190,162398,1,0,0:0:0:0:
0,218,162644,1,0,0:0:0:0:
122,100,163136,1,0,0:0:0:0:
137,131,163382,1,0,0:0:0:0:
201,67,163628,5,0,0:0:0:0:
138,164,163874,1,0,0:0:0:0:
260,171,164119,1,0,0:0:0:0:
114,78,164365,1,0,0:0:0:0:
85,250,164611,1,0,0:0:0:0:
19,134,164857,1,0,0:0:0:0:
214,268,165103,1,0,0:0:0:0:
61,264,165349,1,0,0:0:0:0:
255,157,165595,6,0,P|291:151|337:170,1,75.0000028610231
377,348,166333,1,0,0:0:0:0:
433,304,166456,1,0,0:0:0:0:
438,234,166578,2,0,P|446:186|461:162,1,75.0000028610231
424,34,167316,5,0,0:0:0:0:
376,86,167439,1,0,0:0:0:0:
309,119,167562,2,0,P|288:111|258:110,1,37.5000014305115
224,213,168054,1,0,0:0:0:0:
144,281,168300,2,0,P|125:289|91:291,1,37.5000014305115
193,380,168792,1,0,0:0:0:0:
102,302,169038,1,0,0:0:0:0:
109,183,169283,1,0,0:0:0:0:
151,89,169529,6,0,P|178:74|201:72,2,37.5000014305115
209,207,170267,1,0,0:0:0:0:
299,232,170513,1,0,0:0:0:0:
390,210,170759,1,0,0:0:0:0:
444,133,171005,1,0,0:0:0:0:
474,287,171251,1,0,0:0:0:0:
297,177,171497,6,0,P|291:203|294:231,1,37.5000014305115
367,101,171988,1,0,0:0:0:0:
403,6,172234,1,0,0:0:0:0:
289,113,172480,2,0,P|246:125|237:125,1,37.5000014305115
142,82,172972,1,0,0:0:0:0:
151,103,173218,1,0,0:0:0:0:
158,225,173464,6,0,P|134:199|129:187,2,37.5000014305115
307,231,174201,1,0,0:0:0:0:
373,260,174324,1,0,0:0:0:0:
421,313,174447,2,0,P|447:302|452:294,1,37.5000014305115
418,194,174939,2,0,P|417:159|412:145,1,37.5000014305115
301,69,175431,6,0,P|281:88|268:91,1,37.5000014305115
179,77,175923,1,0,0:0:0:0:
129,204,176169,2,0,P|147:199|161:188,1,37.5000014305115
183,96,176660,1,0,0:0:0:0:
232,175,176906,1,0,0:0:0:0:
313,222,177152,1,0,0:0:0:0:
415,211,177398,6,0,P|400:198|374:188,2,37.5000014305115
308,248,178136,1,0,0:0:0:0:
207,263,178382,2,0,P|193:246|185:226,1,37.5000014305115
233,153,178874,2,0,P|234:114|240:105,1,37.5000014305115
314,92,179365,6,0,P|331:66|344:56,1,37.5000014305115
383,125,179857,1,0,0:0:0:0:
301,196,180349,2,0,P|272:201|256:195,1,37.5000014305115
204,119,180841,2,0,P|187:101|180:74,1,37.5000014305115
91,216,181333,6,0,P|114:211|149:174,1,75.0000028610231
47,152,182070,1,0,0:0:0:0:
75,226,182193,1,0,0:0:0:0:
138,274,182316,2,0,P|169:268|187:259,1,37.5000014305115
266,305,182808,1,0,0:0:0:0:
450,215,183054,1,0,0:0:0:0:
304,232,183300,6,0,P|290:209|288:183,1,37.5000014305115
294,101,183792,1,0,0:0:0:0:
370,36,184038,2,0,P|387:49|391:70,1,37.5000014305115
268,34,184529,1,0,0:0:0:0:
215,86,184775,1,0,0:0:0:0:
185,155,185021,2,0,P|146:152|135:149,2,37.5000014305115
94,71,185759,1,0,0:0:0:0:
37,141,186005,5,0,0:0:0:0:
42,226,186251,2,0,P|28:239|12:248,1,37.5000014305115
79,319,186742,2,0,P|75:337|68:354,1,37.5000014305115
188,359,187234,5,0,0:0:0:0:
236,304,187480,1,0,0:0:0:0:
238,231,187726,2,0,P|212:235|194:245,1,37.5000014305115
136,299,188218,1,0,0:0:0:0:
91,203,188464,1,0,0:0:0:0:
110,99,188710,2,0,P|131:106|145:116,1,37.5000014305115
281,99,189201,6,0,P|256:81|246:63,2,37.5000014305115
399,110,189939,1,0,0:0:0:0:
376,259,190185,2,0,P|360:234|358:215,1,37.5000014305115
430,209,190677,2,0,P|442:176|453:161,1,37.5000014305115
502,221,191169,5,0,0:0:0:0:
494,258,191415,1,0,0:0:0:0:
362,367,191660,1,0,0:0:0:0:
390,335,191906,1,0,0:0:0:0:
260,276,192152,1,0,0:0:0:0:
241,239,192398,1,0,0:0:0:0:
188,348,192644,1,0,0:0:0:0:
212,246,192890,1,0,0:0:0:0:
168,150,193136,6,0,P|161:132|158:113,2,37.5000014305115
198,37,193874,1,0,0:0:0:0:
159,179,194119,2,0,P|141:184|123:187,1,37.5000014305115
270,96,194611,2,0,P|254:107|238:115,1,37.5000014305115
340,191,195103,6,0,P|442:179|480:145,1,150.000005722046
354,64,196578,1,0,0:0:0:0:
315,183,197070,6,0,P|317:215|404:305,1,150.000005722046
444,182,198546,1,0,0:0:0:0:
438,192,198792,1,0,0:0:0:0:
390,166,199038,1,0,0:0:0:0:
375,119,199283,2,0,P|370:100|363:83,1,37.5000014305115
244,29,199775,6,0,P|242:57|248:73,1,37.5000014305115
322,178,200267,1,0,0:0:0:0:
259,103,200513,1,0,0:0:0:0:
203,230,200759,1,0,0:0:0:0:
85,129,201005,5,0,0:0:0:0:
284,248,201251,1,0,0:0:0:0:
180,121,201497,1,0,0:0:0:0:
175,313,201742,5,0,0:0:0:0:
382,156,201988,1,0,0:0:0:0:
277,334,202234,1,0,0:0:0:0:
177,182,202480,5,0,0:0:0:0:
271,369,202726,1,0,0:0:0:0:
393,301,202972,6,0,P|417:281|433:258,1,50
257,96,203956,2,0,P|259:114|270:150,1,50
377,105,204939,5,0,0:0:0:0:
274,167,205185,1,0,0:0:0:0:
163,190,205431,1,0,0:0:0:0:
109,30,205923,5,0,0:0:0:0:
54,260,206415,1,0,0:0:0:0:
189,107,206906,5,0,0:0:0:0:
260,247,207152,1,0,0:0:0:0:
76,167,207398,1,0,0:0:0:0:
338,155,207890,5,0,0:0:0:0:
176,316,208382,1,0,0:0:0:0:
215,196,208628,1,0,0:0:0:0:
294,330,208874,6,0,P|309:321|321:308,1,25
414,306,209365,2,0,P|418:291|415:271,1,25
498,237,209857,2,0,P|494:224|481:209,1,25
512,127,210349,2,0,P|492:119|486:119,1,25
366,180,210841,5,0,0:0:0:0:
291,104,211087,1,0,0:0:0:0:
266,240,211333,1,0,0:0:0:0:
334,43,211824,1,0,0:0:0:0:
272,160,212070,1,0,0:0:0:0:
207,23,212316,1,0,0:0:0:0:
175,207,212562,1,0,0:0:0:0:
116,95,212808,6,0,P|120:73|129:65,1,25
76,168,213300,2,0,P|58:157|52:145,1,25
119,253,213792,2,0,P|93:259|87:260,1,25
207,288,214283,2,0,P|199:309|192:317,1,25
297,293,214775,5,0,0:0:0:0:
251,145,215021,1,0,0:0:0:0:
350,290,215267,2,0,P|345:305|336:315,1,25
326,87,215759,5,0,0:0:0:0:
143,198,216005,1,0,0:0:0:0:
226,83,216251,2,0,P|229:71|229:59,1,25
406,207,216742,5,0,0:0:0:0:
196,300,216988,1,0,0:0:0:0:
257,172,217234,1,0,0:0:0:0:
292,334,217480,5,0,0:0:0:0:
168,143,217726,1,0,0:0:0:0:
105,292,217972,1,0,0:0:0:0:
48,137,218218,5,0,0:0:0:0:
217,206,218464,1,0,0:0:0:0:
297,361,218710,6,0,P|344:343|349:338,1,50
512,184,219693,2,0,P|492:185|460:200,1,50
240,238,220677,6,0,P|240:220|255:185,1,50
306,44,221660,2,0,P|332:56|351:77,1,50
107,188,222644,5,0,0:0:0:0:
205,118,222890,1,0,0:0:0:0:
175,298,223136,1,0,0:0:0:0:
321,239,223628,2,0,P|309:255|304:258,1,25
296,133,224119,1,0,0:0:0:0:
279,267,224365,1,0,0:0:0:0:
211,183,224611,5,0,0:0:0:0:
279,305,224857,1,0,0:0:0:0:
362,205,225103,1,0,0:0:0:0:
205,332,225349,1,0,0:0:0:0:
132,240,225595,2,0,L|123:275,1,25
33,339,226087,1,0,0:0:0:0:
60,327,226333,1,0,0:0:0:0:
0,262,226578,6,0,L|8:230,1,25
82,128,227070,1,0,0:0:0:0:
105,208,227316,1,0,0:0:0:0:
161,72,227562,2,0,L|150:104,1,25
64,35,228054,1,0,0:0:0:0:
216,6,228300,1,0,0:0:0:0:
92,54,228546,5,0,0:0:0:0:
259,159,228792,1,0,0:0:0:0:
15,207,229038,1,0,0:0:0:0:
141,150,229283,1,0,0:0:0:0:
114,159,229529,1,0,0:0:0:0:
328,149,229775,1,0,0:0:0:0:
161,246,230021,1,0,0:0:0:0:
226,106,230267,1,0,0:0:0:0:
245,317,230513,6,0,P|258:315|330:259,1,100
381,169,232460,5,0,0:0:0:0:
372,94,232706,1,0,0:0:0:0:
381,169,232952,1,0,0:0:0:0:
372,94,233198,1,0,0:0:0:0:
315,135,233444,1,0,0:0:0:0:
280,196,233690,1,0,0:0:0:0:
282,265,233936,2,0,P|305:260|330:238,1,50
332,164,234673,5,0,0:0:0:0:
391,201,234919,1,0,0:0:0:0:
417,265,235165,1,0,0:0:0:0:
396,331,235411,1,0,0:0:0:0:
328,299,235657,1,0,0:0:0:0:
314,225,235903,2,0,P|300:192|291:185,1,25
230,160,236395,5,0,0:0:0:0:
244,233,236640,1,0,0:0:0:0:
230,160,236886,1,0,0:0:0:0:
244,233,237132,1,0,0:0:0:0:
175,217,237378,1,0,0:0:0:0:
127,165,237623,1,0,0:0:0:0:
59,146,237870,2,0,P|49:154|37:158,1,25
7,209,238362,5,0,0:0:0:0:
7,209,238608,1,0,0:0:0:0:
32,235,238854,1,0,0:0:0:0:
32,235,239099,1,0,0:0:0:0:
107,235,239345,1,0,0:0:0:0:
156,178,239591,1,0,0:0:0:0:
180,107,239837,2,0,P|195:106|207:112,1,25
261,158,240329,5,0,0:0:0:0:
299,226,240575,1,0,0:0:0:0:
261,158,240821,1,0,0:0:0:0:
299,226,241067,1,0,0:0:0:0:
382,237,241313,1,0,0:0:0:0:
443,182,241558,1,0,0:0:0:0:
438,103,241804,2,0,P|421:74|417:47,1,50
487,56,242542,5,0,0:0:0:0:
491,125,242788,1,0,0:0:0:0:
443,176,243034,1,0,0:0:0:0:
372,207,243279,1,0,0:0:0:0:
337,276,243525,1,0,0:0:0:0:
355,351,243771,2,0,P|341:361|332:362,1,25
260,333,244263,6,0,P|256:308|256:283,1,50
282,185,245000,1,0,0:0:0:0:
259,195,245123,1,0,0:0:0:0:
234,199,245246,2,0,P|217:200|207:197,1,25
141,148,245738,1,0,0:0:0:0:
97,210,245984,1,0,0:0:0:0:
107,284,246230,6,0,P|125:281|132:274,1,25
165,228,246722,1,0,0:0:0:0:
208,210,246968,2,0,P|223:207|237:211,1,25
327,310,247460,6,0,L|317:278,1,25
409,324,247951,1,0,0:0:0:0:
438,219,248198,5,0,0:0:0:0:
315,159,248444,1,0,0:0:0:0:
438,219,248690,1,0,0:0:0:0:
315,159,248936,1,0,0:0:0:0:
412,94,249181,5,0,0:0:0:0:
337,167,249427,1,0,0:0:0:0:
241,229,249673,2,0,P|214:235|194:235,1,37.5000014305115
97,138,250164,5,0,0:0:0:0:
79,166,250410,1,0,0:0:0:0:
208,144,250656,1,0,0:0:0:0:
280,34,250902,1,0,0:0:0:0:
258,222,251148,5,0,0:0:0:0:
212,69,251394,1,0,0:0:0:0:
327,245,251640,2,0,P|344:236|360:218,1,37.5000014305115
370,89,252132,5,0,0:0:0:0:
462,192,252378,1,0,0:0:0:0:
370,89,252623,1,0,0:0:0:0:
462,192,252869,1,0,0:0:0:0:
456,84,253115,5,0,0:0:0:0:
285,140,253361,1,0,0:0:0:0:
413,249,253607,2,0,P|424:263|430:281,1,37.5000014305115
313,335,254099,5,0,0:0:0:0:
313,335,254345,1,0,0:0:0:0:
157,368,254591,1,0,0:0:0:0:
157,368,254837,1,0,0:0:0:0:
93,209,255082,5,0,0:0:0:0:
93,209,255328,1,0,0:0:0:0:
251,275,255574,2,0,P|256:257|257:238,1,37.5000014305115
125,56,256066,5,0,0:0:0:0:
298,136,256312,1,0,0:0:0:0:
125,56,256558,1,0,0:0:0:0:
298,136,256804,1,0,0:0:0:0:
211,67,257050,5,0,0:0:0:0:
192,187,257296,1,0,0:0:0:0:
245,301,257541,2,0,P|277:289|280:287,1,37.5000014305115
359,176,258033,5,0,0:0:0:0:
344,188,258279,1,0,0:0:0:0:
267,131,258525,1,0,0:0:0:0:
248,37,258771,1,0,0:0:0:0:
175,208,259017,5,0,0:0:0:0:
201,91,259263,1,0,0:0:0:0:
96,192,259509,2,0,P|79:201|61:205,1,37.5000014305115
236,88,260000,6,0,P|270:109|277:213,1,150.000005722046
129,239,261230,5,0,0:0:0:0:
284,330,261476,1,0,0:0:0:0:
271,162,261722,1,0,0:0:0:0:
198,301,261968,5,0,0:0:0:0:
279,144,262214,1,0,0:0:0:0:
384,237,262460,1,0,0:0:0:0:
157,201,262705,2,0,P|152:182|150:164,1,37.5000014305115
270,44,263197,5,0,0:0:0:0:
157,142,263443,1,0,0:0:0:0:
187,49,263689,1,0,0:0:0:0:
250,175,263935,5,0,0:0:0:0:
89,56,264181,1,0,0:0:0:0:
62,218,264427,1,0,0:0:0:0:
166,120,264673,1,0,0:0:0:0:
20,208,264919,2,0,P|18:220|20:232,1,25
186,306,265410,1,0,0:0:0:0:
26,251,265656,1,0,0:0:0:0:
141,191,265902,5,0,0:0:0:0:
77,312,266148,1,0,0:0:0:0:
217,303,266394,2,0,P|231:297|243:284,1,25
333,133,266886,1,0,0:0:0:0:
235,222,267132,2,0,P|247:254|262:270,1,50
419,308,268115,5,0,0:0:0:0:
313,215,268361,1,0,0:0:0:0:
306,327,268607,1,0,0:0:0:0:
417,265,268853,2,0,P|427:252|432:236,1,25
385,113,269345,1,0,0:0:0:0:
433,209,269591,5,0,0:0:0:0:
477,125,269837,1,0,0:0:0:0:
343,193,270082,1,0,0:0:0:0:
512,193,270328,1,0,0:0:0:0:
421,46,270574,1,0,0:0:0:0:
322,125,270820,2,0,P|313:134|301:136,1,25
147,102,271312,2,0,P|159:95|177:94,1,25
226,211,271804,6,0,P|212:225|211:231,1,25
297,371,272296,1,0,0:0:0:0:
426,245,272541,2,0,P|395:251|394:252,1,25
286,319,273033,1,0,0:0:0:0:
317,208,273279,1,0,0:0:0:0:
288,107,273525,1,0,0:0:0:0:
212,70,273771,6,0,P|188:56|185:40,1,25
112,192,274263,1,0,0:0:0:0:
174,42,274509,1,0,0:0:0:0:
177,269,274755,1,0,0:0:0:0:
282,163,275000,2,0,P|306:162|330:169,1,50
422,277,275984,5,0,0:0:0:0:
343,184,276230,1,0,0:0:0:0:
300,326,276476,1,0,0:0:0:0:
429,359,276722,2,0,P|457:347|463:336,1,25
463,214,277214,2,0,P|476:195|480:173,1,25
403,94,277705,5,0,0:0:0:0:
245,163,277951,1,0,0:0:0:0:
306,31,278197,1,0,0:0:0:0:
344,168,278443,1,0,0:0:0:0:
212,84,278689,2,0,P|202:75|196:65,1,25
83,115,279181,2,0,P|93:122|104:129,1,25
74,237,279673,6,0,P|128:234|166:188,1,100
123,57,281148,1,0,0:0:0:0:
221,147,281394,1,0,0:0:0:0:
362,173,281640,6,0,P|378:159|396:150,1,25
303,53,282132,2,0,P|309:41|324:27,1,25
186,21,282623,2,0,P|178:11|172:0,1,25
107,202,283115,1,0,0:0:0:0:
188,68,283361,1,0,0:0:0:0:
185,312,283607,5,0,0:0:0:0:
123,123,283853,1,0,0:0:0:0:
250,222,284099,2,0,P|292:219|307:203,2,50
304,83,285574,1,0,0:0:0:0:
434,133,286066,1,0,0:0:0:0:
253,129,286558,1,0,0:0:0:0:
365,23,287050,1,0,0:0:0:0:
288,210,287541,6,0,P|237:214|184:186,1,100
136,66,289017,1,0,0:0:0:0:
184,176,289263,1,0,0:0:0:0:
308,63,289509,6,0,P|319:62|341:63,1,25
352,189,290000,2,0,P|366:197|386:213,1,25
317,335,290492,2,0,P|331:351|338:374,1,25
185,254,290984,1,0,0:0:0:0:
223,384,291230,2,0,P|281:312|278:294,1,100
208,130,292460,5,0,0:0:0:0:
349,207,292951,2,0,L|315:212,1,25
169,214,293443,2,0,P|123:192|111:135,1,100
180,29,294919,1,0,0:0:0:0:
294,145,295410,6,0,P|330:138|367:87,1,100
368,68,299345,2,0,P|375:104|426:141,1,100
448,146,303279,2,0,P|412:153|375:204,1,100
375,217,307214,6,0,P|349:175|302:161,1,100
231,176,309673,1,0,0:0:0:0:
179,229,310164,1,0,0:0:0:0:
159,300,310656,1,0,0:0:0:0:
175,370,311148,5,0,0:0:0:0:
53,234,311394,1,0,0:0:0:0:
57,353,311640,1,0,0:0:0:0:
116,185,311886,1,0,0:0:0:0:
140,166,312378,5,0,0:0:0:0:
67,342,312623,1,0,0:0:0:0:
64,237,312869,1,0,0:0:0:0:
