osu file format v14

[General]
AudioFilename: snow amber.mp3
AudioLeadIn: 2000
PreviewTime: 84659
Countdown: 0
SampleSet: Normal
StackLeniency: 0.7
Mode: 1
LetterboxInBreaks: 0
WidescreenStoryboard: 0

[Editor]
DistanceSpacing: 1.4
BeatDivisor: 4
GridSize: 32
TimelineZoom: 2.400001

[Metadata]
Title:Yukikohaku -snow amber- Remix
TitleUnicode:雪琥珀 -snow amber- Remix
Artist:TUMENECO & GET IN THE RING
ArtistUnicode:TUMENECO & GET IN THE RING
Creator:Felt7z
Version:Inner Oni
Source:東方project
Tags:GCHM TUMENECO yukina MieJell Sar7 Turbo_BBA yassu- 東方星蓮船 ~ Undefined Fantastic Object touhou 東方 AVENGE Another World 2 GET IN THE RING
BeatmapID:1116017
BeatmapSetID:525861

[Difficulty]
HPDrainRate:5
CircleSize:5
OverallDifficulty:5.5
ApproachRate:5
SliderMultiplier:1.4
SliderTickRate:1

[Events]
//Background and Video events
0,0,"G.jpg",0,50
//Break Periods
2,236276,238232
//Storyboard Layer 0 (Background)
//Storyboard Layer 1 (Fail)
//Storyboard Layer 2 (Pass)
//Storyboard Layer 3 (Foreground)
//Storyboard Sound Samples

[TimingPoints]
272,419.58041958042,4,1,0,60,1,8
1111,419.58041958042,4,1,0,60,1,0
14537,-100,4,1,0,70,0,0
21250,-100,4,1,0,80,0,0
27964,-100,4,1,0,90,0,0
41390,-100,4,1,0,70,0,0
68243,-100,4,1,0,80,0,0
85027,-100,4,1,0,90,0,1
111880,-100,4,1,0,90,0,0
125306,-100,4,1,0,70,0,0
152159,-100,4,1,0,80,0,0
168943,-100,4,1,0,90,0,1
195796,-100,4,1,0,80,0,0
209222,-100,4,1,0,100,0,1
236076,-100,4,1,0,100,0,0
239432,-100,4,1,0,60,0,0
246145,-100,4,1,0,70,0,0
252859,-100,4,1,0,90,0,1
264607,-100,4,1,0,90,0,0
266285,-100,4,1,0,80,0,0
279712,-100,4,1,0,80,0,1
289782,-100,4,1,0,60,0,1
291460,-100,4,1,0,60,0,0

[HitObjects]
256,192,1111,5,0,0:0:0:0:
256,192,1740,1,8,0:0:0:0:
256,192,2369,1,0,0:0:0:0:
256,192,2789,1,0,0:0:0:0:
256,192,3418,1,8,0:0:0:0:
256,192,4048,1,0,0:0:0:0:
256,192,4258,1,0,0:0:0:0:
256,192,4467,1,8,0:0:0:0:
256,192,4887,1,0,0:0:0:0:
256,192,5306,1,0,0:0:0:0:
256,192,5726,1,8,0:0:0:0:
256,192,6146,1,8,0:0:0:0:
256,192,6565,1,0,0:0:0:0:
256,192,6775,1,8,0:0:0:0:
256,192,7195,1,0,0:0:0:0:
256,192,7404,1,0,0:0:0:0:
256,192,7824,1,0,0:0:0:0:
256,192,8034,1,0,0:0:0:0:
256,192,8244,1,8,0:0:0:0:
256,192,8453,1,0,0:0:0:0:
256,192,8663,1,0,0:0:0:0:
256,192,8873,1,8,0:0:0:0:
256,192,9083,1,0,0:0:0:0:
256,192,9292,1,0,0:0:0:0:
256,192,9502,1,8,0:0:0:0:
256,192,9712,1,0,0:0:0:0:
256,192,9922,1,0,0:0:0:0:
256,192,10132,1,8,0:0:0:0:
256,192,10341,1,0,0:0:0:0:
256,192,10551,1,8,0:0:0:0:
256,192,10761,1,8,0:0:0:0:
256,192,11181,1,0,0:0:0:0:
256,192,11390,1,0,0:0:0:0:
256,192,11600,1,8,0:0:0:0:
256,192,11810,1,0,0:0:0:0:
256,192,12020,1,0,0:0:0:0:
256,192,12230,1,8,0:0:0:0:
256,192,12439,1,0,0:0:0:0:
256,192,12649,1,0,0:0:0:0:
256,192,12859,1,12,0:0:0:0:
256,192,13698,1,0,0:0:0:0:
256,192,14118,1,0,0:0:0:0:
256,192,14537,1,0,0:0:0:0:
256,192,14747,1,8,0:0:0:0:
256,192,14852,1,0,0:0:0:0:
256,192,15167,1,0,0:0:0:0:
256,192,15376,1,8,0:0:0:0:
256,192,15481,1,0,0:0:0:0:
256,192,15796,1,0,0:0:0:0:
256,192,16006,1,0,0:0:0:0:
256,192,16216,1,0,0:0:0:0:
256,192,16425,1,8,0:0:0:0:
256,192,16530,1,0,0:0:0:0:
256,192,16740,1,8,0:0:0:0:
256,192,16845,1,0,0:0:0:0:
256,192,17055,1,8,0:0:0:0:
256,192,17160,1,8,0:0:0:0:
256,192,17265,1,0,0:0:0:0:
256,192,17369,1,8,0:0:0:0:
256,192,17474,1,0,0:0:0:0:
256,192,17684,1,0,0:0:0:0:
256,192,17894,1,0,0:0:0:0:
256,192,18104,1,8,0:0:0:0:
256,192,18209,1,0,0:0:0:0:
256,192,18523,1,0,0:0:0:0:
256,192,18733,1,8,0:0:0:0:
256,192,18838,1,0,0:0:0:0:
256,192,18943,1,0,0:0:0:0:
256,192,19153,1,8,0:0:0:0:
256,192,19362,1,0,0:0:0:0:
256,192,19572,1,0,0:0:0:0:
256,192,19782,1,8,0:0:0:0:
256,192,19887,1,0,0:0:0:0:
256,192,20097,1,8,0:0:0:0:
256,192,20202,1,0,0:0:0:0:
256,192,20411,1,8,0:0:0:0:
256,192,20621,1,0,0:0:0:0:
256,192,20726,1,0,0:0:0:0:
256,192,20831,1,8,0:0:0:0:
256,192,21041,1,0,0:0:0:0:
256,192,21251,1,0,0:0:0:0:
256,192,21460,1,8,0:0:0:0:
256,192,21565,1,0,0:0:0:0:
256,192,21775,1,0,0:0:0:0:
256,192,21880,1,8,0:0:0:0:
256,192,21985,1,0,0:0:0:0:
256,192,22090,1,0,0:0:0:0:
256,192,22195,1,8,0:0:0:0:
256,192,22404,1,8,0:0:0:0:
256,192,22509,1,0,0:0:0:0:
256,192,22719,1,0,0:0:0:0:
256,192,22929,1,0,0:0:0:0:
256,192,23139,1,8,0:0:0:0:
256,192,23244,1,0,0:0:0:0:
256,192,23453,1,0,0:0:0:0:
256,192,23558,1,8,0:0:0:0:
256,192,23663,1,8,0:0:0:0:
256,192,23768,1,0,0:0:0:0:
256,192,23873,1,8,0:0:0:0:
256,192,24083,1,8,0:0:0:0:
256,192,24188,1,0,0:0:0:0:
256,192,24397,1,0,0:0:0:0:
256,192,24502,1,8,0:0:0:0:
256,192,24607,1,0,0:0:0:0:
256,192,24817,1,0,0:0:0:0:
256,192,25027,1,0,0:0:0:0:
256,192,25237,1,0,0:0:0:0:
256,192,25446,1,0,0:0:0:0:
256,192,25551,1,0,0:0:0:0:
256,192,25656,1,0,0:0:0:0:
256,192,25761,1,0,0:0:0:0:
256,192,25866,1,8,0:0:0:0:
256,192,25971,1,0,0:0:0:0:
256,192,26076,1,8,0:0:0:0:
256,192,26181,1,0,0:0:0:0:
256,192,26285,1,8,0:0:0:0:
256,192,26390,1,8,0:0:0:0:
256,192,26495,1,0,0:0:0:0:
256,192,26600,1,8,0:0:0:0:
256,192,26705,1,8,0:0:0:0:
256,192,26810,1,0,0:0:0:0:
256,192,26915,1,8,0:0:0:0:
256,192,27020,1,8,0:0:0:0:
256,192,27124,1,0,0:0:0:0:
256,192,27229,1,8,0:0:0:0:
256,192,27334,1,0,0:0:0:0:
256,192,27439,1,0,0:0:0:0:
256,192,27544,1,8,0:0:0:0:
256,192,27614,1,0,0:0:0:0:
256,192,27684,1,0,0:0:0:0:
256,192,27754,1,8,0:0:0:0:
256,192,27859,1,0,0:0:0:0:
256,192,27964,1,8,0:0:0:0:
256,192,28174,1,0,0:0:0:0:
256,192,28383,1,8,0:0:0:0:
256,192,28593,1,0,0:0:0:0:
256,192,28698,1,8,0:0:0:0:
256,192,28908,1,0,0:0:0:0:
256,192,29013,1,8,0:0:0:0:
256,192,29223,1,0,0:0:0:0:
256,192,29327,1,8,0:0:0:0:
256,192,29432,1,0,0:0:0:0:
256,192,29537,1,0,0:0:0:0:
256,192,29642,1,8,0:0:0:0:
256,192,29852,1,0,0:0:0:0:
256,192,30062,1,8,0:0:0:0:
256,192,30272,1,0,0:0:0:0:
256,192,30376,1,8,0:0:0:0:
256,192,30481,1,0,0:0:0:0:
256,192,30586,1,0,0:0:0:0:
256,192,30691,1,8,0:0:0:0:
256,192,30796,1,0,0:0:0:0:
256,192,30901,1,8,0:0:0:0:
256,192,31006,1,8,0:0:0:0:
256,192,31111,1,0,0:0:0:0:
256,192,31320,1,8,0:0:0:0:
256,192,31530,1,0,0:0:0:0:
256,192,31740,1,8,0:0:0:0:
256,192,31950,1,0,0:0:0:0:
256,192,32055,1,8,0:0:0:0:
256,192,32265,1,8,0:0:0:0:
256,192,32369,1,0,0:0:0:0:
256,192,32579,1,8,0:0:0:0:
256,192,32789,1,0,0:0:0:0:
256,192,32894,1,8,0:0:0:0:
256,192,32999,1,8,0:0:0:0:
256,192,33104,1,0,0:0:0:0:
256,192,33209,1,8,0:0:0:0:
256,192,33418,1,8,0:0:0:0:
256,192,33628,1,0,0:0:0:0:
256,192,33733,1,0,0:0:0:0:
256,192,33943,1,8,0:0:0:0:
256,192,34048,1,0,0:0:0:0:
256,192,34258,1,8,0:0:0:0:
256,192,34362,1,8,0:0:0:0:
256,192,34467,1,0,0:0:0:0:
256,192,34572,1,0,0:0:0:0:
256,192,34677,1,8,0:0:0:0:
256,192,34887,1,0,0:0:0:0:
256,192,35097,1,8,0:0:0:0:
256,192,35306,1,0,0:0:0:0:
256,192,35411,1,8,0:0:0:0:
256,192,35621,1,0,0:0:0:0:
256,192,35726,1,8,0:0:0:0:
256,192,35936,1,0,0:0:0:0:
256,192,36041,1,8,0:0:0:0:
256,192,36146,1,0,0:0:0:0:
256,192,36250,1,0,0:0:0:0:
256,192,36355,1,8,0:0:0:0:
256,192,36565,1,0,0:0:0:0:
256,192,36775,1,8,0:0:0:0:
256,192,36985,1,0,0:0:0:0:
256,192,37090,1,8,0:0:0:0:
256,192,37195,1,8,0:0:0:0:
256,192,37299,1,0,0:0:0:0:
256,192,37404,1,8,0:0:0:0:
256,192,37509,1,0,0:0:0:0:
256,192,37614,1,8,0:0:0:0:
256,192,37719,1,8,0:0:0:0:
256,192,37824,1,0,0:0:0:0:
256,192,38034,1,8,0:0:0:0:
256,192,38244,1,0,0:0:0:0:
256,192,38453,1,8,0:0:0:0:
256,192,38663,1,0,0:0:0:0:
256,192,38768,1,8,0:0:0:0:
256,192,38978,1,8,0:0:0:0:
256,192,39083,1,0,0:0:0:0:
256,192,39292,1,8,0:0:0:0:
256,192,39502,1,0,0:0:0:0:
256,192,39607,1,8,0:0:0:0:
256,192,39712,1,0,0:0:0:0:
256,192,40027,1,0,0:0:0:0:
256,192,40341,1,0,0:0:0:0:
256,192,40551,1,0,0:0:0:0:
256,192,40656,1,8,0:0:0:0:
256,192,40761,1,8,0:0:0:0:
256,192,40866,1,8,0:0:0:0:
256,192,40971,1,0,0:0:0:0:
256,192,41076,1,0,0:0:0:0:
256,192,41180,1,0,0:0:0:0:
256,192,41285,1,0,0:0:0:0:
256,192,41390,1,0,0:0:0:0:
256,192,41705,1,0,0:0:0:0:
256,192,41810,1,8,0:0:0:0:
256,192,42020,1,0,0:0:0:0:
256,192,42125,1,8,0:0:0:0:
256,192,42230,1,8,0:0:0:0:
256,192,42439,1,0,0:0:0:0:
256,192,42649,1,8,0:0:0:0:
256,192,42859,1,8,0:0:0:0:
256,192,42964,1,8,0:0:0:0:
256,192,43069,1,0,0:0:0:0:
256,192,43383,1,0,0:0:0:0:
256,192,43488,1,8,0:0:0:0:
256,192,43698,1,0,0:0:0:0:
256,192,43803,1,0,0:0:0:0:
256,192,43908,1,0,0:0:0:0:
256,192,44013,1,8,0:0:0:0:
256,192,44118,1,0,0:0:0:0:
256,192,44327,1,8,0:0:0:0:
256,192,44747,1,0,0:0:0:0:
256,192,45062,1,0,0:0:0:0:
256,192,45167,1,8,0:0:0:0:
256,192,45376,1,8,0:0:0:0:
256,192,45481,1,8,0:0:0:0:
256,192,45586,1,0,0:0:0:0:
256,192,45691,1,0,0:0:0:0:
256,192,45796,1,0,0:0:0:0:
256,192,46006,1,8,0:0:0:0:
256,192,46216,1,8,0:0:0:0:
256,192,46320,1,8,0:0:0:0:
256,192,46425,1,0,0:0:0:0:
256,192,46740,1,0,0:0:0:0:
256,192,46845,1,8,0:0:0:0:
256,192,47055,1,0,0:0:0:0:
256,192,47160,1,0,0:0:0:0:
256,192,47264,1,8,0:0:0:0:
256,192,47369,1,0,0:0:0:0:
256,192,47474,1,8,0:0:0:0:
256,192,47684,1,8,0:0:0:0:
256,192,47894,1,0,0:0:0:0:
256,192,47999,1,0,0:0:0:0:
256,192,48104,1,0,0:0:0:0:
256,192,48418,1,0,0:0:0:0:
256,192,48523,1,8,0:0:0:0:
256,192,48733,1,0,0:0:0:0:
256,192,48838,1,8,0:0:0:0:
256,192,48943,1,0,0:0:0:0:
256,192,49153,1,0,0:0:0:0:
256,192,49362,1,8,0:0:0:0:
256,192,49572,1,0,0:0:0:0:
256,192,49677,1,0,0:0:0:0:
256,192,49782,1,0,0:0:0:0:
256,192,50097,1,0,0:0:0:0:
256,192,50202,1,8,0:0:0:0:
256,192,50411,1,0,0:0:0:0:
256,192,50516,1,0,0:0:0:0:
256,192,50621,1,0,0:0:0:0:
256,192,50726,1,8,0:0:0:0:
256,192,50831,1,0,0:0:0:0:
256,192,51041,1,8,0:0:0:0:
256,192,51250,1,0,0:0:0:0:
256,192,51355,1,8,0:0:0:0:
256,192,51460,1,0,0:0:0:0:
256,192,51775,1,0,0:0:0:0:
256,192,51880,1,8,0:0:0:0:
256,192,52090,1,0,0:0:0:0:
256,192,52195,1,0,0:0:0:0:
256,192,52299,1,0,0:0:0:0:
256,192,52509,1,0,0:0:0:0:
256,192,52719,1,8,0:0:0:0:
256,192,52929,1,0,0:0:0:0:
256,192,53034,1,0,0:0:0:0:
256,192,53139,1,8,0:0:0:0:
256,192,53348,1,0,0:0:0:0:
256,192,53453,1,8,0:0:0:0:
256,192,53663,1,0,0:0:0:0:
256,192,53768,1,8,0:0:0:0:
256,192,53978,1,0,0:0:0:0:
256,192,54188,1,8,0:0:0:0:
256,192,54292,1,0,0:0:0:0:
256,192,54397,1,8,0:0:0:0:
256,192,54502,1,8,0:0:0:0:
256,192,54607,1,0,0:0:0:0:
256,192,54712,1,0,0:0:0:0:
256,192,54817,1,0,0:0:0:0:
256,192,55131,1,0,0:0:0:0:
256,192,55237,1,8,0:0:0:0:
256,192,55446,1,0,0:0:0:0:
256,192,55551,1,8,0:0:0:0:
256,192,55656,1,8,0:0:0:0:
256,192,55866,1,0,0:0:0:0:
256,192,56076,1,8,0:0:0:0:
256,192,56285,1,8,0:0:0:0:
256,192,56390,1,8,0:0:0:0:
256,192,56495,1,0,0:0:0:0:
256,192,56810,1,0,0:0:0:0:
256,192,56915,1,8,0:0:0:0:
256,192,57125,1,0,0:0:0:0:
256,192,57229,1,0,0:0:0:0:
256,192,57334,1,8,0:0:0:0:
256,192,57439,1,8,0:0:0:0:
256,192,57544,1,0,0:0:0:0:
256,192,57754,1,8,0:0:0:0:
256,192,58174,1,0,0:0:0:0:
256,192,58488,1,0,0:0:0:0:
256,192,58593,1,8,0:0:0:0:
256,192,58803,1,8,0:0:0:0:
256,192,58908,1,8,0:0:0:0:
256,192,59013,1,0,0:0:0:0:
256,192,59117,1,8,0:0:0:0:
256,192,59222,1,0,0:0:0:0:
256,192,59432,1,8,0:0:0:0:
256,192,59642,1,8,0:0:0:0:
256,192,59747,1,8,0:0:0:0:
256,192,59852,1,0,0:0:0:0:
256,192,60166,1,0,0:0:0:0:
256,192,60271,1,8,0:0:0:0:
256,192,60481,1,0,0:0:0:0:
256,192,60586,1,0,0:0:0:0:
256,192,60691,1,8,0:0:0:0:
256,192,60796,1,0,0:0:0:0:
256,192,60901,1,8,0:0:0:0:
256,192,61111,1,8,0:0:0:0:
256,192,61320,1,0,0:0:0:0:
256,192,61425,1,0,0:0:0:0:
256,192,61530,1,0,0:0:0:0:
256,192,61845,1,0,0:0:0:0:
256,192,61950,1,8,0:0:0:0:
256,192,62160,1,8,0:0:0:0:
256,192,62265,1,8,0:0:0:0:
256,192,62369,1,0,0:0:0:0:
256,192,62474,1,8,0:0:0:0:
256,192,62579,1,0,0:0:0:0:
256,192,62789,1,8,0:0:0:0:
256,192,62999,1,0,0:0:0:0:
256,192,63104,1,8,0:0:0:0:
256,192,63209,1,0,0:0:0:0:
256,192,63523,1,0,0:0:0:0:
256,192,63628,1,8,0:0:0:0:
256,192,63838,1,8,0:0:0:0:
256,192,63943,1,0,0:0:0:0:
256,192,64048,1,8,0:0:0:0:
256,192,64152,1,8,0:0:0:0:
256,192,64257,1,0,0:0:0:0:
256,192,64467,1,8,0:0:0:0:
256,192,64677,1,8,0:0:0:0:
256,192,64782,1,8,0:0:0:0:
256,192,64887,1,0,0:0:0:0:
256,192,65201,1,0,0:0:0:0:
256,192,65306,1,8,0:0:0:0:
256,192,65516,1,0,0:0:0:0:
256,192,65621,1,0,0:0:0:0:
256,192,65726,1,0,0:0:0:0:
256,192,65936,1,8,0:0:0:0:
256,192,66041,1,0,0:0:0:0:
256,192,66146,1,8,0:0:0:0:
256,192,66250,1,8,0:0:0:0:
256,192,66355,1,0,0:0:0:0:
256,192,66460,1,0,0:0:0:0:
256,192,66565,1,8,0:0:0:0:
256,192,66775,1,0,0:0:0:0:
256,192,66880,1,8,0:0:0:0:
256,192,66985,1,0,0:0:0:0:
256,192,67194,1,8,0:0:0:0:
256,192,67299,1,8,0:0:0:0:
256,192,67404,1,0,0:0:0:0:
256,192,67509,1,0,0:0:0:0:
256,192,67614,1,8,0:0:0:0:
256,192,67824,1,0,0:0:0:0:
256,192,68034,1,8,0:0:0:0:
256,192,68139,1,8,0:0:0:0:
256,192,68244,1,0,0:0:0:0:
256,192,68453,1,0,0:0:0:0:
256,192,68558,1,0,0:0:0:0:
256,192,68663,1,8,0:0:0:0:
256,192,68768,1,0,0:0:0:0:
256,192,68873,1,8,0:0:0:0:
256,192,69083,1,0,0:0:0:0:
256,192,69188,1,0,0:0:0:0:
256,192,69292,1,8,0:0:0:0:
256,192,69397,1,0,0:0:0:0:
256,192,69502,1,0,0:0:0:0:
256,192,69712,1,8,0:0:0:0:
256,192,69817,1,0,0:0:0:0:
256,192,69922,1,8,0:0:0:0:
256,192,70132,1,8,0:0:0:0:
256,192,70237,1,0,0:0:0:0:
256,192,70341,1,8,0:0:0:0:
256,192,70446,1,8,0:0:0:0:
256,192,70551,1,0,0:0:0:0:
256,192,70761,1,0,0:0:0:0:
256,192,70866,1,8,0:0:0:0:
256,192,70971,1,0,0:0:0:0:
256,192,71076,1,0,0:0:0:0:
256,192,71181,1,8,0:0:0:0:
256,192,71285,1,0,0:0:0:0:
256,192,71390,1,8,0:0:0:0:
256,192,71495,1,8,0:0:0:0:
256,192,71600,1,0,0:0:0:0:
256,192,71810,1,0,0:0:0:0:
256,192,71915,1,0,0:0:0:0:
256,192,72020,1,8,0:0:0:0:
256,192,72125,1,0,0:0:0:0:
256,192,72230,1,8,0:0:0:0:
256,192,72439,1,0,0:0:0:0:
256,192,72544,1,0,0:0:0:0:
256,192,72649,1,8,0:0:0:0:
256,192,72754,1,0,0:0:0:0:
256,192,72859,1,0,0:0:0:0:
256,192,73069,1,8,0:0:0:0:
256,192,73174,1,0,0:0:0:0:
256,192,73278,1,8,0:0:0:0:
256,192,73488,1,0,0:0:0:0:
256,192,73593,1,0,0:0:0:0:
256,192,73698,1,8,0:0:0:0:
256,192,73803,1,0,0:0:0:0:
256,192,74013,1,8,0:0:0:0:
256,192,74118,1,0,0:0:0:0:
256,192,74327,1,0,0:0:0:0:
256,192,74432,1,8,0:0:0:0:
256,192,74642,1,0,0:0:0:0:
256,192,74747,1,8,0:0:0:0:
256,192,74852,1,8,0:0:0:0:
256,192,74957,1,0,0:0:0:0:
256,192,75167,1,0,0:0:0:0:
256,192,75272,1,0,0:0:0:0:
256,192,75376,1,8,0:0:0:0:
256,192,75481,1,0,0:0:0:0:
256,192,75586,1,8,0:0:0:0:
256,192,75796,1,0,0:0:0:0:
256,192,75901,1,0,0:0:0:0:
256,192,76006,1,8,0:0:0:0:
256,192,76111,1,0,0:0:0:0:
256,192,76216,1,0,0:0:0:0:
256,192,76425,1,8,0:0:0:0:
256,192,76635,1,4,0:0:0:0:
256,192,76845,1,8,0:0:0:0:
256,192,77055,1,4,0:0:0:0:
256,192,77265,1,8,0:0:0:0:
256,192,77474,1,4,0:0:0:0:
256,192,77684,1,0,0:0:0:0:
256,192,77894,1,8,0:0:0:0:
256,192,78104,1,8,0:0:0:0:
256,192,78209,1,8,0:0:0:0:
256,192,78313,1,0,0:0:0:0:
256,192,78523,1,8,0:0:0:0:
256,192,78628,1,0,0:0:0:0:
256,192,78733,1,8,0:0:0:0:
256,192,78943,1,8,0:0:0:0:
256,192,79048,1,0,0:0:0:0:
256,192,79153,1,8,0:0:0:0:
256,192,79258,1,8,0:0:0:0:
256,192,79362,1,8,0:0:0:0:
256,192,79572,1,0,0:0:0:0:
256,192,79782,1,8,0:0:0:0:
256,192,79887,1,0,0:0:0:0:
256,192,79992,1,8,0:0:0:0:
256,192,80202,1,8,0:0:0:0:
256,192,80306,1,0,0:0:0:0:
256,192,80411,1,8,0:0:0:0:
256,192,80516,1,8,0:0:0:0:
256,192,80621,1,8,0:0:0:0:
256,192,80831,1,0,0:0:0:0:
256,192,81041,1,8,0:0:0:0:
256,192,81146,1,0,0:0:0:0:
256,192,81251,1,8,0:0:0:0:
256,192,81355,1,8,0:0:0:0:
256,192,81460,1,0,0:0:0:0:
256,192,81670,1,0,0:0:0:0:
256,192,81880,1,8,0:0:0:0:
256,192,81985,1,0,0:0:0:0:
256,192,82090,1,8,0:0:0:0:
256,192,82299,1,8,0:0:0:0:
256,192,82404,1,0,0:0:0:0:
256,192,82509,1,8,0:0:0:0:
256,192,82614,1,8,0:0:0:0:
256,192,82719,1,0,0:0:0:0:
256,192,82824,1,8,0:0:0:0:
256,192,82929,1,8,0:0:0:0:
256,192,83034,1,0,0:0:0:0:
256,192,83139,1,8,0:0:0:0:
256,192,83348,1,12,0:0:0:0:
256,192,83768,1,12,0:0:0:0:
256,192,84188,1,0,0:0:0:0:
256,192,84607,1,0,0:0:0:0:
256,192,85027,1,0,0:0:0:0:
256,192,85341,1,0,0:0:0:0:
256,192,85446,1,8,0:0:0:0:
256,192,85656,1,0,0:0:0:0:
256,192,85761,1,8,0:0:0:0:
256,192,85866,1,0,0:0:0:0:
256,192,85971,1,0,0:0:0:0:
256,192,86076,1,0,0:0:0:0:
256,192,86285,1,8,0:0:0:0:
256,192,86495,1,8,0:0:0:0:
256,192,86600,1,8,0:0:0:0:
256,192,86705,1,0,0:0:0:0:
256,192,86915,1,0,0:0:0:0:
256,192,87020,1,8,0:0:0:0:
256,192,87229,1,8,0:0:0:0:
256,192,87334,1,0,0:0:0:0:
256,192,87544,1,8,0:0:0:0:
256,192,87754,1,0,0:0:0:0:
256,192,87859,1,0,0:0:0:0:
256,192,87964,1,8,0:0:0:0:
256,192,88069,1,0,0:0:0:0:
256,192,88173,1,8,0:0:0:0:
256,192,88383,1,8,0:0:0:0:
256,192,88593,1,8,0:0:0:0:
256,192,88698,1,8,0:0:0:0:
256,192,88908,1,8,0:0:0:0:
256,192,89013,1,0,0:0:0:0:
256,192,89222,1,8,0:0:0:0:
256,192,89432,1,8,0:0:0:0:
256,192,89537,1,0,0:0:0:0:
256,192,89642,1,8,0:0:0:0:
256,192,89747,1,8,0:0:0:0:
256,192,89852,1,0,0:0:0:0:
256,192,90062,1,8,0:0:0:0:
256,192,90271,1,0,0:0:0:0:
256,192,90376,1,0,0:0:0:0:
256,192,90481,1,8,0:0:0:0:
256,192,90691,1,0,0:0:0:0:
256,192,90796,1,0,0:0:0:0:
256,192,90901,1,8,0:0:0:0:
256,192,91006,1,0,0:0:0:0:
256,192,91111,1,8,0:0:0:0:
256,192,91216,1,8,0:0:0:0:
256,192,91320,1,0,0:0:0:0:
256,192,91425,1,0,0:0:0:0:
256,192,91530,1,8,0:0:0:0:
256,192,91740,1,0,0:0:0:0:
256,192,92055,1,0,0:0:0:0:
256,192,92160,1,8,0:0:0:0:
256,192,92369,1,0,0:0:0:0:
256,192,92474,1,8,0:0:0:0:
256,192,92579,1,0,0:0:0:0:
256,192,92684,1,0,0:0:0:0:
256,192,92789,1,8,0:0:0:0:
256,192,92999,1,8,0:0:0:0:
256,192,93209,1,0,0:0:0:0:
256,192,93313,1,0,0:0:0:0:
256,192,93418,1,0,0:0:0:0:
256,192,93628,1,8,0:0:0:0:
256,192,93733,1,0,0:0:0:0:
256,192,93943,1,8,0:0:0:0:
256,192,94048,1,0,0:0:0:0:
256,192,94258,1,8,0:0:0:0:
256,192,94467,1,8,0:0:0:0:
256,192,94572,1,0,0:0:0:0:
256,192,94677,1,8,0:0:0:0:
256,192,94782,1,8,0:0:0:0:
256,192,94887,1,0,0:0:0:0:
256,192,94992,1,0,0:0:0:0:
256,192,95097,1,8,0:0:0:0:
256,192,95306,1,8,0:0:0:0:
256,192,95411,1,8,0:0:0:0:
256,192,95621,1,8,0:0:0:0:
256,192,95726,1,0,0:0:0:0:
256,192,95936,1,8,0:0:0:0:
256,192,96041,1,8,0:0:0:0:
256,192,96146,1,0,0:0:0:0:
256,192,96355,1,8,0:0:0:0:
256,192,96565,1,8,0:0:0:0:
256,192,96670,1,0,0:0:0:0:
256,192,96775,1,8,0:0:0:0:
256,192,96880,1,8,0:0:0:0:
256,192,96985,1,0,0:0:0:0:
256,192,97195,1,8,0:0:0:0:
256,192,97299,1,8,0:0:0:0:
256,192,97404,1,0,0:0:0:0:
256,192,97509,1,8,0:0:0:0:
256,192,97614,1,8,0:0:0:0:
256,192,97824,1,8,0:0:0:0:
256,192,98034,1,8,0:0:0:0:
256,192,98138,1,0,0:0:0:0:
256,192,98243,1,8,0:0:0:0:
256,192,98348,1,8,0:0:0:0:
256,192,98453,1,0,0:0:0:0:
256,192,98768,1,0,0:0:0:0:
256,192,98873,1,8,0:0:0:0:
256,192,99083,1,0,0:0:0:0:
256,192,99188,1,8,0:0:0:0:
256,192,99292,1,0,0:0:0:0:
256,192,99397,1,0,0:0:0:0:
256,192,99502,1,0,0:0:0:0:
256,192,99712,1,8,0:0:0:0:
256,192,99922,1,8,0:0:0:0:
256,192,100027,1,8,0:0:0:0:
256,192,100132,1,0,0:0:0:0:
256,192,100341,1,0,0:0:0:0:
256,192,100446,1,8,0:0:0:0:
256,192,100656,1,8,0:0:0:0:
256,192,100761,1,0,0:0:0:0:
256,192,100971,1,0,0:0:0:0:
256,192,101181,1,8,0:0:0:0:
256,192,101285,1,0,0:0:0:0:
256,192,101390,1,8,0:0:0:0:
256,192,101495,1,8,0:0:0:0:
256,192,101600,1,0,0:0:0:0:
256,192,101810,1,8,0:0:0:0:
256,192,102020,1,8,0:0:0:0:
256,192,102124,1,8,0:0:0:0:
256,192,102334,1,0,0:0:0:0:
256,192,102439,1,8,0:0:0:0:
256,192,102649,1,8,0:0:0:0:
256,192,102859,1,0,0:0:0:0:
256,192,102964,1,0,0:0:0:0:
256,192,103069,1,8,0:0:0:0:
256,192,103278,1,8,0:0:0:0:
256,192,103383,1,8,0:0:0:0:
256,192,103488,1,8,0:0:0:0:
256,192,103698,1,0,0:0:0:0:
256,192,103908,1,8,0:0:0:0:
256,192,104118,1,0,0:0:0:0:
256,192,104223,1,0,0:0:0:0:
256,192,104327,1,8,0:0:0:0:
256,192,104432,1,0,0:0:0:0:
256,192,104537,1,8,0:0:0:0:
256,192,104642,1,0,0:0:0:0:
256,192,104747,1,8,0:0:0:0:
256,192,104852,1,8,0:0:0:0:
256,192,104957,1,0,0:0:0:0:
256,192,105167,1,0,0:0:0:0:
256,192,105481,1,0,0:0:0:0:
256,192,105586,1,8,0:0:0:0:
256,192,105796,1,0,0:0:0:0:
256,192,105901,1,8,0:0:0:0:
256,192,106006,1,0,0:0:0:0:
256,192,106111,1,0,0:0:0:0:
256,192,106216,1,8,0:0:0:0:
256,192,106425,1,8,0:0:0:0:
256,192,106635,1,0,0:0:0:0:
256,192,106740,1,0,0:0:0:0:
256,192,106845,1,8,0:0:0:0:
256,192,107055,1,0,0:0:0:0:
256,192,107159,1,8,0:0:0:0:
256,192,107264,1,0,0:0:0:0:
256,192,107474,1,8,0:0:0:0:
256,192,107684,1,8,0:0:0:0:
256,192,107789,1,8,0:0:0:0:
256,192,107894,1,0,0:0:0:0:
256,192,108104,1,8,0:0:0:0:
256,192,108523,2,0,L|32:192,1,210
256,192,109572,1,0,0:0:0:0:
256,192,109782,1,0,0:0:0:0:
256,192,109992,1,8,0:0:0:0:
256,192,110202,1,12,0:0:0:0:
256,192,110621,1,4,0:0:0:0:
256,192,111041,1,0,0:0:0:0:
256,192,111111,1,0,0:0:0:0:
256,192,111181,1,0,0:0:0:0:
256,192,111251,1,8,0:0:0:0:
256,192,111355,1,0,0:0:0:0:
256,192,111460,1,8,0:0:0:0:
256,192,111565,1,8,0:0:0:0:
256,192,111670,1,0,0:0:0:0:
256,192,111880,1,0,0:0:0:0:
256,192,112090,1,8,0:0:0:0:
256,192,112299,1,8,0:0:0:0:
256,192,112509,1,0,0:0:0:0:
256,192,112614,1,8,0:0:0:0:
256,192,112824,1,8,0:0:0:0:
256,192,112929,1,0,0:0:0:0:
256,192,113139,1,8,0:0:0:0:
256,192,113348,1,0,0:0:0:0:
256,192,113453,1,0,0:0:0:0:
256,192,113558,1,0,0:0:0:0:
256,192,113768,1,8,0:0:0:0:
256,192,113873,1,0,0:0:0:0:
256,192,113978,1,8,0:0:0:0:
256,192,114187,1,8,0:0:0:0:
256,192,114292,1,0,0:0:0:0:
256,192,114397,1,8,0:0:0:0:
256,192,114502,1,8,0:0:0:0:
256,192,114607,1,0,0:0:0:0:
256,192,114817,1,8,0:0:0:0:
256,192,115237,1,0,0:0:0:0:
256,192,115446,1,8,0:0:0:0:
256,192,115656,1,8,0:0:0:0:
256,192,115866,1,0,0:0:0:0:
256,192,115971,1,8,0:0:0:0:
256,192,116181,1,8,0:0:0:0:
256,192,116285,1,8,0:0:0:0:
256,192,116495,1,8,0:0:0:0:
256,192,116705,1,0,0:0:0:0:
256,192,116810,1,8,0:0:0:0:
256,192,116915,1,8,0:0:0:0:
256,192,117020,1,0,0:0:0:0:
256,192,117124,1,8,0:0:0:0:
256,192,117334,1,8,0:0:0:0:
256,192,117544,1,0,0:0:0:0:
256,192,117649,1,0,0:0:0:0:
256,192,117859,1,8,0:0:0:0:
256,192,117964,1,0,0:0:0:0:
256,192,118174,1,8,0:0:0:0:
256,192,118278,1,0,0:0:0:0:
256,192,118383,1,0,0:0:0:0:
256,192,118488,1,0,0:0:0:0:
256,192,118593,1,0,0:0:0:0:
256,192,118803,1,8,0:0:0:0:
256,192,119013,1,8,0:0:0:0:
256,192,119223,1,0,0:0:0:0:
256,192,119327,1,8,0:0:0:0:
256,192,119537,1,0,0:0:0:0:
256,192,119642,1,8,0:0:0:0:
256,192,119852,1,0,0:0:0:0:
256,192,119957,1,8,0:0:0:0:
256,192,120062,1,0,0:0:0:0:
256,192,120166,1,0,0:0:0:0:
256,192,120272,1,0,0:0:0:0:
256,192,120481,1,8,0:0:0:0:
256,192,120691,1,8,0:0:0:0:
256,192,120901,1,0,0:0:0:0:
256,192,121006,1,0,0:0:0:0:
256,192,121111,1,0,0:0:0:0:
256,192,121320,1,8,0:0:0:0:
256,192,121530,1,0,0:0:0:0:
256,192,121740,1,0,0:0:0:0:
256,192,121845,1,8,0:0:0:0:
256,192,122160,1,0,0:0:0:0:
256,192,122265,1,0,0:0:0:0:
256,192,122369,1,8,0:0:0:0:
256,192,122579,1,0,0:0:0:0:
256,192,122789,1,8,0:0:0:0:
256,192,122999,1,0,0:0:0:0:
256,192,123104,1,0,0:0:0:0:
256,192,123209,1,8,0:0:0:0:
256,192,123418,1,0,0:0:0:0:
256,192,123628,1,0,0:0:0:0:
256,192,123838,1,8,0:0:0:0:
256,192,124048,1,0,0:0:0:0:
256,192,124258,1,8,0:0:0:0:
256,192,124467,1,0,0:0:0:0:
256,192,124887,1,0,0:0:0:0:
256,192,124992,1,0,0:0:0:0:
256,192,125097,1,0,0:0:0:0:
256,192,125202,1,0,0:0:0:0:
256,192,125306,1,0,0:0:0:0:
256,192,125621,1,0,0:0:0:0:
256,192,125726,1,8,0:0:0:0:
256,192,126355,1,0,0:0:0:0:
256,192,126565,1,8,0:0:0:0:
256,192,126775,1,0,0:0:0:0:
256,192,126985,1,0,0:0:0:0:
256,192,127299,1,0,0:0:0:0:
256,192,127404,1,8,0:0:0:0:
256,192,127614,1,0,0:0:0:0:
256,192,127719,1,0,0:0:0:0:
256,192,127824,1,8,0:0:0:0:
256,192,127929,1,0,0:0:0:0:
256,192,128034,1,0,0:0:0:0:
256,192,128244,1,8,0:0:0:0:
256,192,128453,1,8,0:0:0:0:
256,192,128558,1,8,0:0:0:0:
256,192,128663,1,0,0:0:0:0:
256,192,128978,1,0,0:0:0:0:
256,192,129083,1,8,0:0:0:0:
256,192,129292,1,8,0:0:0:0:
256,192,129397,1,8,0:0:0:0:
256,192,129502,1,0,0:0:0:0:
256,192,129607,1,8,0:0:0:0:
256,192,129712,1,0,0:0:0:0:
256,192,129922,1,8,0:0:0:0:
256,192,130132,1,0,0:0:0:0:
256,192,130341,1,0,0:0:0:0:
256,192,130656,1,0,0:0:0:0:
256,192,130761,1,8,0:0:0:0:
256,192,130971,1,8,0:0:0:0:
256,192,131076,1,8,0:0:0:0:
256,192,131181,1,0,0:0:0:0:
256,192,131285,1,8,0:0:0:0:
256,192,131390,1,0,0:0:0:0:
256,192,131600,1,8,0:0:0:0:
256,192,131810,1,0,0:0:0:0:
256,192,131915,1,0,0:0:0:0:
256,192,132020,1,0,0:0:0:0:
256,192,132334,1,0,0:0:0:0:
256,192,132439,1,8,0:0:0:0:
256,192,132649,1,0,0:0:0:0:
256,192,132754,1,8,0:0:0:0:
256,192,132859,1,0,0:0:0:0:
256,192,133069,1,0,0:0:0:0:
256,192,133278,1,8,0:0:0:0:
256,192,133488,1,0,0:0:0:0:
256,192,133593,1,0,0:0:0:0:
256,192,133698,1,0,0:0:0:0:
256,192,134013,1,0,0:0:0:0:
256,192,134118,1,8,0:0:0:0:
256,192,134327,1,0,0:0:0:0:
256,192,134432,1,0,0:0:0:0:
256,192,134537,1,0,0:0:0:0:
256,192,134642,1,8,0:0:0:0:
256,192,134747,1,0,0:0:0:0:
256,192,134957,1,8,0:0:0:0:
256,192,135167,1,0,0:0:0:0:
256,192,135272,1,8,0:0:0:0:
256,192,135376,1,0,0:0:0:0:
256,192,135691,1,0,0:0:0:0:
256,192,135796,1,8,0:0:0:0:
256,192,136006,1,0,0:0:0:0:
256,192,136111,1,0,0:0:0:0:
256,192,136216,1,0,0:0:0:0:
256,192,136425,1,0,0:0:0:0:
256,192,136635,1,8,0:0:0:0:
256,192,136845,1,0,0:0:0:0:
256,192,136950,1,0,0:0:0:0:
256,192,137055,1,8,0:0:0:0:
256,192,137265,1,0,0:0:0:0:
256,192,137369,1,8,0:0:0:0:
256,192,137579,1,0,0:0:0:0:
256,192,137684,1,8,0:0:0:0:
256,192,137894,1,0,0:0:0:0:
256,192,137999,1,8,0:0:0:0:
256,192,138104,1,8,0:0:0:0:
256,192,138209,1,0,0:0:0:0:
256,192,138313,1,8,0:0:0:0:
256,192,138418,1,8,0:0:0:0:
256,192,138523,1,0,0:0:0:0:
256,192,138628,1,0,0:0:0:0:
256,192,138733,1,0,0:0:0:0:
256,192,139048,1,0,0:0:0:0:
256,192,139153,1,8,0:0:0:0:
256,192,139362,1,0,0:0:0:0:
256,192,139467,1,8,0:0:0:0:
256,192,139572,1,8,0:0:0:0:
256,192,139782,1,0,0:0:0:0:
256,192,139992,1,8,0:0:0:0:
256,192,140202,1,8,0:0:0:0:
256,192,140306,1,8,0:0:0:0:
256,192,140411,1,0,0:0:0:0:
256,192,140621,1,0,0:0:0:0:
256,192,140726,1,8,0:0:0:0:
256,192,140936,1,0,0:0:0:0:
256,192,141041,1,8,0:0:0:0:
256,192,141251,1,8,0:0:0:0:
256,192,141355,1,0,0:0:0:0:
256,192,141460,1,0,0:0:0:0:
256,192,141670,1,8,0:0:0:0:
256,192,141880,1,8,0:0:0:0:
256,192,141985,1,8,0:0:0:0:
256,192,142090,1,0,0:0:0:0:
256,192,142404,1,0,0:0:0:0:
256,192,142509,1,8,0:0:0:0:
256,192,142719,1,0,0:0:0:0:
256,192,142824,1,8,0:0:0:0:
256,192,142929,1,8,0:0:0:0:
256,192,143139,1,0,0:0:0:0:
256,192,143348,1,8,0:0:0:0:
256,192,143558,1,8,0:0:0:0:
256,192,143663,1,8,0:0:0:0:
256,192,143768,1,0,0:0:0:0:
256,192,143978,1,0,0:0:0:0:
256,192,144083,1,8,0:0:0:0:
256,192,144292,1,0,0:0:0:0:
256,192,144397,1,8,0:0:0:0:
256,192,144607,1,8,0:0:0:0:
256,192,144712,1,0,0:0:0:0:
256,192,144817,1,0,0:0:0:0:
256,192,144922,1,8,0:0:0:0:
256,192,145027,1,0,0:0:0:0:
256,192,145132,1,8,0:0:0:0:
256,192,145237,1,0,0:0:0:0:
256,192,145446,1,0,0:0:0:0:
256,192,145761,1,0,0:0:0:0:
256,192,145866,1,8,0:0:0:0:
256,192,146076,1,8,0:0:0:0:
256,192,146180,1,0,0:0:0:0:
256,192,146285,1,8,0:0:0:0:
256,192,146390,1,8,0:0:0:0:
256,192,146495,1,0,0:0:0:0:
256,192,146705,1,8,0:0:0:0:
256,192,146915,1,8,0:0:0:0:
256,192,147020,1,0,0:0:0:0:
256,192,147125,1,8,0:0:0:0:
256,192,147230,1,8,0:0:0:0:
256,192,147334,1,0,0:0:0:0:
256,192,147439,1,8,0:0:0:0:
256,192,147544,1,8,0:0:0:0:
256,192,147649,1,0,0:0:0:0:
256,192,147754,1,8,0:0:0:0:
256,192,147859,1,0,0:0:0:0:
256,192,147964,1,8,0:0:0:0:
256,192,148174,1,8,0:0:0:0:
256,192,148278,1,0,0:0:0:0:
256,192,148383,1,8,0:0:0:0:
256,192,148488,1,0,0:0:0:0:
256,192,148593,1,8,0:0:0:0:
256,192,148698,1,8,0:0:0:0:
256,192,148803,1,0,0:0:0:0:
256,192,149117,1,0,0:0:0:0:
256,192,149223,1,8,0:0:0:0:
256,192,149432,1,0,0:0:0:0:
256,192,149537,1,0,0:0:0:0:
256,192,149642,1,0,0:0:0:0:
256,192,149852,1,8,0:0:0:0:
256,192,149957,1,0,0:0:0:0:
256,192,150062,1,8,0:0:0:0:
256,192,150166,1,8,0:0:0:0:
256,192,150272,1,0,0:0:0:0:
256,192,150376,1,0,0:0:0:0:
256,192,150481,1,8,0:0:0:0:
256,192,150691,1,0,0:0:0:0:
256,192,150796,1,8,0:0:0:0:
256,192,150901,1,0,0:0:0:0:
256,192,151111,1,8,0:0:0:0:
256,192,151215,1,8,0:0:0:0:
256,192,151320,1,0,0:0:0:0:
256,192,151425,1,0,0:0:0:0:
256,192,151530,1,8,0:0:0:0:
256,192,151740,1,0,0:0:0:0:
256,192,151950,1,8,0:0:0:0:
256,192,152055,1,8,0:0:0:0:
256,192,152160,1,0,0:0:0:0:
256,192,152369,1,0,0:0:0:0:
256,192,152474,1,0,0:0:0:0:
256,192,152579,1,8,0:0:0:0:
256,192,152684,1,0,0:0:0:0:
256,192,152789,1,8,0:0:0:0:
256,192,152999,1,0,0:0:0:0:
256,192,153104,1,0,0:0:0:0:
256,192,153209,1,8,0:0:0:0:
256,192,153313,1,0,0:0:0:0:
256,192,153418,1,0,0:0:0:0:
256,192,153628,1,8,0:0:0:0:
256,192,153733,1,0,0:0:0:0:
256,192,153838,1,8,0:0:0:0:
256,192,154048,1,8,0:0:0:0:
256,192,154153,1,0,0:0:0:0:
256,192,154258,1,8,0:0:0:0:
256,192,154362,1,8,0:0:0:0:
256,192,154467,1,0,0:0:0:0:
256,192,154677,1,0,0:0:0:0:
256,192,154782,1,8,0:0:0:0:
256,192,154887,1,0,0:0:0:0:
256,192,154992,1,0,0:0:0:0:
256,192,155097,1,8,0:0:0:0:
256,192,155202,1,0,0:0:0:0:
256,192,155306,1,8,0:0:0:0:
256,192,155411,1,8,0:0:0:0:
256,192,155516,1,0,0:0:0:0:
256,192,155726,1,0,0:0:0:0:
256,192,155831,1,0,0:0:0:0:
256,192,155936,1,8,0:0:0:0:
256,192,156041,1,0,0:0:0:0:
256,192,156146,1,8,0:0:0:0:
256,192,156355,1,0,0:0:0:0:
256,192,156460,1,0,0:0:0:0:
256,192,156565,1,8,0:0:0:0:
256,192,156670,1,0,0:0:0:0:
256,192,156775,1,0,0:0:0:0:
256,192,156985,1,8,0:0:0:0:
256,192,157090,1,0,0:0:0:0:
256,192,157195,1,8,0:0:0:0:
256,192,157404,1,0,0:0:0:0:
256,192,157509,1,0,0:0:0:0:
256,192,157614,1,8,0:0:0:0:
256,192,157719,1,0,0:0:0:0:
256,192,157929,1,8,0:0:0:0:
256,192,158034,1,0,0:0:0:0:
256,192,158244,1,0,0:0:0:0:
256,192,158348,1,8,0:0:0:0:
256,192,158558,1,0,0:0:0:0:
256,192,158663,1,8,0:0:0:0:
256,192,158768,1,8,0:0:0:0:
256,192,158873,1,0,0:0:0:0:
256,192,159083,1,0,0:0:0:0:
256,192,159188,1,0,0:0:0:0:
256,192,159292,1,8,0:0:0:0:
256,192,159397,1,0,0:0:0:0:
256,192,159502,1,8,0:0:0:0:
256,192,159712,1,0,0:0:0:0:
256,192,159817,1,0,0:0:0:0:
256,192,159922,1,8,0:0:0:0:
256,192,160027,1,0,0:0:0:0:
256,192,160132,1,0,0:0:0:0:
256,192,160341,1,8,0:0:0:0:
256,192,160551,1,4,0:0:0:0:
256,192,160761,1,8,0:0:0:0:
256,192,160971,1,4,0:0:0:0:
256,192,161181,1,8,0:0:0:0:
256,192,161390,1,4,0:0:0:0:
256,192,161600,1,0,0:0:0:0:
256,192,161810,1,8,0:0:0:0:
256,192,162020,1,8,0:0:0:0:
256,192,162125,1,8,0:0:0:0:
256,192,162230,1,0,0:0:0:0:
256,192,162439,1,8,0:0:0:0:
256,192,162544,1,0,0:0:0:0:
256,192,162649,1,8,0:0:0:0:
256,192,162859,1,8,0:0:0:0:
256,192,162964,1,0,0:0:0:0:
256,192,163069,1,8,0:0:0:0:
256,192,163174,1,8,0:0:0:0:
256,192,163278,1,8,0:0:0:0:
256,192,163488,1,0,0:0:0:0:
256,192,163698,1,8,0:0:0:0:
256,192,163803,1,0,0:0:0:0:
256,192,163908,1,8,0:0:0:0:
256,192,164118,1,8,0:0:0:0:
256,192,164223,1,0,0:0:0:0:
256,192,164327,1,8,0:0:0:0:
256,192,164432,1,8,0:0:0:0:
256,192,164537,1,8,0:0:0:0:
256,192,164747,1,0,0:0:0:0:
256,192,164957,1,8,0:0:0:0:
256,192,165062,1,0,0:0:0:0:
256,192,165167,1,8,0:0:0:0:
256,192,165272,1,8,0:0:0:0:
256,192,165376,1,0,0:0:0:0:
256,192,165586,1,0,0:0:0:0:
256,192,165796,1,8,0:0:0:0:
256,192,165901,1,0,0:0:0:0:
256,192,166006,1,8,0:0:0:0:
256,192,166216,1,8,0:0:0:0:
256,192,166320,1,0,0:0:0:0:
256,192,166425,1,8,0:0:0:0:
256,192,166530,1,8,0:0:0:0:
256,192,166635,1,0,0:0:0:0:
256,192,166740,1,8,0:0:0:0:
256,192,166845,1,8,0:0:0:0:
256,192,166950,1,0,0:0:0:0:
256,192,167055,1,8,0:0:0:0:
256,192,167265,1,12,0:0:0:0:
256,192,167684,1,12,0:0:0:0:
256,192,168104,1,0,0:0:0:0:
256,192,168209,1,0,0:0:0:0:
256,192,168313,1,8,0:0:0:0:
256,192,168383,1,0,0:0:0:0:
256,192,168453,1,0,0:0:0:0:
256,192,168523,1,8,0:0:0:0:
256,192,168628,1,8,0:0:0:0:
256,192,168733,1,0,0:0:0:0:
256,192,168943,1,0,0:0:0:0:
256,192,169258,1,0,0:0:0:0:
256,192,169362,1,8,0:0:0:0:
256,192,169572,1,0,0:0:0:0:
256,192,169677,1,8,0:0:0:0:
256,192,169782,1,0,0:0:0:0:
256,192,169887,1,0,0:0:0:0:
256,192,169992,1,0,0:0:0:0:
256,192,170202,1,8,0:0:0:0:
256,192,170306,1,0,0:0:0:0:
256,192,170411,1,8,0:0:0:0:
256,192,170516,1,8,0:0:0:0:
256,192,170621,1,0,0:0:0:0:
256,192,170831,1,0,0:0:0:0:
256,192,170936,1,8,0:0:0:0:
256,192,171146,1,8,0:0:0:0:
256,192,171251,1,0,0:0:0:0:
256,192,171460,1,8,0:0:0:0:
256,192,171670,1,0,0:0:0:0:
256,192,171775,1,0,0:0:0:0:
256,192,171880,1,8,0:0:0:0:
256,192,171985,1,0,0:0:0:0:
256,192,172090,1,8,0:0:0:0:
256,192,172299,1,8,0:0:0:0:
256,192,172509,1,8,0:0:0:0:
256,192,172614,1,8,0:0:0:0:
256,192,172824,1,8,0:0:0:0:
256,192,172929,1,0,0:0:0:0:
256,192,173138,1,8,0:0:0:0:
256,192,173348,1,0,0:0:0:0:
256,192,173453,1,8,0:0:0:0:
256,192,173558,1,0,0:0:0:0:
256,192,173663,1,0,0:0:0:0:
256,192,173768,1,8,0:0:0:0:
256,192,173978,1,8,0:0:0:0:
256,192,174188,1,0,0:0:0:0:
256,192,174292,1,0,0:0:0:0:
256,192,174397,1,8,0:0:0:0:
256,192,174607,1,0,0:0:0:0:
256,192,174712,1,0,0:0:0:0:
256,192,174817,1,8,0:0:0:0:
256,192,174922,1,0,0:0:0:0:
256,192,175027,1,8,0:0:0:0:
256,192,175132,1,8,0:0:0:0:
256,192,175237,1,0,0:0:0:0:
256,192,175341,1,8,0:0:0:0:
256,192,175446,1,0,0:0:0:0:
256,192,175656,1,0,0:0:0:0:
256,192,175971,1,0,0:0:0:0:
256,192,176076,1,8,0:0:0:0:
256,192,176285,1,0,0:0:0:0:
256,192,176390,1,8,0:0:0:0:
256,192,176495,1,0,0:0:0:0:
256,192,176600,1,0,0:0:0:0:
256,192,176705,1,8,0:0:0:0:
256,192,176915,1,8,0:0:0:0:
256,192,177125,1,0,0:0:0:0:
256,192,177230,1,0,0:0:0:0:
256,192,177334,1,0,0:0:0:0:
256,192,177544,1,8,0:0:0:0:
256,192,177649,1,0,0:0:0:0:
256,192,177859,1,8,0:0:0:0:
256,192,177964,1,0,0:0:0:0:
256,192,178174,1,8,0:0:0:0:
256,192,178383,1,8,0:0:0:0:
256,192,178488,1,0,0:0:0:0:
256,192,178593,1,8,0:0:0:0:
256,192,178698,1,8,0:0:0:0:
256,192,178803,1,0,0:0:0:0:
256,192,178908,1,0,0:0:0:0:
256,192,179013,1,8,0:0:0:0:
256,192,179223,1,8,0:0:0:0:
256,192,179327,1,8,0:0:0:0:
256,192,179537,1,8,0:0:0:0:
256,192,179642,1,0,0:0:0:0:
256,192,179852,1,8,0:0:0:0:
256,192,179957,1,8,0:0:0:0:
256,192,180062,1,0,0:0:0:0:
256,192,180272,1,8,0:0:0:0:
256,192,180481,1,8,0:0:0:0:
256,192,180586,1,0,0:0:0:0:
256,192,180691,1,8,0:0:0:0:
256,192,180796,1,8,0:0:0:0:
256,192,180901,1,0,0:0:0:0:
256,192,181111,1,8,0:0:0:0:
256,192,181216,1,8,0:0:0:0:
256,192,181320,1,0,0:0:0:0:
256,192,181425,1,8,0:0:0:0:
256,192,181530,1,8,0:0:0:0:
256,192,181635,1,0,0:0:0:0:
256,192,181740,1,8,0:0:0:0:
256,192,181950,1,8,0:0:0:0:
256,192,182055,1,0,0:0:0:0:
256,192,182159,1,8,0:0:0:0:
256,192,182264,1,8,0:0:0:0:
256,192,182369,1,0,0:0:0:0:
256,192,182684,1,0,0:0:0:0:
256,192,182789,1,8,0:0:0:0:
256,192,182999,1,0,0:0:0:0:
256,192,183104,1,8,0:0:0:0:
256,192,183209,1,0,0:0:0:0:
256,192,183313,1,0,0:0:0:0:
256,192,183418,1,0,0:0:0:0:
256,192,183628,1,8,0:0:0:0:
256,192,183733,1,0,0:0:0:0:
256,192,183838,1,8,0:0:0:0:
256,192,183943,1,8,0:0:0:0:
256,192,184048,1,0,0:0:0:0:
256,192,184258,1,0,0:0:0:0:
256,192,184362,1,8,0:0:0:0:
256,192,184572,1,8,0:0:0:0:
256,192,184677,1,0,0:0:0:0:
256,192,184887,1,0,0:0:0:0:
256,192,185097,1,8,0:0:0:0:
256,192,185202,1,0,0:0:0:0:
256,192,185306,1,8,0:0:0:0:
256,192,185411,1,8,0:0:0:0:
256,192,185516,1,0,0:0:0:0:
256,192,185726,1,8,0:0:0:0:
256,192,185936,1,8,0:0:0:0:
256,192,186041,1,8,0:0:0:0:
256,192,186250,1,0,0:0:0:0:
256,192,186355,1,8,0:0:0:0:
256,192,186565,1,8,0:0:0:0:
256,192,186775,1,0,0:0:0:0:
256,192,186880,1,0,0:0:0:0:
256,192,186985,1,8,0:0:0:0:
256,192,187195,1,8,0:0:0:0:
256,192,187299,1,8,0:0:0:0:
256,192,187404,1,8,0:0:0:0:
256,192,187614,1,0,0:0:0:0:
256,192,187824,1,8,0:0:0:0:
256,192,188034,1,0,0:0:0:0:
256,192,188139,1,0,0:0:0:0:
256,192,188244,1,8,0:0:0:0:
256,192,188348,1,0,0:0:0:0:
256,192,188453,1,8,0:0:0:0:
256,192,188558,1,0,0:0:0:0:
256,192,188663,1,8,0:0:0:0:
256,192,188768,1,8,0:0:0:0:
256,192,188873,1,0,0:0:0:0:
256,192,189083,1,0,0:0:0:0:
256,192,189397,1,0,0:0:0:0:
256,192,189502,1,8,0:0:0:0:
256,192,189712,1,0,0:0:0:0:
256,192,189817,1,8,0:0:0:0:
256,192,189922,1,0,0:0:0:0:
256,192,190027,1,0,0:0:0:0:
256,192,190132,1,8,0:0:0:0:
256,192,190341,1,8,0:0:0:0:
256,192,190551,1,0,0:0:0:0:
256,192,190656,1,0,0:0:0:0:
256,192,190761,1,8,0:0:0:0:
256,192,190971,1,0,0:0:0:0:
256,192,191076,1,8,0:0:0:0:
256,192,191180,1,0,0:0:0:0:
256,192,191390,1,8,0:0:0:0:
256,192,191495,1,0,0:0:0:0:
256,192,191600,1,8,0:0:0:0:
256,192,191705,1,8,0:0:0:0:
256,192,191810,1,0,0:0:0:0:
256,192,192020,1,8,0:0:0:0:
256,192,192439,2,0,L|32:192,1,210
256,192,193488,1,0,0:0:0:0:
256,192,193698,1,0,0:0:0:0:
256,192,193908,1,8,0:0:0:0:
256,192,194118,1,12,0:0:0:0:
256,192,194537,1,4,0:0:0:0:
256,192,194957,1,0,0:0:0:0:
256,192,195027,1,0,0:0:0:0:
256,192,195097,1,0,0:0:0:0:
256,192,195167,1,8,0:0:0:0:
256,192,195272,1,0,0:0:0:0:
256,192,195376,1,8,0:0:0:0:
256,192,195481,1,8,0:0:0:0:
256,192,195586,1,0,0:0:0:0:
256,192,195796,1,4,0:0:0:0:
256,192,197265,1,0,0:0:0:0:
256,192,197474,1,4,0:0:0:0:
256,192,197789,1,4,0:0:0:0:
256,192,198733,1,8,0:0:0:0:
256,192,198838,1,8,0:0:0:0:
256,192,198943,1,0,0:0:0:0:
256,192,199153,1,4,0:0:0:0:
256,192,200621,1,0,0:0:0:0:
256,192,200831,1,4,0:0:0:0:
256,192,201251,1,4,0:0:0:0:
256,192,201670,1,0,0:0:0:0:
256,192,201775,1,0,0:0:0:0:
256,192,201880,1,8,0:0:0:0:
256,192,201985,1,8,0:0:0:0:
256,192,202090,1,8,0:0:0:0:
256,192,202195,1,8,0:0:0:0:
256,192,202299,1,8,0:0:0:0:
256,192,202509,1,0,0:0:0:0:
256,192,202719,1,0,0:0:0:0:
256,192,202929,1,8,0:0:0:0:
256,192,203139,1,0,0:0:0:0:
256,192,203244,1,0,0:0:0:0:
256,192,203348,1,0,0:0:0:0:
256,192,203453,1,8,0:0:0:0:
256,192,203558,1,0,0:0:0:0:
256,192,203768,1,8,0:0:0:0:
256,192,203978,1,0,0:0:0:0:
256,192,204083,1,0,0:0:0:0:
256,192,204188,1,0,0:0:0:0:
256,192,204397,1,0,0:0:0:0:
256,192,204607,1,8,0:0:0:0:
256,192,204817,1,0,0:0:0:0:
256,192,204922,1,8,0:0:0:0:
256,192,205027,1,0,0:0:0:0:
256,192,205132,1,8,0:0:0:0:
256,192,205237,1,0,0:0:0:0:
256,192,205446,1,8,0:0:0:0:
256,192,205656,1,0,0:0:0:0:
256,192,205761,1,8,0:0:0:0:
256,192,205866,1,0,0:0:0:0:
256,192,206076,1,8,0:0:0:0:
256,192,206285,1,8,0:0:0:0:
256,192,206495,1,0,0:0:0:0:
256,192,206600,1,8,0:0:0:0:
256,192,206810,1,8,0:0:0:0:
256,192,206915,1,0,0:0:0:0:
256,192,207124,1,8,0:0:0:0:
256,192,207229,1,8,0:0:0:0:
256,192,207334,1,0,0:0:0:0:
256,192,207544,1,8,0:0:0:0:
256,192,207649,1,8,0:0:0:0:
256,192,207754,1,0,0:0:0:0:
256,192,207859,1,8,0:0:0:0:
256,192,207964,1,8,0:0:0:0:
256,192,208069,1,0,0:0:0:0:
256,192,208173,1,8,0:0:0:0:
256,192,208278,1,8,0:0:0:0:
256,192,208383,1,0,0:0:0:0:
256,192,208593,1,8,0:0:0:0:
256,192,208663,1,0,0:0:0:0:
256,192,208733,1,0,0:0:0:0:
256,192,208803,1,8,0:0:0:0:
256,192,208908,1,0,0:0:0:0:
256,192,209013,1,8,0:0:0:0:
256,192,209117,1,8,0:0:0:0:
256,192,209223,1,0,0:0:0:0:
256,192,209432,1,0,0:0:0:0:
256,192,209537,1,8,0:0:0:0:
256,192,209642,1,0,0:0:0:0:
256,192,209747,1,0,0:0:0:0:
256,192,209852,1,8,0:0:0:0:
256,192,209957,1,0,0:0:0:0:
256,192,210062,1,8,0:0:0:0:
256,192,210167,1,8,0:0:0:0:
256,192,210271,1,0,0:0:0:0:
256,192,210376,1,0,0:0:0:0:
256,192,210481,1,8,0:0:0:0:
256,192,210691,1,0,0:0:0:0:
256,192,210796,1,0,0:0:0:0:
256,192,210901,1,8,0:0:0:0:
256,192,211111,1,0,0:0:0:0:
256,192,211320,1,8,0:0:0:0:
256,192,211530,1,0,0:0:0:0:
256,192,211635,1,8,0:0:0:0:
256,192,211845,1,8,0:0:0:0:
256,192,211950,1,0,0:0:0:0:
256,192,212159,1,8,0:0:0:0:
256,192,212369,1,0,0:0:0:0:
256,192,212474,1,0,0:0:0:0:
256,192,212579,1,8,0:0:0:0:
256,192,212894,1,0,0:0:0:0:
256,192,212999,1,8,0:0:0:0:
256,192,213209,1,0,0:0:0:0:
256,192,213313,1,0,0:0:0:0:
256,192,213418,1,0,0:0:0:0:
256,192,213523,1,8,0:0:0:0:
256,192,213628,1,0,0:0:0:0:
256,192,213838,1,8,0:0:0:0:
256,192,214048,1,0,0:0:0:0:
256,192,214153,1,0,0:0:0:0:
256,192,214258,1,0,0:0:0:0:
256,192,214572,1,0,0:0:0:0:
256,192,214677,1,8,0:0:0:0:
256,192,214887,1,8,0:0:0:0:
256,192,214992,1,8,0:0:0:0:
256,192,215097,1,0,0:0:0:0:
256,192,215202,1,8,0:0:0:0:
256,192,215306,1,0,0:0:0:0:
256,192,215411,1,0,0:0:0:0:
256,192,215516,1,8,0:0:0:0:
256,192,215726,1,8,0:0:0:0:
256,192,215831,1,8,0:0:0:0:
256,192,215936,1,0,0:0:0:0:
256,192,216041,1,0,0:0:0:0:
256,192,216146,1,8,0:0:0:0:
256,192,216216,1,0,0:0:0:0:
256,192,216285,1,0,0:0:0:0:
256,192,216355,1,8,0:0:0:0:
256,192,216565,1,0,0:0:0:0:
256,192,216670,1,0,0:0:0:0:
256,192,216775,1,8,0:0:0:0:
256,192,216880,1,8,0:0:0:0:
256,192,216985,1,0,0:0:0:0:
256,192,217090,1,8,0:0:0:0:
256,192,217195,1,8,0:0:0:0:
256,192,217299,1,0,0:0:0:0:
256,192,217404,1,8,0:0:0:0:
256,192,217614,1,8,0:0:0:0:
256,192,217824,1,0,0:0:0:0:
256,192,217929,1,8,0:0:0:0:
256,192,218034,1,8,0:0:0:0:
256,192,218243,1,0,0:0:0:0:
256,192,218348,1,8,0:0:0:0:
256,192,218663,1,8,0:0:0:0:
256,192,218768,1,0,0:0:0:0:
256,192,218873,1,8,0:0:0:0:
256,192,219083,1,8,0:0:0:0:
256,192,219188,1,0,0:0:0:0:
256,192,219292,1,8,0:0:0:0:
256,192,219502,1,0,0:0:0:0:
256,192,219607,1,8,0:0:0:0:
256,192,219712,1,8,0:0:0:0:
256,192,219817,1,0,0:0:0:0:
256,192,219922,1,8,0:0:0:0:
256,192,220132,1,0,0:0:0:0:
256,192,220237,1,8,0:0:0:0:
256,192,220341,1,8,0:0:0:0:
256,192,220446,1,0,0:0:0:0:
256,192,220551,1,8,0:0:0:0:
256,192,220656,1,8,0:0:0:0:
256,192,220761,1,0,0:0:0:0:
256,192,220866,1,8,0:0:0:0:
256,192,220971,1,0,0:0:0:0:
256,192,221076,1,0,0:0:0:0:
256,192,221181,1,8,0:0:0:0:
256,192,221251,1,0,0:0:0:0:
256,192,221320,1,0,0:0:0:0:
256,192,221390,1,8,0:0:0:0:
256,192,221495,1,0,0:0:0:0:
256,192,221600,1,0,0:0:0:0:
256,192,221705,1,8,0:0:0:0:
256,192,222020,1,0,0:0:0:0:
256,192,222125,1,0,0:0:0:0:
256,192,222230,1,8,0:0:0:0:
256,192,222334,1,0,0:0:0:0:
256,192,222439,1,0,0:0:0:0:
256,192,222544,1,8,0:0:0:0:
256,192,222649,1,0,0:0:0:0:
256,192,222859,1,0,0:0:0:0:
256,192,222964,1,8,0:0:0:0:
256,192,223069,1,0,0:0:0:0:
256,192,223173,1,0,0:0:0:0:
256,192,223278,1,8,0:0:0:0:
256,192,223383,1,8,0:0:0:0:
256,192,223488,1,0,0:0:0:0:
256,192,223698,1,8,0:0:0:0:
256,192,223908,1,0,0:0:0:0:
256,192,224118,1,0,0:0:0:0:
256,192,224222,1,0,0:0:0:0:
256,192,224327,1,8,0:0:0:0:
256,192,224432,1,0,0:0:0:0:
256,192,224537,1,8,0:0:0:0:
256,192,224642,1,8,0:0:0:0:
256,192,224747,1,0,0:0:0:0:
256,192,224957,1,8,0:0:0:0:
256,192,225167,1,8,0:0:0:0:
256,192,225376,1,0,0:0:0:0:
256,192,225481,1,8,0:0:0:0:
256,192,225691,1,8,0:0:0:0:
256,192,225796,1,0,0:0:0:0:
256,192,226006,1,8,0:0:0:0:
256,192,226111,1,8,0:0:0:0:
256,192,226216,1,0,0:0:0:0:
256,192,226285,1,8,0:0:0:0:
256,192,226355,1,8,0:0:0:0:
256,192,226425,1,0,0:0:0:0:
256,192,226635,1,8,0:0:0:0:
256,192,226740,1,8,0:0:0:0:
256,192,226845,1,0,0:0:0:0:
256,192,226915,1,8,0:0:0:0:
256,192,226985,1,8,0:0:0:0:
256,192,227055,1,0,0:0:0:0:
256,192,227265,1,8,0:0:0:0:
256,192,227369,1,8,0:0:0:0:
256,192,227474,1,0,0:0:0:0:
256,192,227544,1,8,0:0:0:0:
256,192,227614,1,8,0:0:0:0:
256,192,227684,1,0,0:0:0:0:
256,192,227894,1,0,0:0:0:0:
256,192,227999,1,0,0:0:0:0:
256,192,228104,1,8,0:0:0:0:
256,192,228174,1,0,0:0:0:0:
256,192,228244,1,0,0:0:0:0:
256,192,228313,1,8,0:0:0:0:
256,192,228418,1,0,0:0:0:0:
256,192,228523,1,0,0:0:0:0:
256,192,228628,1,8,0:0:0:0:
256,192,228733,1,0,0:0:0:0:
256,192,228943,1,8,0:0:0:0:
256,192,229152,1,0,0:0:0:0:
256,192,229257,1,0,0:0:0:0:
256,192,229362,1,8,0:0:0:0:
256,192,229572,1,0,0:0:0:0:
256,192,229677,1,0,0:0:0:0:
256,192,229782,1,8,0:0:0:0:
256,192,229887,1,0,0:0:0:0:
256,192,229992,1,8,0:0:0:0:
256,192,230097,1,8,0:0:0:0:
256,192,230201,1,0,0:0:0:0:
256,192,230306,1,0,0:0:0:0:
256,192,230411,1,8,0:0:0:0:
256,192,230516,1,0,0:0:0:0:
256,192,230621,1,8,0:0:0:0:
256,192,230726,1,8,0:0:0:0:
256,192,230831,1,0,0:0:0:0:
256,192,230936,1,8,0:0:0:0:
256,192,231041,1,0,0:0:0:0:
256,192,231251,1,0,0:0:0:0:
256,192,231355,1,8,0:0:0:0:
256,192,231460,1,0,0:0:0:0:
256,192,231565,1,0,0:0:0:0:
256,192,231670,1,8,0:0:0:0:
256,192,231775,1,0,0:0:0:0:
256,192,231880,1,8,0:0:0:0:
256,192,231985,1,8,0:0:0:0:
256,192,232090,1,0,0:0:0:0:
256,192,232194,1,8,0:0:0:0:
256,192,232299,1,8,0:0:0:0:
256,192,232404,1,8,0:0:0:0:
256,192,232509,1,0,0:0:0:0:
256,192,232719,12,0,236076,0:0:0:0:
256,192,239432,5,8,0:0:0:0:
256,192,239852,1,0,0:0:0:0:
256,192,240272,1,8,0:0:0:0:
256,192,240481,1,8,0:0:0:0:
256,192,240901,1,0,0:0:0:0:
256,192,241530,1,0,0:0:0:0:
256,192,241950,1,8,0:0:0:0:
256,192,242160,1,8,0:0:0:0:
256,192,242579,1,0,0:0:0:0:
256,192,243209,1,8,0:0:0:0:
256,192,243628,1,0,0:0:0:0:
256,192,243943,1,8,0:0:0:0:
256,192,244258,1,0,0:0:0:0:
256,192,244362,1,8,0:0:0:0:
256,192,244467,1,8,0:0:0:0:
256,192,244887,1,0,0:0:0:0:
256,192,245306,1,8,0:0:0:0:
256,192,245516,1,0,0:0:0:0:
256,192,246146,1,8,0:0:0:0:
256,192,246355,1,8,0:0:0:0:
256,192,246565,1,8,0:0:0:0:
256,192,246775,1,8,0:0:0:0:
256,192,246985,1,8,0:0:0:0:
256,192,247195,1,0,0:0:0:0:
256,192,247614,1,8,0:0:0:0:
256,192,248034,1,8,0:0:0:0:
256,192,248243,1,8,0:0:0:0:
256,192,248453,1,8,0:0:0:0:
256,192,248663,1,8,0:0:0:0:
256,192,248873,1,0,0:0:0:0:
256,192,249292,1,0,0:0:0:0:
256,192,249502,1,8,0:0:0:0:
256,192,249712,1,0,0:0:0:0:
256,192,249922,1,8,0:0:0:0:
256,192,250132,1,8,0:0:0:0:
256,192,250341,1,0,0:0:0:0:
256,192,250656,1,8,0:0:0:0:
256,192,250971,1,8,0:0:0:0:
256,192,251180,2,0,L|96:192|224:192,1,280
256,192,252859,1,0,0:0:0:0:
256,192,253174,1,0,0:0:0:0:
256,192,253278,1,8,0:0:0:0:
256,192,253488,1,0,0:0:0:0:
256,192,253593,1,8,0:0:0:0:
256,192,253698,1,0,0:0:0:0:
256,192,253803,1,0,0:0:0:0:
256,192,253908,1,0,0:0:0:0:
256,192,254118,1,8,0:0:0:0:
256,192,254223,1,0,0:0:0:0:
256,192,254327,1,8,0:0:0:0:
256,192,254432,1,8,0:0:0:0:
256,192,254537,1,0,0:0:0:0:
256,192,254747,1,0,0:0:0:0:
256,192,254852,1,8,0:0:0:0:
256,192,255062,1,8,0:0:0:0:
256,192,255167,1,0,0:0:0:0:
256,192,255376,1,0,0:0:0:0:
256,192,255586,1,8,0:0:0:0:
256,192,255691,1,0,0:0:0:0:
256,192,255796,1,8,0:0:0:0:
256,192,255901,1,8,0:0:0:0:
256,192,256006,1,0,0:0:0:0:
256,192,256216,1,8,0:0:0:0:
256,192,256425,1,8,0:0:0:0:
256,192,256530,1,8,0:0:0:0:
256,192,256740,1,0,0:0:0:0:
256,192,256845,1,8,0:0:0:0:
256,192,256950,1,0,0:0:0:0:
256,192,257055,1,8,0:0:0:0:
256,192,257159,1,8,0:0:0:0:
256,192,257265,1,0,0:0:0:0:
256,192,257474,1,8,0:0:0:0:
256,192,257684,1,8,0:0:0:0:
256,192,257789,1,8,0:0:0:0:
256,192,257894,1,8,0:0:0:0:
256,192,258104,1,0,0:0:0:0:
256,192,258208,1,0,0:0:0:0:
256,192,258313,1,8,0:0:0:0:
256,192,258523,1,0,0:0:0:0:
256,192,258628,1,0,0:0:0:0:
256,192,258733,1,8,0:0:0:0:
256,192,258838,1,0,0:0:0:0:
256,192,258943,1,8,0:0:0:0:
256,192,259048,1,8,0:0:0:0:
256,192,259153,1,0,0:0:0:0:
256,192,259258,1,8,0:0:0:0:
256,192,259362,1,0,0:0:0:0:
256,192,259572,1,0,0:0:0:0:
256,192,259887,1,0,0:0:0:0:
256,192,259992,1,8,0:0:0:0:
256,192,260202,1,0,0:0:0:0:
256,192,260306,1,8,0:0:0:0:
256,192,260411,1,0,0:0:0:0:
256,192,260516,1,0,0:0:0:0:
256,192,260621,1,8,0:0:0:0:
256,192,260831,1,8,0:0:0:0:
256,192,261041,1,0,0:0:0:0:
256,192,261146,1,0,0:0:0:0:
256,192,261251,1,8,0:0:0:0:
256,192,261460,1,0,0:0:0:0:
256,192,261565,1,8,0:0:0:0:
256,192,261670,1,0,0:0:0:0:
256,192,261880,1,8,0:0:0:0:
256,192,261985,1,0,0:0:0:0:
256,192,262090,1,8,0:0:0:0:
256,192,262194,1,8,0:0:0:0:
256,192,262299,1,0,0:0:0:0:
256,192,262509,1,8,0:0:0:0:
256,192,262929,2,0,L|32:192,1,210
256,192,263978,1,0,0:0:0:0:
256,192,264188,1,0,0:0:0:0:
256,192,264397,1,8,0:0:0:0:
256,192,264607,1,12,0:0:0:0:
256,192,266285,1,0,0:0:0:0:
256,192,266390,1,0,0:0:0:0:
256,192,266495,1,8,0:0:0:0:
256,192,266705,1,8,0:0:0:0:
256,192,266915,1,0,0:0:0:0:
256,192,267020,1,8,0:0:0:0:
256,192,267230,1,8,0:0:0:0:
256,192,267334,1,0,0:0:0:0:
256,192,267439,1,0,0:0:0:0:
256,192,267544,1,8,0:0:0:0:
256,192,267649,1,0,0:0:0:0:
256,192,267754,1,8,0:0:0:0:
256,192,267964,1,8,0:0:0:0:
256,192,268174,1,0,0:0:0:0:
256,192,268278,1,0,0:0:0:0:
256,192,268383,1,8,0:0:0:0:
256,192,268488,1,0,0:0:0:0:
256,192,268593,1,8,0:0:0:0:
256,192,268803,1,8,0:0:0:0:
256,192,268908,1,0,0:0:0:0:
256,192,269013,1,8,0:0:0:0:
256,192,269118,1,8,0:0:0:0:
256,192,269223,1,0,0:0:0:0:
256,192,269432,1,8,0:0:0:0:
256,192,269537,1,8,0:0:0:0:
256,192,269642,1,0,0:0:0:0:
256,192,269747,1,0,0:0:0:0:
256,192,269852,1,8,0:0:0:0:
256,192,270062,1,8,0:0:0:0:
256,192,270272,1,0,0:0:0:0:
256,192,270376,1,8,0:0:0:0:
256,192,270586,1,8,0:0:0:0:
256,192,270691,1,0,0:0:0:0:
256,192,270796,1,8,0:0:0:0:
256,192,270901,1,8,0:0:0:0:
256,192,271006,1,0,0:0:0:0:
256,192,271111,1,8,0:0:0:0:
256,192,271320,1,8,0:0:0:0:
256,192,271425,1,0,0:0:0:0:
256,192,271530,1,8,0:0:0:0:
256,192,271635,1,8,0:0:0:0:
256,192,271740,1,0,0:0:0:0:
256,192,271950,1,0,0:0:0:0:
256,192,272055,1,8,0:0:0:0:
256,192,272160,1,0,0:0:0:0:
256,192,272265,1,8,0:0:0:0:
256,192,272369,1,0,0:0:0:0:
256,192,272474,1,0,0:0:0:0:
256,192,272579,1,8,0:0:0:0:
256,192,272789,1,8,0:0:0:0:
256,192,272894,1,8,0:0:0:0:
256,192,272999,1,0,0:0:0:0:
256,192,273104,1,0,0:0:0:0:
256,192,273209,1,8,0:0:0:0:
256,192,273418,1,8,0:0:0:0:
256,192,273628,1,0,0:0:0:0:
256,192,273733,1,8,0:0:0:0:
256,192,273943,1,8,0:0:0:0:
256,192,274048,1,0,0:0:0:0:
256,192,274153,1,0,0:0:0:0:
256,192,274258,1,8,0:0:0:0:
256,192,274362,1,0,0:0:0:0:
256,192,274467,1,8,0:0:0:0:
256,192,274677,1,0,0:0:0:0:
256,192,274887,1,8,0:0:0:0:
256,192,274992,1,0,0:0:0:0:
256,192,275097,1,8,0:0:0:0:
256,192,275202,1,8,0:0:0:0:
256,192,275306,1,0,0:0:0:0:
256,192,275516,1,0,0:0:0:0:
256,192,275621,1,8,0:0:0:0:
256,192,275726,1,0,0:0:0:0:
256,192,275831,1,0,0:0:0:0:
256,192,275936,1,8,0:0:0:0:
256,192,276146,1,0,0:0:0:0:
256,192,276251,1,8,0:0:0:0:
256,192,276565,1,0,0:0:0:0:
256,192,276670,1,0,0:0:0:0:
256,192,276775,1,8,0:0:0:0:
256,192,276985,1,0,0:0:0:0:
256,192,277195,1,8,0:0:0:0:
256,192,277404,1,0,0:0:0:0:
256,192,277509,1,0,0:0:0:0:
256,192,277614,1,8,0:0:0:0:
256,192,277719,1,8,0:0:0:0:
256,192,277824,1,0,0:0:0:0:
256,192,278034,1,0,0:0:0:0:
256,192,278244,1,8,0:0:0:0:
256,192,278453,1,0,0:0:0:0:
256,192,278663,1,8,0:0:0:0:
256,192,278873,1,0,0:0:0:0:
256,192,279188,1,0,0:0:0:0:
256,192,279292,1,8,0:0:0:0:
256,192,279397,1,8,0:0:0:0:
256,192,279502,1,8,0:0:0:0:
256,192,279607,1,0,0:0:0:0:
256,192,279712,1,8,0:0:0:0:
256,192,279922,1,0,0:0:0:0:
256,192,280132,1,8,0:0:0:0:
256,192,280341,1,0,0:0:0:0:
256,192,280446,1,8,0:0:0:0:
256,192,280656,1,0,0:0:0:0:
256,192,280761,1,8,0:0:0:0:
256,192,280971,1,0,0:0:0:0:
256,192,281076,1,8,0:0:0:0:
256,192,281181,1,0,0:0:0:0:
256,192,281285,1,0,0:0:0:0:
256,192,281390,1,8,0:0:0:0:
256,192,281600,1,0,0:0:0:0:
256,192,281810,1,8,0:0:0:0:
256,192,282020,1,8,0:0:0:0:
256,192,282125,1,0,0:0:0:0:
256,192,282230,1,8,0:0:0:0:
256,192,282334,1,8,0:0:0:0:
256,192,282439,1,0,0:0:0:0:
256,192,282649,1,8,0:0:0:0:
256,192,283069,1,8,0:0:0:0:
256,192,283278,1,0,0:0:0:0:
256,192,283488,1,8,0:0:0:0:
256,192,283698,1,0,0:0:0:0:
256,192,283803,1,8,0:0:0:0:
256,192,284013,1,8,0:0:0:0:
256,192,284118,1,0,0:0:0:0:
256,192,284327,1,8,0:0:0:0:
256,192,284537,1,0,0:0:0:0:
256,192,284642,1,8,0:0:0:0:
256,192,284747,1,8,0:0:0:0:
256,192,284852,1,0,0:0:0:0:
256,192,284957,1,8,0:0:0:0:
256,192,285167,1,8,0:0:0:0:
256,192,285376,1,0,0:0:0:0:
256,192,285481,1,0,0:0:0:0:
256,192,285691,1,8,0:0:0:0:
256,192,285796,1,0,0:0:0:0:
256,192,286006,1,8,0:0:0:0:
256,192,286111,1,8,0:0:0:0:
256,192,286216,1,0,0:0:0:0:
256,192,286320,1,0,0:0:0:0:
256,192,286425,1,8,0:0:0:0:
256,192,286635,1,0,0:0:0:0:
256,192,286845,1,8,0:0:0:0:
256,192,287055,1,0,0:0:0:0:
256,192,287160,1,8,0:0:0:0:
256,192,287369,1,0,0:0:0:0:
256,192,287474,1,8,0:0:0:0:
256,192,287684,1,0,0:0:0:0:
256,192,287789,1,8,0:0:0:0:
256,192,287894,1,0,0:0:0:0:
256,192,287999,1,0,0:0:0:0:
256,192,288104,1,8,0:0:0:0:
256,192,288313,1,0,0:0:0:0:
256,192,288523,1,8,0:0:0:0:
256,192,288733,1,0,0:0:0:0:
256,192,288838,1,0,0:0:0:0:
256,192,288943,1,8,0:0:0:0:
256,192,289048,1,8,0:0:0:0:
256,192,289153,1,0,0:0:0:0:
256,192,289258,1,8,0:0:0:0:
256,192,289362,1,0,0:0:0:0:
256,192,289572,1,0,0:0:0:0:
256,192,289677,1,8,0:0:0:0:
256,192,289992,8,8,291460,0:0:0:0:
