osu file format v14

[General]
AudioFilename: snow amber.mp3
AudioLeadIn: 2000
PreviewTime: 84659
Countdown: 0
SampleSet: Normal
StackLeniency: 0.7
Mode: 0
LetterboxInBreaks: 0
WidescreenStoryboard: 1

[Editor]
Bookmarks: 41390,125936,151740,266283
DistanceSpacing: 1.7
BeatDivisor: 4
GridSize: 32
TimelineZoom: 1.8

[Metadata]
Title:Yukikohaku -snow amber- Remix
TitleUnicode:雪琥珀 -snow amber- Remix
Artist:TUMENECO & GET IN THE RING
ArtistUnicode:TUMENECO & GET IN THE RING
Creator:Felt7z
Version:BBA's Normal
Source:東方project
Tags:GCHM TUMENECO yukina MieJell Sar7 Turbo_BBA yassu- 東方星蓮船 ~ Undefined Fantastic Object touhou 東方 AVENGE Another World 2 GET IN THE RING
BeatmapID:1264967
BeatmapSetID:525861

[Difficulty]
HPDrainRate:4
CircleSize:3
OverallDifficulty:4
ApproachRate:6
SliderMultiplier:1.3
SliderTickRate:1

[Events]
//Background and Video events
0,0,"G.jpg",0,0
//Break Periods
2,28164,40340
2,237954,248452
//Storyboard Layer 0 (Background)
//Storyboard Layer 1 (Fail)
//Storyboard Layer 2 (Pass)
//Storyboard Layer 3 (Foreground)
//Storyboard Sound Samples

[TimingPoints]
272,419.58041958042,4,1,1,60,1,0
1111,419.58041958042,4,1,1,60,1,0
13698,-125,4,1,1,60,0,0
14537,-100,4,1,1,60,0,0
20411,-125,4,1,1,60,0,0
21250,-100,4,1,1,60,0,0
62369,-125,4,1,1,60,0,0
63208,-100,4,1,1,60,0,0
64048,-125,4,1,1,60,0,0
65726,-125,4,1,1,60,0,0
66565,-100,4,1,1,60,0,0
67824,-125,4,1,1,60,0,0
68453,-100,4,1,1,60,0,0
75796,-125,4,1,1,60,0,0
76635,-100,4,1,1,60,0,0
78313,-125,4,1,1,60,0,0
85027,-100,4,1,1,60,0,1
98453,-125,4,1,1,60,0,0
101810,-100,4,1,1,60,0,0
102649,-125,4,1,1,60,0,0
103488,-100,4,1,1,60,0,0
105166,-125,4,1,1,60,0,0
110201,-100,4,1,1,60,0,0
113768,-125,4,1,1,60,0,0
114397,-100,4,1,1,60,0,0
159712,-125,4,1,1,60,0,0
160551,-100,4,1,1,60,0,0
168104,-125,4,1,1,60,0,0
168943,-100,4,1,1,60,0,1
195796,-100,4,1,1,60,0,0
211950,-125,4,1,1,60,0,0
229782,-100,4,1,1,60,0,0
252859,-100,4,1,1,60,0,1
291460,-100,4,1,1,60,0,0

[HitObjects]
32,128,13698,6,0,L|16:22,1,104
126,135,14537,6,0,P|214:182|314:137,1,195
369,97,15376,1,0,0:0:0:0:
416,256,15796,6,0,L|437:342,1,65
352,352,16215,2,0,P|260:373|156:335,1,195
92,294,17055,1,0,0:0:0:0:
64,160,17474,6,0,L|55:91,1,65
150,115,17894,2,0,P|256:145|356:120,1,195
436,72,18733,1,0,0:0:0:0:
480,192,19572,6,0,P|489:264|416:355,1,195
313,370,20411,6,0,L|187:361,1,104
64,352,21250,1,0,0:0:0:0:
192,288,21670,1,0,0:0:0:0:
64,224,22090,1,0,0:0:0:0:
192,160,22509,2,0,L|267:125,1,65
320,96,22929,5,0,0:0:0:0:
448,160,23348,1,0,0:0:0:0:
320,224,23768,1,0,0:0:0:0:
448,288,24187,2,0,L|514:328,1,65
256,192,24607,12,0,25866,0:0:0:0:
256,192,26285,12,0,27964,0:0:0:0:
134,312,41390,6,0,L|274:334,1,130
352,352,42020,2,0,L|403:357,2,32.5
128,320,42859,1,0,0:0:0:0:
64,256,43069,2,0,P|56:212|71:148,1,97.5
160,96,43698,1,0,0:0:0:0:
219,155,43908,2,0,P|236:213|217:291,1,130
96,384,44747,1,0,0:0:0:0:
352,352,45376,6,0,L|386:351,2,32.5
96,320,46215,1,0,0:0:0:0:
160,256,46425,2,0,P|179:196|176:154,1,97.5
64,192,47055,1,0,0:0:0:0:
0,128,47264,2,0,P|-5:70|16:25,1,97.5
128,96,47894,1,0,0:0:0:0:
201,138,48104,2,0,P|273:159|336:141,1,130
471,61,48943,2,0,L|526:13,2,65
384,192,49782,6,0,L|342:322,1,130
180,357,50621,2,0,L|108:358,2,65
299,237,51460,6,0,P|309:190|298:150,1,65
282,93,51880,1,0,0:0:0:0:
160,192,52299,2,0,P|152:225|158:258,1,65
195,331,52719,1,0,0:0:0:0:
352,352,53138,2,0,P|424:363|481:354,1,130
480,192,53978,2,0,L|462:98,1,65
448,32,54397,2,0,L|441:-4,4,32.5
192,32,55446,6,0,L|150:21,2,32.5
416,128,56285,1,0,0:0:0:0:
352,192,56495,2,0,P|297:200|236:187,1,97.5
135,153,57124,1,0,0:0:0:0:
194,93,57334,2,0,P|266:78|332:94,1,130
479,146,58173,1,0,0:0:0:0:
480,288,58803,6,0,L|483:326,2,32.5
448,32,59642,5,0,0:0:0:0:
384,96,59852,2,0,L|256:96,1,97.5
162,120,60481,1,0,0:0:0:0:
224,192,60691,2,0,L|338:192,1,97.5
446,214,61320,1,0,0:0:0:0:
386,273,61530,2,0,P|324:295|249:270,1,130
128,320,62369,2,0,L|82:355,2,52
256,192,63208,2,0,P|325:173|400:199,1,130
476,282,64048,2,0,L|521:328,2,52
383,159,64887,6,0,L|344:118,1,52
288,64,65306,1,0,0:0:0:0:
203,195,65726,2,0,L|173:242,1,52
131,303,66145,1,0,0:0:0:0:
288,352,66565,2,0,L|360:352,1,65
334,269,66985,2,0,L|238:268,1,65
184,268,67404,1,0,0:0:0:0:
224,128,67824,6,0,L|239:64,1,52
256,0,68243,1,0,0:0:0:0:
352,0,68453,2,0,L|436:1,2,65
256,128,69292,2,0,L|207:196,1,65
128,192,69712,2,0,P|89:104|121:15,1,195
120,15,70551,1,0,0:0:0:0:
224,96,71180,6,0,L|288:96,1,65
384,96,71600,1,0,0:0:0:0:
405,177,71810,2,0,L|422:264,2,65
288,288,72649,2,0,L|256:352,1,65
198,286,73069,2,0,P|176:223|209:161,1,130
369,168,73908,2,0,L|442:168,1,65
412,249,74327,2,0,P|353:270|280:254,1,130
212,219,74957,1,0,0:0:0:0:
128,256,75586,5,0,0:0:0:0:
64,192,75796,2,0,P|47:138|62:74,1,104
224,64,76635,2,0,L|284:63,2,32.5
160,128,77055,2,0,L|101:128,2,32.5
256,192,77474,1,0,0:0:0:0:
256,192,77894,1,0,0:0:0:0:
160,96,78313,6,0,L|104:93,2,52
241,60,78943,2,0,L|245:-11,2,52
303,122,79572,2,0,L|364:126,2,52
240,184,80201,2,0,L|236:252,2,52
160,128,80831,1,0,0:0:0:0:
160,128,81250,1,0,0:0:0:0:
306,172,81670,6,0,L|373:177,1,52
450,126,82090,2,0,L|456:83,2,26
431,228,82509,2,0,L|422:291,1,52
486,347,82929,2,0,L|512:352,2,26
384,352,83348,5,0,0:0:0:0:
384,352,83768,1,0,0:0:0:0:
256,320,84187,6,0,L|136:303,1,104
33,185,85027,2,0,P|12:129|102:30,1,195
171,16,85866,1,0,0:0:0:0:
336,46,86285,6,0,L|428:63,1,65
357,131,86705,2,0,P|282:164|176:110,1,195
137,50,87544,1,0,0:0:0:0:
96,224,87964,6,0,L|75:290,1,65
156,313,88383,2,0,P|262:344|344:309,1,195
409,269,89222,1,0,0:0:0:0:
224,224,90062,2,0,B|76:202,1,130
18,282,90901,2,0,B|159:302,1,130
315,300,91740,6,0,L|516:276,1,195
508,107,92789,2,0,L|513:36,2,65
468,181,93418,2,0,L|267:205,1,195
189,215,94257,1,0,0:0:0:0:
64,128,94677,6,0,L|-5:129,1,65
51,46,95097,2,0,B|150:29|150:29|252:49,1,195
334,68,95936,1,0,0:0:0:0:
192,256,96775,2,0,B|109:284|109:284|-4:245,1,195
49,160,97614,2,0,L|102:26,1,130
246,83,98453,6,0,B|334:102|334:102|418:83,1,156
477,66,99292,1,0,0:0:0:0:
428,214,99712,6,0,L|401:281,1,52
338,308,100131,2,0,B|268:325|268:325|179:299,1,156
109,273,100971,1,0,0:0:0:0:
64,128,101390,6,0,L|54:65,1,52
148,107,101810,2,0,P|242:152|334:106,1,195
384,64,102649,1,0,0:0:0:0:
224,320,103488,6,0,L|16:303,1,195
5,212,104327,2,0,P|0:154|23:87,1,130
160,160,105166,6,0,B|244:182|244:182|329:162,1,156
458,88,106215,2,0,L|496:33,2,52
398,147,106845,2,0,L|276:265,1,156
226,314,107684,1,0,0:0:0:0:
480,352,108313,6,0,L|516:354,2,26
64,320,109572,2,0,L|48:374,2,52
96,224,110201,2,0,L|121:141,1,65
173,248,110621,2,0,L|202:322,1,65
246,209,111041,2,0,L|269:124,1,65
322,239,111460,2,0,L|358:311,1,65
404,199,111880,6,0,L|422:130,1,65
449,29,112299,1,0,0:0:0:0:
449,29,112509,1,0,0:0:0:0:
245,115,112929,2,0,L|219:201,1,65
194,283,113348,1,0,0:0:0:0:
359,345,113768,2,0,P|414:355|469:345,1,104
461,237,114397,2,0,L|449:147,1,65
439,65,114817,1,0,0:0:0:0:
91,37,115446,6,0,L|24:30,2,65
91,232,116285,2,0,L|80:317,2,65
186,61,117124,2,0,B|342:40,1,130
411,26,117754,2,0,L|486:16,2,65
424,214,118803,6,0,L|432:287,2,65
224,224,119642,2,0,L|146:227,2,65
416,192,120481,2,0,P|441:130|420:61,1,130
352,128,121111,2,0,L|278:187,1,65
203,168,121530,2,0,L|144:130,1,65
64,256,122159,6,0,L|19:313,2,65
256,320,122999,2,0,L|308:376,2,65
205,236,123628,2,0,P|191:197|196:149,1,65
259,104,124048,2,0,P|290:95|336:95,1,65
408,139,124467,2,0,P|420:172|422:222,1,65
352,256,124887,2,0,L|320:264,4,32.5
480,128,125936,6,0,L|535:123,2,32.5
224,192,126775,1,0,0:0:0:0:
146,239,126985,2,0,P|98:250|44:234,1,97.5
107,113,127614,1,0,0:0:0:0:
171,48,127824,2,0,P|244:29|308:43,1,130
379,77,128663,1,0,0:0:0:0:
419,313,129292,6,0,L|430:375,2,32.5
361,139,130131,1,0,0:0:0:0:
293,70,130341,2,0,P|240:56|182:65,1,97.5
233,192,130971,1,0,0:0:0:0:
310,238,131180,2,0,P|365:256|426:243,1,97.5
360,121,131810,1,0,0:0:0:0:
282,73,132020,2,0,L|138:55,1,130
90,227,132859,2,0,L|67:291,2,65
256,256,133698,6,0,L|397:273,1,130
480,96,134537,2,0,L|493:25,2,65
288,96,135376,6,0,L|216:83,1,65
135,63,135796,1,0,0:0:0:0:
263,191,136215,2,0,L|353:207,1,65
417,218,136635,1,0,0:0:0:0:
288,320,137054,2,0,P|225:340|156:317,1,130
128,128,137894,2,0,L|114:49,1,65
192,32,138313,2,0,L|253:23,4,32.5
61,32,139362,6,0,L|14:22,2,32.5
224,96,140201,1,0,0:0:0:0:
299,147,140411,2,0,P|317:189|305:262,1,97.5
217,336,141040,1,0,0:0:0:0:
152,271,141250,2,0,P|128:212|140:135,1,130
192,32,142089,1,0,0:0:0:0:
384,64,142719,6,0,L|431:70,2,32.5
192,32,143558,5,0,0:0:0:0:
122,84,143768,2,0,P|104:127|115:202,1,97.5
192,288,144397,1,0,0:0:0:0:
256,223,144607,2,0,P|284:176|290:114,1,97.5
256,0,145236,1,0,0:0:0:0:
175,41,145446,2,0,P|109:51|32:29,1,130
32,224,146285,2,0,L|27:295,2,65
161,131,147124,2,0,P|230:109|309:123,1,130
449,153,147964,2,0,L|522:169,2,65
320,281,148803,6,0,L|289:354,1,65
294,340,149222,1,0,0:0:0:0:
224,192,149642,2,0,L|250:116,1,65
245,130,150061,1,0,0:0:0:0:
364,10,150481,2,0,L|506:6,1,130
448,160,151320,2,0,L|423:243,1,65
352,256,151740,6,0,L|262:255,1,65
224,192,152159,2,0,P|207:124|236:59,1,130
288,0,152789,1,0,0:0:0:0:
387,152,153208,2,0,L|429:225,1,65
354,273,153628,2,0,P|261:296|158:248,1,195
107,196,154467,1,0,0:0:0:0:
320,96,155096,6,0,L|389:90,1,65
473,85,155516,1,0,0:0:0:0:
492,173,155726,2,0,L|507:247,2,65
352,288,156565,2,0,L|287:288,1,65
224,224,156985,2,0,P|196:158|214:81,1,130
384,32,157824,2,0,L|457:33,1,65
500,107,158243,2,0,P|505:159|477:239,1,130
416,296,158873,1,0,0:0:0:0:
160,352,159502,5,0,0:0:0:0:
96,288,159712,2,0,L|76:185,1,104
160,32,160551,2,0,L|160:-28,2,32.5
224,96,160971,2,0,L|225:137,2,32.5
291,0,161390,1,0,0:0:0:0:
368,128,161810,1,0,0:0:0:0:
181,149,162229,6,0,L|107:161,2,65
272,134,162859,1,0,0:0:0:0:
299,222,163069,2,0,L|318:291,2,65
383,187,163698,2,0,L|470:157,2,65
299,222,164327,2,0,L|234:241,1,65
145,240,164747,2,0,L|76:221,1,65
0,197,165166,1,0,0:0:0:0:
32,96,165586,6,0,L|28:19,2,65
123,96,166215,2,0,L|199:93,2,65
67,174,166845,2,0,L|-14:178,2,65
249,174,167684,1,0,0:0:0:0:
160,288,168104,6,0,L|51:295,1,104
197,201,168943,2,0,B|298:185|298:185|403:206,1,195
472,217,169782,1,0,0:0:0:0:
497,136,169992,2,0,L|514:65,2,65
415,115,170621,2,0,L|219:71,1,195
143,49,171460,1,0,0:0:0:0:
77,205,171880,6,0,L|40:290,1,65
126,302,172299,2,0,P|220:334|322:310,1,195
399,276,173138,1,0,0:0:0:0:
191,233,173978,2,0,L|-3:192,1,195
39,117,174817,6,0,L|167:144,1,130
320,224,175656,2,0,P|414:265|497:230,1,195
512,64,176705,2,0,L|511:0,2,65
452,123,177334,2,0,B|364:145|364:145|260:123,1,195
180,100,178173,1,0,0:0:0:0:
128,256,178593,6,0,L|103:317,1,65
192,320,179013,2,0,B|295:347|295:347|393:322,1,195
448,256,179852,2,0,L|480:128,1,130
320,160,180691,2,0,L|128:128,1,195
90,218,181530,6,0,L|65:303,1,65
160,288,181950,2,0,L|180:214,1,65
256,256,182369,2,0,P|355:292|442:261,1,195
512,209,183208,1,0,0:0:0:0:
448,64,183628,6,0,L|435:-4,1,65
366,69,184048,2,0,B|273:94|273:94|162:61,1,195
99,36,184887,1,0,0:0:0:0:
37,225,185306,2,0,L|8:305,1,65
96,320,185726,2,0,B|192:343|192:343|287:323,1,195
380,297,186565,1,0,0:0:0:0:
192,96,187404,2,0,B|91:75|91:75|-6:101,1,195
32,192,188243,6,0,L|57:268,1,65
146,226,188663,2,0,L|123:165,1,65
224,192,189083,2,0,P|336:230|413:190,1,195
480,96,190131,2,0,L|507:24,2,65
384,96,190761,2,0,L|181:74,1,195
96,64,191600,1,0,0:0:0:0:
41,311,192229,6,0,L|29:361,2,32.5
288,288,193488,2,0,L|365:281,2,65
96,292,194117,2,0,L|13:281,1,65
136,217,194537,2,0,L|212:213,1,65
76,159,194957,2,0,L|25:156,3,32.5
139,107,195376,2,0,L|192:103,3,32.5
64,62,195796,5,0,0:0:0:0:
320,32,197264,2,0,L|409:27,2,86.6666666666667
64,32,198943,2,0,L|9:34,2,32.5
416,96,200621,1,0,0:0:0:0:
352,160,200831,2,0,L|268:164,1,65
198,203,201250,2,0,L|133:205,1,65
32,256,201670,2,0,L|-7:258,6,32.5
121,295,202509,6,0,L|209:292,1,65
288,288,202929,1,0,0:0:0:0:
288,288,203138,1,0,0:0:0:0:
385,288,203348,2,0,L|428:285,2,32.5
288,288,203768,1,0,0:0:0:0:
160,192,204187,6,0,L|83:190,1,65
0,192,204607,1,0,0:0:0:0:
0,192,204817,1,0,0:0:0:0:
0,107,205027,2,0,L|2:69,2,32.5
0,192,205446,1,0,0:0:0:0:
256,192,205866,12,0,208803,0:0:0:0:
96,320,209222,6,0,P|158:334|233:320,1,130
306,286,209852,1,0,0:0:0:0:
384,224,210062,2,0,P|399:156|389:94,1,130
338,21,210691,1,0,0:0:0:0:
256,64,210901,2,0,L|107:53,1,130
37,33,211530,1,0,0:0:0:0:
140,136,211950,6,0,L|264:144,1,104
302,201,212579,2,0,P|362:215|419:201,1,104
463,133,213208,2,0,L|482:21,2,104
392,88,214257,2,0,P|343:74|288:84,1,104
216,118,214887,2,0,P|158:133|98:111,1,104
32,192,215936,5,0,0:0:0:0:
101,236,216145,2,0,L|308:250,1,208
367,191,217194,2,0,L|376:123,1,52
433,80,217614,2,0,L|499:89,2,52
351,65,218243,2,0,L|179:43,1,156
64,160,219292,6,0,L|54:225,1,52
139,211,219712,2,0,L|202:216,1,52
190,131,220131,2,0,L|195:71,1,52
96,64,220551,2,0,L|21:58,1,52
0,128,220971,2,0,L|-9:194,2,52
79,154,221600,2,0,L|255:176,1,156
384,128,222649,6,0,L|395:64,2,52
352,224,223278,2,0,P|311:268|266:285,1,104
188,299,223908,2,0,L|114:303,2,52
222,223,224537,2,0,P|236:166|218:100,1,104
154,160,225166,2,0,P|132:218|142:275,1,104
165,337,225796,1,0,0:0:0:0:
256,320,226006,6,0,L|378:309,1,104
440,292,226635,1,0,0:0:0:0:
377,229,226845,2,0,L|257:240,1,104
128,320,227684,2,0,L|88:368,2,52
186,261,228313,2,0,B|227:181|180:97,1,156
45,198,229362,5,0,0:0:0:0:
45,198,229572,1,0,0:0:0:0:
149,198,229782,2,0,L|224:193,1,65
313,163,230201,1,0,0:0:0:0:
313,163,230411,1,0,0:0:0:0:
221,113,230621,2,0,L|147:117,1,65
160,224,231041,2,0,L|167:290,1,65
256,288,231460,2,0,L|331:280,1,65
394,207,231880,2,0,L|385:124,1,65
373,42,232299,1,0,0:0:0:0:
160,96,232719,6,0,L|19:103,1,130
160,256,233558,2,0,L|300:244,1,130
96,160,234397,2,0,P|84:105|108:21,1,130
100,34,235027,1,0,0:0:0:0:
192,96,235236,2,0,P|203:150|179:235,1,130
188,222,235866,1,0,0:0:0:0:
256,192,236076,12,0,237754,0:0:0:0:
256,192,249502,12,0,252020,0:0:0:0:
99,321,252859,6,0,B|207:343|207:343|296:327,1,195
392,305,253698,1,0,0:0:0:0:
428,100,254117,6,0,L|439:27,1,65
339,72,254537,2,0,B|249:97|249:97|128:63,1,195
53,33,255376,1,0,0:0:0:0:
96,224,255796,6,0,L|107:289,1,65
224,288,256215,2,0,L|363:270,1,130
455,250,256845,1,0,0:0:0:0:
481,149,257054,2,0,L|501:63,1,65
400,128,257474,2,0,L|383:190,1,65
309,116,257894,2,0,P|175:80|113:113,1,195
81,192,258733,2,0,L|16:328,1,130
210,214,259572,6,0,B|249:128|249:128|228:19,1,195
64,43,260621,2,0,L|-3:48,2,65
162,76,261250,2,0,B|277:100|277:100|373:79,1,195
452,52,262089,1,0,0:0:0:0:
480,352,262719,6,0,L|487:390,2,32.5
480,96,263978,2,0,L|487:26,2,65
379,124,264607,2,0,L|246:109,1,130
320,288,265446,2,0,L|474:306,1,130
301,155,266285,5,0,0:0:0:0:
192,128,266495,2,0,L|112:110,2,65
394,176,267334,2,0,L|477:192,2,65
185,176,268173,2,0,L|31:196,1,130
130,266,268803,2,0,P|196:285|258:270,1,130
320,64,269852,6,0,L|309:-3,2,65
352,256,270691,2,0,L|367:334,2,65
160,160,271530,2,0,L|26:139,1,130
105,65,272160,2,0,L|244:86,1,130
448,128,273208,6,0,L|517:141,2,65
243,88,274047,2,0,L|166:76,2,65
384,224,274887,2,0,P|398:292|373:362,1,130
277,348,275516,2,0,L|204:338,1,65
212,234,275936,2,0,L|283:245,1,65
480,256,276565,5,0,0:0:0:0:
422,169,276775,2,0,L|408:88,1,65
288,288,277404,1,0,0:0:0:0:
224,192,277614,2,0,L|210:119,1,65
96,160,278034,2,0,L|10:171,1,65
96,256,278453,2,0,L|172:244,1,65
128,352,278873,2,0,L|-8:374,1,130
320,352,279922,6,0,L|411:364,2,65
96,320,280761,2,0,L|7:303,2,65
320,320,281600,2,0,L|472:304,1,130
384,224,282229,2,0,L|247:233,1,130
64,245,283278,6,0,L|-18:250,2,65
285,234,284117,2,0,L|373:226,2,65
96,160,284957,2,0,P|72:87|94:11,1,130
173,83,285586,2,0,P|197:155|175:231,1,130
118,330,286635,6,0,L|78:388,2,65
227,153,287474,2,0,L|261:94,2,65
161,222,288313,2,0,L|32:224,1,130
110,302,288943,2,0,L|185:300,1,65
256,224,289362,2,0,L|253:139,1,65
64,64,289992,6,0,L|-25:66,2,65
285,64,290831,2,0,L|359:63,2,65
256,192,291460,12,0,293138,0:0:0:0:
