osu file format v14

[General]
AudioFilename: snow amber.mp3
AudioLeadIn: 2000
PreviewTime: 84659
Countdown: 0
SampleSet: None
StackLeniency: 0.7
Mode: 0
LetterboxInBreaks: 0
WidescreenStoryboard: 0

[Editor]
Bookmarks: 41390,266283
DistanceSpacing: 0.85
BeatDivisor: 4
GridSize: 16
TimelineZoom: 2.5

[Metadata]
Title:Yukikohaku -snow amber- Remix
TitleUnicode:雪琥珀 -snow amber- Remix
Artist:TUMENECO & GET IN THE RING
ArtistUnicode:TUMENECO & GET IN THE RING
Creator:Felt7z
Version:BBA's Insane
Source:東方project
Tags:GCHM TUMENECO yukina MieJell Sar7 Turbo_BBA yassu- 東方星蓮船 ~ Undefined Fantastic Object touhou 東方 AVENGE Another World 2 GET IN THE RING
BeatmapID:1190745
BeatmapSetID:525861

[Difficulty]
HPDrainRate:7
CircleSize:4
OverallDifficulty:7
ApproachRate:9
SliderMultiplier:1.6
SliderTickRate:1

[Events]
//Background and Video events
0,0,"G.jpg",0,0
//Break Periods
2,28164,40791
2,237955,248902
//Storyboard Layer 0 (Background)
//Storyboard Layer 1 (Fail)
//Storyboard Layer 2 (Pass)
//Storyboard Layer 3 (Foreground)
//Storyboard Sound Samples

[TimingPoints]
272,419.58041958042,4,3,0,60,1,0
1111,419.58041958042,4,3,0,60,1,0
1111,-200,4,3,0,60,0,0
2369,-142.857142857143,4,3,0,60,0,0
2789,-200,4,3,0,60,0,0
5306,-142.857142857143,4,3,0,60,0,0
6145,-200,4,3,0,60,0,0
6775,-142.857142857143,4,3,0,60,0,0
7824,-200,4,3,0,60,0,0
14537,-100,4,3,0,60,0,0
17474,-200,4,3,0,60,0,0
17894,-100,4,3,0,60,0,0
19572,-200,4,3,0,60,0,0
20411,-100,4,3,0,60,0,0
21250,-200,4,3,0,60,0,0
21670,-100,4,3,0,60,0,0
22509,-66.6666666666667,4,3,0,70,0,0
22921,-200,4,3,0,60,0,0
23348,-100,4,3,0,60,0,0
24187,-66.6666666666667,4,3,0,70,0,0
24607,-200,4,3,0,50,0,0
26285,-100,4,3,0,60,0,0
26495,-100,4,3,0,70,0,0
26705,-100,4,3,0,60,0,0
26915,-100,4,3,0,70,0,0
27124,-100,4,3,0,60,0,0
27334,-100,4,3,0,70,0,0
27544,-100,4,3,0,80,0,0
27964,-100,4,3,0,60,0,0
48104,-142.857142857143,4,3,0,60,0,0
48733,-100,4,3,0,60,0,0
49782,-142.857142857143,4,3,0,60,0,0
50201,-100,4,3,0,60,0,0
50621,-142.857142857143,4,3,0,60,0,0
51041,-100,4,3,0,60,0,0
51880,-66.6666666666667,4,3,0,60,0,0
52299,-100,4,3,0,60,0,0
52719,-66.6666666666667,4,3,0,60,0,0
54817,-100,4,3,0,60,0,0
60166,-83.3333333333333,4,3,0,60,0,0
60691,-100,4,3,0,60,0,0
63208,-142.857142857143,4,3,0,60,0,0
63628,-100,4,3,0,60,0,0
64048,-142.857142857143,4,3,0,60,0,0
64467,-100,4,3,0,60,0,0
65306,-66.6666666666667,4,3,0,60,0,0
65726,-100,4,3,0,60,0,0
66145,-66.6666666666667,4,3,0,60,0,0
67824,-100,4,3,0,70,0,0
73908,-83.3333333333333,4,3,0,70,0,0
74432,-66.6666666666667,4,3,0,70,0,0
75586,-100,4,3,0,70,0,0
76215,-83.3333333333333,4,3,0,70,0,0
78313,-100,4,3,0,80,0,0
83348,-100,4,3,0,90,0,0
84187,-200,4,3,0,60,0,0
85027,-100,4,3,0,70,0,1
88383,-83.3333333333333,4,3,0,70,0,1
88698,-100,4,3,0,70,0,1
90062,-142.857142857143,4,3,0,70,0,1
90901,-100,4,3,0,70,0,1
96775,-142.857142857143,4,3,0,50,0,1
98453,-100,4,3,0,70,0,1
103488,-142.857142857143,4,3,0,50,0,1
104327,-100,4,3,0,70,0,1
108313,-142.857142857143,4,3,0,60,0,0
110201,-100,4,3,0,60,0,0
111041,-100,4,3,0,70,0,0
111880,-100,4,3,0,70,0,1
121111,-66.6666666666667,4,3,0,70,0,1
121530,-100,4,3,0,70,0,1
123628,-100,4,3,0,50,0,1
124887,-100,4,3,0,65,0,0
125306,-100,4,3,0,60,0,0
126565,-83.3333333333333,4,3,0,60,0,0
127824,-100,4,3,0,60,0,0
129502,-83.3333333333333,4,3,0,60,0,0
130341,-100,4,3,0,60,0,0
130656,-83.3333333333333,4,3,0,60,0,0
131180,-100,4,3,0,60,0,0
131495,-83.3333333333333,4,3,0,60,0,0
132020,-142.857142857143,4,3,0,60,0,0
132649,-83.3333333333333,4,3,0,60,0,0
133698,-100,4,3,0,60,0,0
134117,-83.3333333333333,4,3,0,60,0,0
134537,-100,4,3,0,60,0,0
134957,-83.3333333333333,4,3,0,60,0,0
135376,-100,4,3,0,60,0,0
135796,-66.6666666666667,4,3,0,60,0,0
136215,-100,4,3,0,60,0,0
136635,-66.6666666666667,4,3,0,60,0,0
137055,-100,4,3,0,60,0,0
137474,-66.6666666666667,4,3,0,60,0,0
137894,-100,4,3,0,60,0,0
139572,-83.3333333333333,4,3,0,60,0,0
142090,-100,4,3,0,60,0,0
146076,-83.3333333333333,4,3,0,60,0,0
147124,-83.3333333333333,4,3,0,60,0,0
148803,-100,4,3,0,60,0,0
149222,-66.6666666666667,4,3,0,60,0,0
149642,-100,4,3,0,60,0,0
150062,-66.6666666666667,4,3,0,60,0,0
151740,-100,4,3,0,70,0,0
167264,-100,4,3,0,90,0,0
168104,-100,4,3,0,70,0,0
168943,-100,4,3,0,70,0,1
173978,-142.857142857143,4,3,0,70,0,1
174817,-100,4,3,0,70,0,1
178593,-142.857142857143,4,3,0,70,0,1
179013,-83.3333333333333,4,3,0,70,0,1
179852,-100,4,3,0,70,0,1
180691,-142.857142857143,4,3,0,70,0,0
182369,-100,4,3,0,70,0,1
183628,-142.857142857143,4,3,0,70,0,1
184048,-83.3333333333333,4,3,0,70,0,1
185306,-100,4,3,0,70,0,1
186041,-83.3333333333333,4,3,0,70,0,1
187404,-142.857142857143,4,3,0,50,0,1
188243,-142.857142857143,4,3,0,70,0,1
189083,-100,4,3,0,70,0,1
192229,-100,4,3,0,70,0,0
194117,-100,4,3,0,70,0,1
195796,-100,4,3,0,80,0,0
197474,-100,4,3,0,90,0,0
198943,-100,4,3,0,80,0,0
200621,-142.857142857143,4,3,0,60,0,0
201670,-100,4,3,0,70,0,0
202929,-83.3333333333333,4,3,0,70,0,0
204187,-100,4,3,0,70,0,0
204607,-83.3333333333333,4,3,0,70,0,0
205866,-200,4,3,0,50,0,0
207544,-100,4,3,0,60,0,0
209222,-100,4,3,0,70,0,0
211950,-142.857142857143,4,3,0,60,0,0
215936,-142.857142857143,4,3,0,70,0,0
217194,-100,4,3,0,60,0,0
217614,-142.857142857143,4,3,0,60,0,0
219292,-100,4,3,0,70,0,0
220971,-142.857142857143,4,3,0,70,0,0
226845,-100,4,3,0,70,0,0
228313,-142.857142857143,4,3,0,70,0,0
229362,-100,4,3,0,70,0,0
235866,-83.3333333333333,4,3,0,70,0,0
236076,-83.3333333333333,4,3,0,50,0,0
252859,-100,4,3,0,60,0,1
254852,-66.6666666666667,4,3,0,60,0,1
255166,-83.3333333333333,4,3,0,60,0,1
255796,-100,4,3,0,60,0,1
256215,-83.3333333333333,4,3,0,70,0,1
257894,-200,4,3,0,50,0,1
258733,-83.3333333333333,4,3,0,60,0,1
259572,-100,4,3,0,60,0,1
259992,-83.3333333333333,4,3,0,60,0,1
260621,-100,4,3,0,60,0,1
262719,-100,4,3,0,60,0,0
266285,-100,4,3,0,60,0,1
284747,-83.3333333333333,4,3,0,60,0,0

[Colours]
Combo1 : 255,104,104
Combo2 : 255,179,179
Combo3 : 255,193,132
Combo4 : 255,217,255
Combo5 : 187,187,255
Combo6 : 203,151,255

[HitObjects]
335,356,1111,6,0,P|394:373|457:368,1,120,0|2,0:0|0:0,0:0:0:0:
464,144,2369,2,0,L|456:66,1,55.9999982910157
304,144,2789,2,0,P|250:164|180:159,1,120,0|2,0:0|0:0,0:0:0:0:
96,320,4048,2,0,L|82:364,1,40
304,304,4467,6,0,L|365:296,1,40,2|0,0:0|0:0,0:0:0:0:
176,256,4887,2,0,L|117:264,1,40,2|0,0:0|0:0,0:0:0:0:
333,185,5306,2,0,L|407:175,1,55.9999982910157
141,135,5726,2,0,L|62:146,1,55.9999982910157,2|0,0:0|0:0,0:0:0:0:
352,288,6146,6,0,P|386:305|420:311,2,40,2|0|0,0:0|0:0|0:0,0:0:0:0:
256,112,6775,2,2,B|268:67|229:18|258:-3,1,111.999996582031
250,1,7405,1,2,0:0:0:0:
208,176,7824,5,0,0:0:0:0:
125,124,8034,2,0,L|69:116,1,40,0|2,0:0|0:0,0:0:0:0:
209,199,8454,1,0,0:0:0:0:
299,119,8663,2,0,L|363:113,1,40,0|2,0:0|0:0,0:0:0:0:
208,240,9083,1,0,0:0:0:0:
105,165,9293,2,0,L|47:161,1,40,0|2,0:0|0:0,0:0:0:0:
208,304,9712,1,0,0:0:0:0:
320,176,9922,2,0,L|385:172,1,40,0|2,0:0|0:0,0:0:0:0:
207,351,10342,1,0,0:0:0:0:
64,208,10552,2,0,L|1:202,1,40,0|2,0:0|0:0,0:0:0:0:
304,80,11181,5,0,0:0:0:0:
144,128,11391,2,0,P|111:130|77:126,1,40,0|2,0:0|0:0,0:0:0:0:
272,192,11810,1,0,0:0:0:0:
416,224,12020,2,0,P|448:226|483:222,1,40,0|2,0:0|0:0,0:0:0:0:
304,336,12440,1,0,0:0:0:0:
128,368,12649,1,0,0:0:0:0:
0,256,12859,5,2,0:0:0:0:
58,79,13698,6,0,B|72:47|52:-17,1,80,0|2,0:0|0:0,0:0:0:0:
224,80,14538,2,0,B|246:84|246:84|355:70,1,120,8|0,0:0|0:0,0:0:0:0:
192,160,14957,2,0,P|149:172|81:159,1,80,8|0,0:0|0:0,0:0:0:0:
33,151,15377,1,8,0:0:0:0:
220,245,15796,6,0,P|256:261|299:259,1,80
432,220,16216,2,0,L|515:164,1,80,0|2,0:0|0:0,0:0:0:0:
432,220,16531,2,0,B|448:156|448:156|446:100,1,120,8|0,0:0|0:0,0:0:0:0:
438,16,17055,1,2,0:0:0:0:
368,192,17475,6,0,P|355:223|331:250,1,40
155,264,17894,2,0,L|72:252,1,80,2|0,0:0|0:0,0:0:0:0:
169,181,18209,2,0,B|229:161|229:161|304:174,1,120,2|0,0:0|0:0,0:0:0:0:
216,309,18733,2,0,L|152:357,1,80
305,241,19153,2,2,L|385:177,1,80
98,280,19573,6,0,B|53:283|-14:226|16:224|57:242,1,120
288,336,20411,2,0,P|349:344|402:340,1,80
247,264,20831,2,0,P|205:246|171:219,1,80
448,160,21251,6,8,L|474:115,1,40,0|8,0:0|0:0,0:0:0:0:
352,176,21670,2,0,P|297:197|263:199,1,80,0|8,0:0|0:0,0:0:0:0:
320,80,22090,2,0,P|343:34|348:-12,1,80,0|8,0:0|0:0,0:0:0:0:
213,127,22510,2,8,P|162:154|95:161,1,120
48,96,22929,6,0,L|18:49,1,40,0|8,0:0|0:0,0:0:0:0:
192,208,23349,2,0,P|224:232|268:247,1,80,0|8,0:0|0:0,0:0:0:0:
176,80,23768,2,0,P|158:35|153:-11,1,80,0|8,0:0|0:0,0:0:0:0:
320,160,24188,2,8,P|371:187|438:199,1,120
288,256,24503,1,8,0:0:0:0:
288,256,24608,6,8,B|223:270|223:270|137:235|137:235|126:144,1,240,8|2,0:0|0:0,0:0:0:0:
336,80,26286,6,0,L|393:73,1,40
208,160,26496,2,0,L|152:165,1,40
368,208,26705,6,2,L|414:201,1,40
208,288,26915,2,2,L|162:292,1,40
144,96,27124,6,0,L|136:45,1,40
288,272,27335,2,0,L|298:324,1,40
128,224,27545,6,2,L|72:229,1,40
304,128,27754,2,2,L|353:123,1,40
73,56,27964,5,4,0:0:0:0:
272,139,41391,6,0,P|343:134|401:86,1,120,8|0,0:0|0:0,0:0:0:0:
183,80,42020,1,0,0:0:0:0:
148,72,42125,1,0,0:0:0:0:
112,64,42230,2,0,L|32:45,1,80
144,192,42649,6,0,P|184:217|224:224,1,80,8|0,0:0|0:0,0:0:0:0:
336,96,43069,2,0,L|384:16,1,80
416,208,43384,2,8,B|422:278|422:278|400:336,1,120,8|0,0:0|0:0,0:0:0:0:
297,215,43908,1,0,0:0:0:0:
292,192,44013,1,0,0:0:0:0:
288,176,44118,2,2,P|279:156|260:132,1,40
112,176,44328,1,0,0:0:0:0:
89,189,44433,1,0,0:0:0:0:
70,203,44538,2,2,P|54:227|45:253,1,40
192,288,44747,6,0,L|308:326,1,120
421,220,45377,5,0,0:0:0:0:
455,209,45482,1,0,0:0:0:0:
480,192,45587,2,0,P|500:152|503:91,1,80
304,112,46006,2,0,P|240:128|224:128,1,80,8|0,0:0|0:0,0:0:0:0:
352,208,46426,6,0,L|439:257,1,80
256,304,46740,2,0,P|194:320|110:296,1,120,8|0,0:0|0:0,0:0:0:0:
80,128,47265,2,0,L|64:32,1,80
192,112,47580,2,0,P|240:144|338:145,1,120,8|0,0:0|0:0,0:0:0:0:
128,256,48104,6,0,B|60:288|14:264|48:254|88:271,1,111.999996582031,0|8,0:0|0:0,0:0:0:0:
240,272,48733,6,0,L|294:281,1,40
400,160,48943,2,0,P|427:107|427:75,1,80
208,48,49362,2,0,L|112:32,1,80
176,208,49782,6,0,L|203:303,1,83.9999974365235
288,144,50202,2,0,P|332:103|385:96,1,80,8|0,0:0|0:0,0:0:0:0:
493,243,50621,2,0,L|512:265,2,27.9999991455078
224,96,51041,2,0,P|178:83|110:94,1,80,8|0,0:0|0:0,0:0:0:0:
208,240,51461,6,0,L|234:326,1,80
384,256,51775,1,0,0:0:0:0:
400,240,51880,2,0,P|416:176|384:112,1,120,8|0,0:0|0:0,0:0:0:0:
312,277,52300,2,0,L|282:383,1,80
176,256,52614,1,0,0:0:0:0:
160,240,52719,2,0,P|142:184|172:77,1,120.000004577637,8|0,0:0|0:0,0:0:0:0:
336,128,53139,6,0,B|399:138|399:138|459:117,1,120
256,176,53454,2,0,L|101:145,1,120,8|0,0:0|0:0,0:0:0:0:
320,256,53768,1,0,0:0:0:0:
350,271,53873,1,0,0:0:0:0:
380,273,53978,2,0,B|452:273|492:194,1,120
246,278,54398,1,8,0:0:0:0:
217,292,54503,1,8,0:0:0:0:
189,303,54608,1,8,0:0:0:0:
162,314,54712,1,8,0:0:0:0:
128,323,54817,2,0,B|91:339|40:328|37:294|61:279|107:311,1,120,4|0,0:0|0:0,0:0:0:0:
83,298,55237,1,8,0:0:0:0:
317,317,55447,5,0,0:0:0:0:
351,329,55552,1,0,0:0:0:0:
392,339,55656,2,0,B|453:359|486:330,1,80
416,176,56076,2,0,P|400:112|406:71,1,80,8|0,0:0|0:0,0:0:0:0:
224,144,56496,2,0,P|176:160|109:156,1,80
264,259,56810,2,0,P|337:311|401:315,1,120,8|0,0:0|0:0,0:0:0:0:
340,112,57335,5,0,0:0:0:0:
329,93,57440,1,0,0:0:0:0:
308,79,57545,2,0,P|278:65|262:65,1,40,2|0,0:0|0:0,0:0:0:0:
144,112,57754,1,8,0:0:0:0:
118,123,57859,1,0,0:0:0:0:
83,124,57964,2,0,P|53:113|35:93,1,40,2|0,0:0|0:0,0:0:0:0:
192,208,58174,6,0,P|253:229|315:203,1,120
303,212,58594,1,8,0:0:0:0:
205,304,58803,1,0,0:0:0:0:
181,322,58908,1,0,0:0:0:0:
142,331,59013,2,0,P|77:320|58:299,1,80
96,128,59433,2,0,L|112:32,1,80,8|0,0:0|0:0,0:0:0:0:
256,112,59852,6,0,P|304:128|368:127,1,80
208,224,60167,2,0,B|50:312,1,143.999995605469,8|0,0:0|0:0,0:0:0:0:
144,128,60691,2,0,P|164:79|163:19,1,80
352,96,61006,2,0,B|494:129,1,120,8|0,0:0|0:0,0:0:0:0:
263,191,61530,2,0,P|197:217|110:194,1,160
312,265,62160,6,0,L|359:281,1,40
423,163,62369,2,0,P|435:106|429:48,1,80
347,123,62789,2,0,P|334:172|339:215,1,80
231,293,63209,6,0,P|171:301|128:286,1,83.9999974365235
75,153,63628,2,0,L|61:49,1,80,8|0,0:0|0:0,0:0:0:0:
224,192,64048,2,0,P|272:208|324:203,1,83.9999974365235
416,80,64468,2,0,L|432:-16,1,80,8|0,0:0|0:0,0:0:0:0:
238,111,64887,6,0,P|200:120|160:120,1,80
317,156,65202,1,0,0:0:0:0:
347,150,65307,2,0,L|477:114,1,120,12|0,0:0|0:0,0:0:0:0:
208,228,65726,2,0,P|170:237|130:237,1,80
319,238,66041,1,0,0:0:0:0:
357,231,66146,2,0,L|487:195,1,120,12|0,0:0|0:0,0:0:0:0:
336,96,66566,6,0,B|275:46|202:92,1,120,12|0,0:0|0:0,0:0:0:0:
317,172,66880,2,0,P|382:160|417:110,1,120,12|0,0:0|0:0,0:0:0:0:
256,240,67195,2,0,B|192:272|107:207,1,120.000004577637,12|0,0:0|0:0,0:0:0:0:
115,218,67510,1,0,0:0:0:0:
94,209,67615,1,0,0:0:0:0:
70,196,67719,1,0,0:0:0:0:
49,181,67824,6,0,L|44:76,1,80,8|0,0:0|0:0,0:0:0:0:
160,156,68244,2,0,P|219:179|264:171,1,80
405,158,68559,1,0,0:0:0:0:
405,158,68663,2,0,L|489:132,1,80,4|0,0:0|0:0,0:0:0:0:
336,304,69292,6,0,L|281:386,1,80
144,256,69712,2,0,P|100:199|155:30,1,240,2|0,0:0|0:0,0:0:0:0:
134,45,70551,1,0,0:0:0:0:
464,224,71181,6,0,L|446:329,1,80
224,352,71601,2,0,P|173:355|125:339,1,80,2|0,0:0|0:0,0:0:0:0:
299,288,71915,1,8,0:0:0:0:
299,288,72020,2,0,L|395:272,1,80
480,128,72649,2,0,P|495:77|487:15,1,80
235,49,73069,6,0,P|180:38|149:12,1,80,2|0,0:0|0:0,0:0:0:0:
313,81,73384,1,8,0:0:0:0:
334,94,73489,2,0,P|389:108|440:93,1,80
262,163,73803,1,2,0:0:0:0:
234,167,73908,2,0,P|175:167|130:135,1,95.9999970703126
288,240,74223,1,0,0:0:0:0:
315,251,74328,1,0,0:0:0:0:
349,256,74433,2,2,B|464:285|493:242|437:194|415:239,1,180.000006866455
415,238,74957,1,0,0:0:0:0:
208,352,75587,5,0,0:0:0:0:
144,240,75796,2,0,L|123:154,1,80,2|0,0:0|0:0,0:0:0:0:
271,289,76215,2,0,P|309:314|375:332,1,80,8|0,0:0|0:0,0:0:0:0:
112,240,76635,5,12,0:0:0:0:
78,225,76740,2,8,L|24:221,1,47.9999985351563
272,144,77055,1,12,0:0:0:0:
305,129,77159,2,8,L|373:125,1,47.9999985351563
48,64,77475,5,2,0:0:0:0:
48,64,77684,1,0,0:0:0:0:
336,16,77894,1,2,0:0:0:0:
336,16,78104,1,0,0:0:0:0:
192,224,78314,5,8,0:0:0:0:
64,176,78524,1,0,0:0:0:0:
48,16,78733,1,8,0:0:0:0:
192,224,78943,5,0,0:0:0:0:
130,99,79153,1,8,0:0:0:0:
217,0,79362,1,0,0:0:0:0:
192,224,79573,5,8,0:0:0:0:
352,288,79782,1,0,0:0:0:0:
488,180,79992,1,8,0:0:0:0:
192,224,80202,5,0,0:0:0:0:
368,205,80411,1,8,0:0:0:0:
467,90,80621,1,0,0:0:0:0:
467,90,80831,5,8,0:0:0:0:
300,176,81040,1,0,0:0:0:0:
117,149,81250,1,8,0:0:0:0:
117,149,81670,5,8,0:0:0:0:
364,192,81880,1,0,0:0:0:0:
140,272,82090,1,12,0:0:0:0:
288,80,82300,1,0,0:0:0:0:
352,304,82510,1,8,0:0:0:0:
128,176,82719,1,0,0:0:0:0:
432,128,82929,1,8,0:0:0:0:
272,336,83139,1,0,0:0:0:0:
48,192,83349,1,14,0:0:0:0:
496,112,83768,1,6,0:0:0:0:
224,272,84188,6,0,B|144:304,1,80,0|2,0:0|0:0,0:0:0:0:
352,320,85027,6,0,P|422:319|481:291,1,120
448,160,85446,2,0,P|432:112|432:64,1,80,8|0,0:0|0:0,0:0:0:0:
240,48,85866,2,0,L|144:32,1,80
334,120,86285,2,0,P|405:124|432:112,1,80,8|0,0:0|0:0,0:0:0:0:
256,208,86705,2,0,L|160:256,1,80
368,288,87020,2,0,P|433:301|482:236,1,120
480,128,87544,2,0,L|464:16,1,80,0|2,0:0|0:0,0:0:0:0:
384,240,87964,6,0,L|368:336,1,80
176,288,88383,2,0,L|54:269,1,95.9999970703126
192,176,88698,2,0,P|229:149|313:154,1,120
400,208,89222,1,0,0:0:0:0:
438,231,89327,1,0,0:0:0:0:
492,228,89432,1,2,0:0:0:0:
368,96,89642,1,0,0:0:0:0:
331,75,89747,1,0,0:0:0:0:
283,78,89852,1,2,0:0:0:0:
131,160,90062,6,0,B|95:180|-8:180|1:132|78:165,1,167.999994873047
192,224,90901,5,0,0:0:0:0:
192,224,91006,1,0,0:0:0:0:
192,224,91110,2,2,L|267:247,1,40
352,240,91320,1,0,0:0:0:0:
352,240,91425,1,0,0:0:0:0:
352,240,91530,2,2,L|413:218,1,40
240,320,91740,6,0,P|178:333|110:304,1,120,8|0,0:0|0:0,0:0:0:0:
256,192,92159,2,0,L|336:128,1,80,8|0,0:0|0:0,0:0:0:0:
319,143,92474,1,0,0:0:0:0:
319,143,92579,1,0,0:0:0:0:
148,119,92789,2,0,L|52:103,2,80,0|8|0,0:0|0:0|0:0,0:0:0:0:
323,150,93418,2,0,P|371:166|451:150,1,120,0|8,0:0|0:0,0:0:0:0:
256,208,93838,2,0,L|144:235,1,80
150,236,94152,1,0,0:0:0:0:
128,242,94257,1,0,0:0:0:0:
103,248,94362,1,0,0:0:0:0:
75,255,94467,1,0,0:0:0:0:
96,96,94677,6,0,P|112:48|112:16,1,80,8|0,0:0|0:0,0:0:0:0:
288,16,95096,2,0,L|388:7,1,80
256,160,95411,2,0,P|194:176|132:151,1,120,8|0,0:0|0:0,0:0:0:0:
288,80,95936,1,0,0:0:0:0:
320,64,96040,1,0,0:0:0:0:
369,67,96145,1,8,0:0:0:0:
402,95,96250,1,8,0:0:0:0:
407,135,96355,1,0,0:0:0:0:
380,171,96460,1,0,0:0:0:0:
340,190,96565,1,0,0:0:0:0:
104,257,96775,6,0,P|74:291|164:331,1,167.999994873047,8|0,0:0|0:0,0:0:0:0:
304,304,97614,5,8,0:0:0:0:
327,298,97719,1,8,0:0:0:0:
354,292,97824,1,0,0:0:0:0:
376,286,97929,1,0,0:0:0:0:
414,268,98033,5,10,0:0:0:0:
429,238,98138,1,10,0:0:0:0:
447,210,98243,1,2,0:0:0:0:
462,182,98348,1,2,0:0:0:0:
416,160,98453,6,0,L|288:128,1,120
433,91,98873,2,0,L|514:110,1,80,8|0,0:0|0:0,0:0:0:0:
281,53,99187,1,0,0:0:0:0:
263,49,99292,2,8,L|184:30,1,80,8|0,0:0|0:0,0:0:0:0:
32,0,99712,1,8,0:0:0:0:
32,0,99922,1,0,0:0:0:0:
99,124,100131,6,0,P|144:160|211:161,1,120
73,232,100551,2,0,L|-6:262,1,80,8|0,0:0|0:0,0:0:0:0:
192,262,100866,1,0,0:0:0:0:
192,262,100971,2,0,L|295:262,1,80
96,320,101390,1,8,0:0:0:0:
96,320,101600,1,0,0:0:0:0:
284,348,101810,6,0,L|366:365,1,80
482,213,102124,2,0,P|508:147|505:80,1,120,8|0,0:0|0:0,0:0:0:0:
362,194,102649,1,0,0:0:0:0:
362,194,102754,1,0,0:0:0:0:
362,194,102859,2,2,L|303:239,1,40
226,166,103068,1,0,0:0:0:0:
226,166,103173,1,0,0:0:0:0:
226,166,103278,2,2,L|188:117,1,40
230,306,103488,6,0,P|320:355|393:321,1,167.999994873047
444,175,104327,6,0,P|460:111|460:79,1,80
250,168,104747,2,0,P|194:192|162:192,1,80
293,54,105166,2,0,P|348:22|408:27,1,120
301,257,105586,2,0,P|259:303|208:319,2,80,8|0|0,0:0|0:0|0:0,0:0:0:0:
110,118,106215,6,0,P|73:81|72:38,2,80,0|8|0,0:0|0:0|0:0,0:0:0:0:
320,128,106845,2,0,L|461:110,1,120
240,176,107264,2,0,L|128:192,1,80,8|0,0:0|0:0,0:0:0:0:
12,208,107684,1,0,0:0:0:0:
282,306,108313,5,0,0:0:0:0:
312,316,108418,1,0,0:0:0:0:
351,329,108523,2,2,P|390:338|470:294,1,111.999996582031
496,80,109572,6,0,L|524:9,2,55.9999982910157
416,208,110201,1,6,0:0:0:0:
416,208,110411,2,0,L|378:255,1,40
304,160,110621,1,6,0:0:0:0:
304,160,110831,2,0,L|259:115,1,40
176,240,111040,1,0,0:0:0:0:
176,240,111145,1,0,0:0:0:0:
176,240,111250,2,2,L|145:296,1,40
96,128,111460,1,0,0:0:0:0:
96,128,111565,1,0,0:0:0:0:
96,128,111670,2,2,L|80:80,1,40
256,64,111880,6,0,L|373:55,1,80,8|0,0:0|0:0,0:0:0:0:
464,55,112299,1,2,0:0:0:0:
464,55,112404,1,0,0:0:0:0:
464,55,112509,1,2,0:0:0:0:
253,181,112719,2,0,L|161:189,1,80,8|0,0:0|0:0,0:0:0:0:
51,196,113138,1,2,0:0:0:0:
51,196,113243,1,0,0:0:0:0:
51,196,113348,1,2,0:0:0:0:
320,288,113558,6,0,P|383:295|418:276,1,80,8|0,0:0|0:0,0:0:0:0:
176,224,113977,2,0,P|132:216|89:221,1,80
256,176,114397,1,8,0:0:0:0:
274,136,114501,1,0,0:0:0:0:
265,94,114606,1,0,0:0:0:0:
247,54,114711,1,0,0:0:0:0:
251,11,114816,1,2,0:0:0:0:
192,192,115236,6,0,L|128:288,1,80,8|0,0:0|0:0,0:0:0:0:
74,358,115655,1,0,0:0:0:0:
74,358,115760,1,0,0:0:0:0:
74,358,115865,1,2,0:0:0:0:
320,192,116075,2,0,L|383:96,1,80,8|0,0:0|0:0,0:0:0:0:
442,28,116494,1,0,0:0:0:0:
442,28,116599,1,0,0:0:0:0:
442,28,116704,1,2,0:0:0:0:
208,144,116914,6,0,P|160:160|112:160,1,80,8|0,0:0|0:0,0:0:0:0:
320,240,117334,2,0,P|379:264|429:261,1,80,8|0,0:0|0:0,0:0:0:0:
240,320,117754,1,8,0:0:0:0:
196,318,117858,1,0,0:0:0:0:
153,308,117963,1,8,0:0:0:0:
114,288,118068,1,0,0:0:0:0:
80,261,118173,1,10,0:0:0:0:
320,224,118593,6,0,L|416:208,1,80,8|0,0:0|0:0,0:0:0:0:
496,112,119012,1,8,0:0:0:0:
512,80,119117,1,0,0:0:0:0:
512,48,119222,1,8,0:0:0:0:
272,48,119432,2,0,L|176:64,1,80,8|0,0:0|0:0,0:0:0:0:
112,192,119852,1,8,0:0:0:0:
112,224,119957,1,0,0:0:0:0:
128,256,120062,1,8,0:0:0:0:
288,336,120271,6,0,P|336:352|384:336,1,80,0|8,0:0|0:0,0:0:0:0:
464,192,120691,2,0,P|480:128|480:96,1,80,0|8,0:0|0:0,0:0:0:0:
304,176,121110,2,0,P|225:196|197:189,1,80,0|8,0:0|0:0,0:0:0:0:
160,80,121530,2,0,L|144:16,2,60.0000022888184,0|8|0,0:0|0:0|0:0,0:0:0:0:
320,224,122159,6,0,P|373:247|423:247,1,80,8|0,0:0|0:0,0:0:0:0:
512,256,122579,1,8,0:0:0:0:
192,144,122998,6,0,P|139:121|89:121,1,80,8|0,0:0|0:0,0:0:0:0:
0,112,123418,1,8,0:0:0:0:
144,256,123628,5,0,0:0:0:0:
144,256,123838,2,0,L|191:229,1,40
320,224,124047,1,0,0:0:0:0:
320,224,124257,2,0,L|384:256,1,40
192,320,124467,2,0,P|144:329|85:316,1,80
288,352,124887,1,0,0:0:0:0:
288,352,124992,1,0,0:0:0:0:
288,352,125097,1,0,0:0:0:0:
288,352,125201,1,0,0:0:0:0:
288,352,125306,6,8,B|317:356|317:356|441:337,1,120
176,288,125935,1,0,0:0:0:0:
144,272,126040,1,0,0:0:0:0:
112,256,126145,2,0,L|96:160,1,80
223,225,126565,2,0,P|270:252|329:253,1,95.9999970703126,8|0,0:0|0:0,0:0:0:0:
432,128,126984,6,0,L|481:43,1,95.9999970703126
448,240,127299,2,8,B|413:300|413:300|326:325,1,143.999995605469,8|0,0:0|0:0,0:0:0:0:
176,304,127824,1,0,0:0:0:0:
176,304,127928,1,0,0:0:0:0:
176,304,128033,2,2,L|129:284,1,40
256,240,128243,1,0,0:0:0:0:
256,240,128348,1,0,0:0:0:0:
256,240,128453,2,2,L|318:219,1,40
176,160,128663,6,0,B|162:103|162:103|191:29,1,120
304,80,129292,5,0,0:0:0:0:
304,80,129397,1,0,0:0:0:0:
304,80,129502,2,0,B|363:86|363:86|426:75,1,95.9999970703126
240,144,129921,2,0,B|179:161|179:161|152:181,1,95.9999970703126,8|0,0:0|0:0,0:0:0:0:
304,240,130341,6,0,L|399:292,1,80
207,324,130656,2,0,P|131:331|73:296,1,143.999995605469,8|0,0:0|0:0,0:0:0:0:
112,128,131180,2,0,L|137:17,1,80
240,128,131495,2,0,P|288:160|391:154,1,143.999995605469,8|0,0:0|0:0,0:0:0:0:
160,258,132020,2,0,B|98:268|64:265|80:225|108:239|132:257,1,111.999996582031,0|8,0:0|0:0,0:0:0:0:
272,288,132649,5,0,0:0:0:0:
299,301,132754,1,0,0:0:0:0:
334,315,132859,2,0,P|388:323|432:305,1,95.9999970703126
480,176,133278,2,0,L|496:80,1,95.9999970703126
272,208,133698,6,0,P|222:228|152:201,1,120
96,96,134117,2,0,L|76:3,1,95.9999970703126,8|0,0:0|0:0,0:0:0:0:
209,92,134537,2,0,P|268:130|339:125,1,120
432,80,134957,2,0,L|495:-1,1,95.9999970703126,8|0,0:0|0:0,0:0:0:0:
464,192,135376,6,0,L|432:288,1,80
304,320,135691,1,0,0:0:0:0:
278,324,135796,2,0,B|209:329|209:329|109:296,1,120.000004577637,8|0,0:0|0:0,0:0:0:0:
96,160,136215,2,0,L|83:72,1,80
208,128,136529,1,0,0:0:0:0:
236,131,136635,2,0,B|299:133|299:133|376:118,1,120,8|0,0:0|0:0,0:0:0:0:
224,224,137055,6,0,L|118:233,1,80
272,288,137369,1,0,0:0:0:0:
301,285,137474,2,0,L|430:262,1,120.000004577637
480,128,137894,2,0,L|488:31,1,80
288,144,138313,5,8,0:0:0:0:
265,148,138418,1,8,0:0:0:0:
243,153,138523,1,8,0:0:0:0:
223,157,138627,1,8,0:0:0:0:
195,162,138733,2,0,B|157:171|106:160|103:126|131:128|150:154,1,120,4|0,0:0|0:0,0:0:0:0:
128,144,139152,1,8,0:0:0:0:
256,240,139362,5,0,0:0:0:0:
256,240,139467,1,0,0:0:0:0:
256,240,139572,2,0,P|320:258|374:241,1,95.9999970703126
416,128,139991,2,0,B|424:66|424:66|419:19,1,95.9999970703126,8|0,0:0|0:0,0:0:0:0:
272,112,140411,2,0,P|224:128|158:132,1,95.9999970703126
336,192,140726,2,0,B|377:202|377:202|484:181,1,143.999995605469,8|0,0:0|0:0,0:0:0:0:
352,272,141250,5,0,0:0:0:0:
352,272,141355,1,0,0:0:0:0:
352,272,141460,2,2,L|297:290,1,47.9999985351563
162,283,141669,1,8,0:0:0:0:
162,283,141774,1,0,0:0:0:0:
162,283,141880,2,2,L|87:244,1,47.9999985351563
237,349,142090,6,0,P|302:368|372:334,1,120
350,352,142509,1,8,0:0:0:0:
445,248,142718,1,0,0:0:0:0:
464,240,142823,1,0,0:0:0:0:
483,223,142928,2,0,L|469:124,1,80
304,80,143348,2,0,L|216:67,1,80,8|0,0:0|0:0,0:0:0:0:
320,160,143768,6,0,P|372:179|429:168,1,80
256,256,144083,2,0,B|206:290|109:281,1,120,8|0,0:0|0:0,0:0:0:0:
304,352,144607,2,0,P|356:358|413:343,1,80
480,208,144921,2,0,P|496:160|480:80,1,120,8|0,0:0|0:0,0:0:0:0:
320,208,145446,2,0,B|245:266|162:196,1,160,0|8,0:0|0:0,0:0:0:0:
336,64,146285,2,0,L|448:48,1,95.9999970703126
431,50,146705,1,0,0:0:0:0:
256,208,147124,6,0,P|188:231|119:214,1,143.999995605469,0|8,0:0|0:0,0:0:0:0:
320,144,147544,2,0,L|416:126,1,95.9999970703126,0|8,0:0|0:0,0:0:0:0:
311,266,147963,2,0,P|246:295|176:288,1,143.999995605469,0|8,0:0|0:0,0:0:0:0:
369,207,148383,2,0,L|464:192,1,95.9999970703126,0|8,0:0|0:0,0:0:0:0:
224,192,148803,6,0,L|121:196,1,80
320,160,149117,1,0,0:0:0:0:
355,143,149222,2,0,P|386:65|372:-8,1,120.000004577637,12|0,0:0|0:0,0:0:0:0:
272,224,149642,2,0,L|176:256,1,80
48,224,149956,1,0,0:0:0:0:
18,209,150062,2,0,P|4:138|18:81,1,120,12|0,0:0|0:0,0:0:0:0:
131,145,150481,6,0,B|182:198|263:153,1,120,12|0,0:0|0:0,0:0:0:0:
384,96,150796,2,0,B|448:53|507:88,1,120.000004577637,12|0,0:0|0:0,0:0:0:0:
352,207,151110,2,0,B|286:245|209:207,1,120,8|0,0:0|0:0,0:0:0:0:
96,160,151425,1,0,0:0:0:0:
81,154,151530,1,0,0:0:0:0:
65,148,151634,1,0,0:0:0:0:
49,139,151740,6,0,L|32:36,1,80,8|0,0:0|0:0,0:0:0:0:
160,96,152159,2,0,P|215:112|264:111,1,80
400,112,152474,1,0,0:0:0:0:
400,112,152579,2,0,P|446:104|484:86,1,80,4|0,0:0|0:0,0:0:0:0:
416,288,153208,2,0,L|384:400,1,80
253,225,153628,2,0,P|224:176|293:20,1,240,2|0,0:0|0:0,0:0:0:0:
289,21,154467,1,0,0:0:0:0:
448,192,155096,6,0,L|404:294,1,80
240,304,155516,2,0,P|189:307|141:291,1,80,2|0,0:0|0:0,0:0:0:0:
304,224,155830,1,8,0:0:0:0:
304,224,155935,2,0,L|400:208,1,80
480,96,156565,2,0,L|509:-12,1,80
310,27,156984,6,0,P|258:17|217:25,1,80,2|0,0:0|0:0,0:0:0:0:
336,112,157299,1,8,0:0:0:0:
336,112,157404,2,0,P|391:126|435:104,1,80
244,168,157718,1,2,0:0:0:0:
244,168,157824,2,0,P|183:173|136:157,1,80
352,240,158138,1,0,0:0:0:0:
352,240,158243,1,0,0:0:0:0:
352,240,158348,2,2,B|450:256|495:249|470:223|445:227,1,120
469,245,158767,1,0,0:0:0:0:
469,245,158872,1,0,0:0:0:0:
272,352,159502,5,0,0:0:0:0:
164,294,159712,2,0,L|76:283,1,80,2|0,0:0|0:0,0:0:0:0:
288,240,160131,2,0,L|398:229,1,80,8|0,0:0|0:0,0:0:0:0:
112,128,160550,5,12,0:0:0:0:
71,116,160656,2,8,L|-3:109,1,40
258,61,160970,1,12,0:0:0:0:
298,45,161075,2,8,L|357:38,1,40
512,20,161390,5,2,0:0:0:0:
512,20,161599,1,0,0:0:0:0:
224,0,161809,1,2,0:0:0:0:
224,0,162019,1,0,0:0:0:0:
160,160,162229,5,8,0:0:0:0:
368,112,162439,1,0,0:0:0:0:
288,288,162648,1,8,0:0:0:0:
208,80,162858,5,0,0:0:0:0:
400,208,163068,1,8,0:0:0:0:
160,256,163277,1,0,0:0:0:0:
288,64,163488,5,8,0:0:0:0:
352,320,163697,1,0,0:0:0:0:
112,192,163907,1,8,0:0:0:0:
384,112,164117,5,0,0:0:0:0:
240,304,164326,1,8,0:0:0:0:
128,96,164536,1,0,0:0:0:0:
416,224,164746,5,8,0:0:0:0:
160,256,164957,1,0,0:0:0:0:
308,49,165165,1,8,0:0:0:0:
112,192,165585,5,8,0:0:0:0:
304,304,165795,1,0,0:0:0:0:
384,96,166005,1,14,0:0:0:0:
160,256,166215,1,0,0:0:0:0:
432,192,166425,1,8,0:0:0:0:
192,48,166634,1,0,0:0:0:0:
266,297,166844,1,8,0:0:0:0:
336,32,167054,1,0,0:0:0:0:
96,144,167264,5,14,0:0:0:0:
496,96,167683,1,6,0:0:0:0:
320,272,168103,5,8,0:0:0:0:
305,288,168207,1,8,0:0:0:0:
290,304,168312,1,0,0:0:0:0:
272,320,168417,1,0,0:0:0:0:
240,320,168522,1,8,0:0:0:0:
220,311,168627,1,8,0:0:0:0:
201,302,168732,1,8,0:0:0:0:
176,291,168838,1,0,0:0:0:0:
144,272,168942,6,0,L|128:128,1,120
256,144,169362,2,0,P|307:156|339:156,1,80,8|0,0:0|0:0,0:0:0:0:
464,240,169676,1,0,0:0:0:0:
486,257,169782,2,0,P|502:305|502:337,1,80
400,208,170201,2,0,P|387:144|398:99,1,80,8|0,0:0|0:0,0:0:0:0:
240,192,170621,6,0,P|186:201|109:173,1,120
56,133,171249,1,0,0:0:0:0:
160,64,171460,2,0,L|235:7,1,80
176,176,171880,6,0,P|169:214|168:261,1,80,8|0,0:0|0:0,0:0:0:0:
304,304,172299,2,0,L|391:323,1,80
464,176,172614,2,0,P|476:130|464:48,1,120,8|0,0:0|0:0,0:0:0:0:
240,64,173138,2,0,L|156:54,1,80
320,128,173558,2,0,L|413:146,1,80
174,288,173978,2,0,P|114:271|127:172,1,167.999994873047
187,107,174816,5,8,0:0:0:0:
187,107,174922,1,8,0:0:0:0:
187,107,175027,2,2,L|237:63,1,40
324,153,175235,1,8,0:0:0:0:
324,153,175340,1,8,0:0:0:0:
324,153,175446,2,2,L|366:191,1,40
250,240,175656,6,0,P|200:252|118:211,1,120
84,80,176076,2,0,L|72:-23,1,80,8|0,0:0|0:0,0:0:0:0:
320,80,176704,2,0,P|385:89|419:83,2,80,0|8|0,0:0|0:0|0:0,0:0:0:0:
197,63,177334,2,0,P|121:51|67:68,1,120
37,222,177964,2,0,P|9:291|-8:301,2,80
80,54,178593,6,0,L|99:-7,1,55.9999982910157,8|8,0:0|0:0,0:0:0:0:
262,48,179013,2,0,P|313:58|378:45,1,95.9999970703126
262,48,179327,2,0,P|320:104|334:173,1,143.999995605469,8|0,0:0|0:0,0:0:0:0:
160,256,179852,2,0,L|67:266,1,80
285,215,180271,2,0,L|380:203,1,80,8|0,0:0|0:0,0:0:0:0:
141,112,180691,2,0,P|71:125|106:208,1,167.999994873047,8|0,0:0|0:0,0:0:0:0:
217,248,181530,5,8,0:0:0:0:
241,256,181635,1,0,0:0:0:0:
266,266,181740,1,0,0:0:0:0:
290,274,181845,1,0,0:0:0:0:
333,272,181950,1,8,0:0:0:0:
357,262,182055,1,0,0:0:0:0:
382,252,182159,1,0,0:0:0:0:
408,240,182264,1,0,0:0:0:0:
431,207,182369,6,0,B|447:143|447:143|447:63,1,120
278,14,182789,2,0,L|169:-1,1,80,8|0,0:0|0:0,0:0:0:0:
337,91,183208,2,0,P|385:75|417:43,1,80
350,221,183628,2,0,L|320:291,1,55.9999982910157,8|0,0:0|0:0,0:0:0:0:
128,256,184048,2,0,L|31:248,1,95.9999970703126
192,192,184362,2,0,L|293:200,1,95.9999970703126,8|0,0:0|0:0,0:0:0:0:
180,314,184677,2,0,P|126:334|58:308,1,95.9999970703126
32,144,185306,6,0,L|16:48,1,80,8|0,0:0|0:0,0:0:0:0:
160,112,185726,2,0,P|224:144|256:144,1,80
160,112,186041,2,0,P|182:201|235:252,1,143.999995605469,8|0,0:0|0:0,0:0:0:0:
368,272,186564,1,0,0:0:0:0:
395,269,186669,1,0,0:0:0:0:
426,266,186775,2,2,L|497:256,1,47.9999985351563,10|2,0:0|0:0,0:0:0:0:
336,192,186985,1,0,0:0:0:0:
310,188,187090,1,0,0:0:0:0:
278,184,187194,2,2,L|207:172,1,47.9999985351563,10|2,0:0|0:0,0:0:0:0:
391,138,187404,6,0,P|453:110|389:63,1,167.999994873047,0|8,0:0|0:0,0:0:0:0:
224,144,188244,1,8,0:0:0:0:
200,157,188348,1,0,0:0:0:0:
177,171,188453,1,0,0:0:0:0:
155,185,188558,1,0,0:0:0:0:
112,192,188663,1,8,0:0:0:0:
87,180,188768,1,0,0:0:0:0:
63,168,188873,1,0,0:0:0:0:
37,155,188978,1,0,0:0:0:0:
76,121,189083,6,0,P|122:99|167:41,1,120,8|0,0:0|0:0,0:0:0:0:
336,16,189502,2,0,L|445:2,1,80,8|0,0:0|0:0,0:0:0:0:
137,203,190131,2,0,L|51:244,2,80,0|8|0,0:0|0:0|0:0,0:0:0:0:
287,130,190761,2,0,P|358:110|428:128,1,120
242,225,191180,2,0,P|188:236|137:221,1,80,8|0,0:0|0:0,0:0:0:0:
64,193,191599,1,0,0:0:0:0:
368,288,192229,1,0,0:0:0:0:
413,300,192334,1,0,0:0:0:0:
462,316,192439,1,2,0:0:0:0:
144,161,193488,6,0,L|49:176,2,80,0|8|0,0:0|0:0|0:0,0:0:0:0:
336,128,194117,2,0,L|432:112,1,80,8|0,0:0|0:0,0:0:0:0:
208,208,194431,1,0,0:0:0:0:
208,208,194537,2,0,L|97:229,1,80,8|0,0:0|0:0,0:0:0:0:
338,209,194852,1,0,0:0:0:0:
338,209,194957,2,0,L|436:238,1,80,8|0,0:0|0:0,0:0:0:0:
208,128,195270,1,0,0:0:0:0:
208,128,195376,2,0,L|107:92,1,80,8|0,0:0|0:0,0:0:0:0:
272,176,195796,5,4,0:0:0:0:
96,208,197263,5,8,0:0:0:0:
400,176,197473,1,0,0:0:0:0:
400,176,197788,1,0,0:0:0:0:
112,80,198942,5,8,0:0:0:0:
68,66,199047,1,8,0:0:0:0:
29,54,199152,1,8,0:0:0:0:
96,240,200620,5,0,0:0:0:0:
96,240,200725,1,0,0:0:0:0:
96,240,200831,2,0,L|161:257,1,55.9999982910157,2|0,0:0|0:0,0:0:0:0:
320,272,201145,1,0,0:0:0:0:
320,272,201250,2,0,L|398:259,1,55.9999982910157,2|0,0:0|0:0,0:0:0:0:
239,129,201670,2,8,P|217:86|233:31,1,80
235,27,201985,1,0,0:0:0:0:
261,11,202090,1,0,0:0:0:0:
297,17,202195,1,0,0:0:0:0:
322,31,202300,1,0,0:0:0:0:
144,112,202509,6,0,P|96:128|56:128,1,80
256,160,202929,2,0,L|360:183,1,95.9999970703126,8|0,0:0|0:0,0:0:0:0:
128,224,203347,1,0,0:0:0:0:
91,231,203452,1,0,0:0:0:0:
51,229,203557,1,0,0:0:0:0:
256,288,203768,2,0,L|352:320,1,95.9999970703126,8|0,0:0|0:0,0:0:0:0:
448,160,204187,6,0,P|464:112|468:70,1,80
368,176,204607,2,0,B|333:217|333:217|284:234,1,95.9999970703126,8|0,0:0|0:0,0:0:0:0:
295,70,205026,1,0,0:0:0:0:
303,32,205131,1,0,0:0:0:0:
308,0,205236,1,0,0:0:0:0:
112,48,205446,2,0,L|-11:64,1,95.9999970703126,8|0,0:0|0:0,0:0:0:0:
128,160,205866,2,0,B|240:223|240:223|349:187,1,240,0|8,0:0|0:0,0:0:0:0:
416,96,207544,6,0,L|448:-16,1,80,8|0,0:0|0:0,0:0:0:0:
240,96,207859,2,0,B|155:123,1,80,8|0,0:0|0:0,0:0:0:0:
384,208,208173,2,0,L|479:247,1,80,8|0,0:0|0:0,0:0:0:0:
169,179,208592,1,0,0:0:0:0:
124,167,208697,1,0,0:0:0:0:
85,152,208803,1,0,0:0:0:0:
208,288,209221,5,0,0:0:0:0:
208,288,209326,1,0,0:0:0:0:
208,288,209432,2,2,L|256:320,1,40,10|2,0:0|0:0,0:0:0:0:
368,336,209641,5,0,0:0:0:0:
368,336,209746,1,0,0:0:0:0:
368,336,209852,2,2,L|419:339,1,40
496,256,210062,5,0,0:0:0:0:
496,256,210166,1,0,0:0:0:0:
496,256,210271,2,0,L|509:190,1,40
448,48,210480,5,2,0:0:0:0:
448,48,210585,1,2,0:0:0:0:
448,48,210691,2,2,L|416:0,1,40,10|2,0:0|0:0,0:0:0:0:
240,48,210901,6,0,L|128:64,1,80
400,112,211214,1,0,0:0:0:0:
400,112,211320,2,0,L|502:96,2,80,8|0|0,0:0|0:0|0:0,0:0:0:0:
149,188,211950,2,0,P|77:194|36:148,1,111.999996582031
112,48,212579,6,0,L|211:6,1,83.9999974365235
189,15,212999,1,0,0:0:0:0:
320,112,213208,2,0,P|342:158|317:230,1,111.999996582031
192,288,213838,2,0,P|160:288|116:268,1,55.9999982910157
64,128,214257,6,0,P|64:65|102:11,1,111.999996582031
195,136,214782,1,0,0:0:0:0:
195,136,214887,2,0,P|203:198|165:256,1,111.999996582031
96,304,215936,5,0,0:0:0:0:
96,304,216041,1,0,0:0:0:0:
96,304,216145,2,0,P|128:336|304:320,1,223.999993164063
368,163,217194,2,0,P|373:124|365:72,1,80
211,212,217614,2,0,P|179:228|138:228,2,55.9999982910157
256,64,218243,2,0,B|229:-3|158:0,1,111.999996582031
128,3,218767,1,0,0:0:0:0:
91,25,218873,1,0,0:0:0:0:
65,59,218978,1,0,0:0:0:0:
61,100,219083,1,2,0:0:0:0:
78,140,219187,1,2,0:0:0:0:
107,169,219292,6,0,P|143:185|191:179,1,80,2|0,0:0|0:0,0:0:0:0:
317,142,219607,2,0,P|360:131|407:140,1,80,2|0,0:0|0:0,0:0:0:0:
339,225,219922,2,0,P|305:236|252:234,1,80
128,224,220236,2,0,P|85:232|54:255,1,80
192,320,220551,2,0,P|239:330|273:324,1,80
432,352,220971,2,0,P|470:367|501:373,2,55.9999982910157,0|8|0,0:0|0:0|0:0,0:0:0:0:
272,123,221600,2,0,P|188:92|171:166,1,167.999994873047
288,272,222648,5,0,0:0:0:0:
406,305,222859,1,8,0:0:0:0:
507,233,223069,1,0,0:0:0:0:
416,80,223278,2,0,P|384:48|310:39,1,111.999996582031,8|0,0:0|0:0,0:0:0:0:
208,160,223908,5,8,0:0:0:0:
112,233,224117,1,0,0:0:0:0:
0,193,224327,1,8,0:0:0:0:
160,64,224537,2,0,P|205:39|281:52,1,111.999996582031,0|8,0:0|0:0,0:0:0:0:
384,144,225166,6,8,L|428:167,1,27.9999991455078
384,144,225376,2,0,P|314:161|255:146,1,111.999996582031
80,112,226006,2,0,L|4:95,1,55.9999982910157
192,64,226320,1,0,0:0:0:0:
192,64,226425,2,0,L|269:52,1,55.9999982910157,8|0,0:0|0:0,0:0:0:0:
128,160,226845,5,0,0:0:0:0:
128,160,226950,1,0,0:0:0:0:
128,160,227055,2,2,L|80:192,1,40
208,240,227264,2,0,L|225:276,1,40
112,304,227474,2,0,L|82:356,1,40
278,349,227684,2,0,P|326:363|377:351,1,80,8|0,0:0|0:0,0:0:0:0:
356,360,228104,1,0,0:0:0:0:
373,197,228313,2,0,B|356:173|432:128|338:139|401:103|338:123|365:25,1,167.999994873047,8|0,0:0|0:0,0:0:0:0:
160,224,229362,6,0,P|118:228|68:203,1,80,8|0,0:0|0:0,0:0:0:0:
224,160,229677,5,0,0:0:0:0:
224,160,229782,2,0,P|271:154|318:170,1,80,8|0,0:0|0:0,0:0:0:0:
144,128,230097,5,0,0:0:0:0:
144,128,230201,2,0,P|128:96|137:41,1,80,8|0,0:0|0:0,0:0:0:0:
240,256,230515,5,0,0:0:0:0:
240,256,230621,2,0,P|254:294|245:340,1,80,8|0,0:0|0:0,0:0:0:0:
208,112,230936,5,0,0:0:0:0:
208,112,231041,2,0,P|219:63|248:31,1,80
144,256,231354,5,0,0:0:0:0:
144,256,231460,2,0,P|111:293|63:308,1,80
272,176,231774,5,0,0:0:0:0:
272,176,231880,2,0,P|320:160|365:166,1,80,2|0,0:0|0:0,0:0:0:0:
80,192,232193,1,0,0:0:0:0:
80,192,232299,2,0,P|42:199|-19:183,1,80,2|0,0:0|0:0,0:0:0:0:
167,282,232719,6,0,P|213:293|275:275,1,80,8|0,0:0|0:0,0:0:0:0:
352,256,233034,2,0,P|400:240|465:252,1,80,0|8,0:0|0:0,0:0:0:0:
320,352,233348,2,0,P|274:376|214:365,1,80,0|8,0:0|0:0,0:0:0:0:
144,240,233663,2,0,P|127:200|129:148,1,80,0|8,0:0|0:0,0:0:0:0:
231,253,233978,2,0,P|211:311|172:332,1,80,0|8,0:0|0:0,0:0:0:0:
305,167,234397,6,0,P|327:98|281:34,1,120
187,10,235027,1,8,0:0:0:0:
73,64,235236,2,0,P|50:124|80:201,1,120
169,266,235866,1,8,0:0:0:0:
256,192,236076,12,2,237755,0:0:0:0:
256,192,249502,12,0,252019,0:0:0:0:
48,160,252859,6,0,P|64:96|55:28,1,120
192,64,253278,2,0,P|240:80|300:76,1,80,8|0,0:0|0:0,0:0:0:0:
400,160,253593,1,0,0:0:0:0:
400,160,253698,2,0,P|416:224|414:270,1,80,8|0,0:0|0:0,0:0:0:0:
192,240,254117,2,0,L|100:230,1,80,8|0,0:0|0:0,0:0:0:0:
224,320,254537,2,0,P|288:336|335:323,1,80
400,224,254852,2,8,P|415:162|412:98,1,120.000004577637
304,256,255166,2,0,P|291:325|296:361,1,95.9999970703126
416,288,255796,6,0,P|466:256|482:216,1,80
336,144,256215,2,0,P|272:128|220:143,1,95.9999970703126,0|2,0:0|0:0,0:0:0:0:
128,176,256530,2,0,P|64:192|20:191,1,95.9999970703126,0|2,0:0|0:0,0:0:0:0:
42,193,256845,1,0,0:0:0:0:
224,256,257055,1,2,0:0:0:0:
224,256,257264,2,0,L|310:290,1,47.9999985351563
384,224,257474,1,2,0:0:0:0:
384,224,257684,2,0,L|444:207,1,47.9999985351563,2|0,0:0|0:0,0:0:0:0:
256,352,257894,6,0,P|197:360|146:303,1,140,8|0,0:0|0:0,0:0:0:0:
208,160,258733,5,0,0:0:0:0:
208,160,258838,1,0,0:0:0:0:
208,160,258943,2,2,L|260:123,1,47.9999985351563
352,192,259152,1,0,0:0:0:0:
352,192,259257,1,0,0:0:0:0:
352,192,259362,2,2,L|397:216,1,47.9999985351563
320,304,259572,6,0,L|267:374,1,80,8|0,0:0|0:0,0:0:0:0:
96,368,259887,1,0,0:0:0:0:
96,368,259992,2,0,P|42:358|2:321,1,95.9999970703126,8|0,0:0|0:0,0:0:0:0:
47,95,260621,2,0,L|35:13,2,80,0|8|0,0:0|0:0|0:0,0:0:0:0:
208,192,261250,6,0,P|269:209|301:209,1,80,8|0,0:0|0:0,0:0:0:0:
384,192,261565,2,0,P|440:184|510:208,1,120
499,201,262090,1,2,0:0:0:0:
256,144,262719,5,0,0:0:0:0:
218,136,262824,1,0,0:0:0:0:
183,127,262929,1,2,0:0:0:0:
64,48,263978,2,0,L|-24:39,2,80,0|8|0,0:0|0:0|0:0,0:0:0:0:
256,80,264607,5,0,0:0:0:0:
256,80,264817,2,0,L|324:76,1,40,8|0,0:0|0:0,0:0:0:0:
128,144,265027,1,0,0:0:0:0:
128,144,265236,2,0,L|55:136,1,40,8|0,0:0|0:0,0:0:0:0:
320,208,265446,1,0,0:0:0:0:
320,208,265551,1,0,0:0:0:0:
320,208,265656,2,2,L|371:203,1,40
112,256,265866,1,0,0:0:0:0:
112,256,265971,1,0,0:0:0:0:
112,256,266076,2,2,L|45:247,1,40
288,304,266285,6,0,P|335:313|384:304,1,80,8|0,0:0|0:0,0:0:0:0:
480,176,266705,1,2,0:0:0:0:
483,148,266810,1,2,0:0:0:0:
487,117,266915,1,2,0:0:0:0:
288,192,267124,2,0,P|235:198|188:177,1,80,8|0,0:0|0:0,0:0:0:0:
144,64,267544,1,2,0:0:0:0:
140,33,267649,1,2,0:0:0:0:
137,1,267754,1,2,0:0:0:0:
352,16,267964,6,0,P|413:26|467:23,1,80,8|0,0:0|0:0,0:0:0:0:
256,80,268383,2,0,P|196:72|164:60,1,80,8|0,0:0|0:0,0:0:0:0:
352,176,268803,1,8,0:0:0:0:
382,201,268908,1,2,0:0:0:0:
396,239,269013,1,2,0:0:0:0:
397,278,269117,1,2,0:0:0:0:
385,316,269222,1,2,0:0:0:0:
160,336,269642,6,0,L|64:320,1,80,8|0,0:0|0:0,0:0:0:0:
272,304,270062,1,2,0:0:0:0:
304,311,270166,1,2,0:0:0:0:
340,320,270271,1,2,0:0:0:0:
128,224,270481,2,0,L|44:203,1,80,8|0,0:0|0:0,0:0:0:0:
288,192,270901,1,2,0:0:0:0:
327,203,271006,1,2,0:0:0:0:
367,216,271111,1,2,0:0:0:0:
144,96,271320,6,0,L|32:64,1,80,8|0,0:0|0:0,0:0:0:0:
352,112,271740,2,0,L|448:144,1,80,8|0,0:0|0:0,0:0:0:0:
208,32,272159,1,2,0:0:0:0:
177,22,272264,1,2,0:0:0:0:
145,12,272369,1,2,0:0:0:0:
116,7,272474,1,2,0:0:0:0:
89,0,272579,1,2,0:0:0:0:
48,256,272999,6,0,L|32:352,1,80,8|0,0:0|0:0,0:0:0:0:
208,320,273418,1,2,0:0:0:0:
260,314,273523,1,2,0:0:0:0:
309,308,273628,1,2,0:0:0:0:
463,128,273838,2,0,L|479:32,1,80,8|0,0:0|0:0,0:0:0:0:
304,64,274256,1,2,0:0:0:0:
252,70,274361,1,2,0:0:0:0:
203,76,274466,1,2,0:0:0:0:
288,160,274677,6,0,P|352:176|384:176,1,80,8|0,0:0|0:0,0:0:0:0:
208,224,275097,2,0,P|144:240|112:240,1,80,8|0,0:0|0:0,0:0:0:0:
288,304,275516,2,0,P|352:320|400:320,1,80,8|0,0:0|0:0,0:0:0:0:
464,208,275936,2,0,P|480:144|469:95,1,80,8|0,0:0|0:0,0:0:0:0:
478,130,276250,1,0,0:0:0:0:
288,224,276565,5,0,0:0:0:0:
16,144,276775,1,2,0:0:0:0:
288,224,276985,1,0,0:0:0:0:
128,176,277404,5,0,0:0:0:0:
400,112,277614,1,2,0:0:0:0:
128,176,277824,1,0,0:0:0:0:
368,32,278034,2,0,P|407:24|446:27,1,80,8|0,0:0|0:0,0:0:0:0:
288,144,278453,2,0,L|190:175,1,80,8|0,0:0|0:0,0:0:0:0:
369,290,278873,2,0,P|432:304|502:232,1,160,8|0,0:0|0:0,0:0:0:0:
224,208,279712,6,0,P|176:225|137:220,1,80,8|0,0:0|0:0,0:0:0:0:
295,136,280131,1,2,0:0:0:0:
333,126,280236,1,2,0:0:0:0:
378,138,280341,1,2,0:0:0:0:
224,96,280551,2,0,P|200:61|200:5,1,80,8|0,0:0|0:0,0:0:0:0:
304,240,280971,1,2,0:0:0:0:
321,274,281076,1,2,0:0:0:0:
315,315,281180,1,2,0:0:0:0:
96,320,281390,6,0,L|10:305,1,80,8|0,0:0|0:0,0:0:0:0:
144,240,281810,2,0,L|240:224,1,80,8|0,0:0|0:0,0:0:0:0:
64,128,282229,1,2,0:0:0:0:
38,99,282334,1,2,0:0:0:0:
32,70,282439,1,2,0:0:0:0:
36,40,282544,1,2,0:0:0:0:
57,13,282649,1,2,0:0:0:0:
240,144,283069,6,0,P|281:157|325:153,1,80,8|0,0:0|0:0,0:0:0:0:
448,80,283488,1,2,0:0:0:0:
473,52,283593,1,2,0:0:0:0:
477,14,283698,1,2,0:0:0:0:
232,69,283908,2,0,P|192:85|148:144,1,80,8|0,0:0|0:0,0:0:0:0:
288,208,284327,1,2,0:0:0:0:
323,226,284432,1,2,0:0:0:0:
371,234,284537,1,2,0:0:0:0:
221,302,284747,6,0,P|165:279|136:229,1,95.9999970703126,8|0,0:0|0:0,0:0:0:0:
372,151,285166,2,0,P|417:168|457:210,1,95.9999970703126,8|0,0:0|0:0,0:0:0:0:
311,343,285586,1,2,0:0:0:0:
269,363,285691,1,2,0:0:0:0:
227,370,285796,1,2,0:0:0:0:
190,364,285901,1,2,0:0:0:0:
154,338,286006,1,2,0:0:0:0:
112,192,286425,6,0,L|100:92,1,95.9999970703126,8|0,0:0|0:0,0:0:0:0:
224,176,286845,1,2,0:0:0:0:
255,200,286950,1,2,0:0:0:0:
307,210,287055,1,2,0:0:0:0:
416,144,287264,2,0,L|433:39,1,95.9999970703126,8|0,0:0|0:0,0:0:0:0:
288,144,287684,1,2,0:0:0:0:
254,173,287789,1,2,0:0:0:0:
200,185,287894,1,2,0:0:0:0:
336,224,288104,6,0,P|400:240|441:241,1,95.9999970703126,8|0,0:0|0:0,0:0:0:0:
192,272,288523,2,0,P|128:288|87:290,1,95.9999970703126,8|0,0:0|0:0,0:0:0:0:
368,336,288943,2,0,P|432:352|489:352,1,95.9999970703126,8|0,0:0|0:0,0:0:0:0:
448,160,289362,2,0,L|425:41,1,95.9999970703126,8|0,0:0|0:0,0:0:0:0:
429,65,289677,1,0,0:0:0:0:
97,195,289992,5,8,0:0:0:0:
352,160,290201,1,2,0:0:0:0:
97,195,290411,1,8,0:0:0:0:
27,218,290831,5,8,0:0:0:0:
416,128,291041,1,8,0:0:0:0:
27,218,291250,1,2,0:0:0:0:
256,192,291460,12,0,293138,0:0:0:0:
