osu file format v14

[General]
AudioFilename: snow amber.mp3
AudioLeadIn: 2000
PreviewTime: 84659
Countdown: 0
SampleSet: Normal
StackLeniency: 0.7
Mode: 1
LetterboxInBreaks: 0
WidescreenStoryboard: 0

[Editor]
Bookmarks: 266283
DistanceSpacing: 0.85
BeatDivisor: 2
GridSize: 32
TimelineZoom: 1.9

[Metadata]
Title:Yukikohaku -snow amber- Remix
TitleUnicode:雪琥珀 -snow amber- Remix
Artist:TUMENECO & GET IN THE RING
ArtistUnicode:TUMENECO & GET IN THE RING
Creator:Felt7z
Version:Futsuu
Source:東方project
Tags:GCHM TUMENECO yukina MieJell Sar7 Turbo_BBA yassu- 東方星蓮船 ~ Undefined Fantastic Object touhou 東方 AVENGE Another World 2 GET IN THE RING
BeatmapID:1117767
BeatmapSetID:525861

[Difficulty]
HPDrainRate:6
CircleSize:5
OverallDifficulty:4
ApproachRate:5
SliderMultiplier:1.4
SliderTickRate:1

[Events]
//Background and Video events
0,0,"G.jpg",0,50
//Break Periods
2,239632,244945
//Storyboard Layer 0 (Background)
//Storyboard Layer 1 (Fail)
//Storyboard Layer 2 (Pass)
//Storyboard Layer 3 (Foreground)
//Storyboard Sound Samples

[TimingPoints]
272,419.58041958042,4,1,0,60,1,8
1111,419.58041958042,4,1,0,60,1,0
14537,-100,4,1,0,70,0,0
21250,-100,4,1,0,80,0,0
27964,-100,4,1,0,90,0,0
41390,-100,4,1,0,70,0,0
68243,-100,4,1,0,80,0,0
85027,-100,4,1,0,90,0,1
111880,-100,4,1,0,90,0,0
125306,-100,4,1,0,70,0,0
152159,-100,4,1,0,80,0,0
168943,-100,4,1,0,90,0,1
195796,-100,4,1,0,80,0,0
209222,-100,4,1,0,100,0,0
239432,-100,4,1,0,60,0,0
246145,-100,4,1,0,70,0,0
252859,-100,4,1,0,90,0,1
264607,-100,4,1,0,90,0,0
266285,-100,4,1,0,80,0,1
289782,-100,4,1,0,60,0,1
291460,-100,4,1,0,60,0,0

[HitObjects]
256,192,1111,5,0,0:0:0:0:
256,192,2789,1,0,0:0:0:0:
256,192,4467,1,8,0:0:0:0:
256,192,5306,1,8,0:0:0:0:
256,192,6145,1,8,0:0:0:0:
256,192,7824,1,0,0:0:0:0:
256,192,8453,1,0,0:0:0:0:
256,192,9502,1,0,0:0:0:0:
256,192,10131,1,0,0:0:0:0:
256,192,11180,1,0,0:0:0:0:
256,192,11810,1,0,0:0:0:0:
256,192,12439,1,0,0:0:0:0:
256,192,12859,1,12,0:0:0:0:
256,192,14537,1,0,0:0:0:0:
256,192,15376,1,0,0:0:0:0:
256,192,15796,1,8,0:0:0:0:
256,192,16215,1,0,0:0:0:0:
256,192,17055,1,0,0:0:0:0:
256,192,17894,1,0,0:0:0:0:
256,192,18733,1,0,0:0:0:0:
256,192,19152,1,8,0:0:0:0:
256,192,19572,1,0,0:0:0:0:
256,192,20411,1,8,0:0:0:0:
256,192,20831,1,8,0:0:0:0:
256,192,21250,1,0,0:0:0:0:
256,192,21670,1,0,0:0:0:0:
256,192,22090,1,0,0:0:0:0:
256,192,22509,1,0,0:0:0:0:
256,192,22719,1,0,0:0:0:0:
256,192,22929,1,0,0:0:0:0:
256,192,23348,1,0,0:0:0:0:
256,192,23768,1,0,0:0:0:0:
256,192,24187,1,0,0:0:0:0:
256,192,24397,1,0,0:0:0:0:
256,192,24607,8,8,26285,0:0:0:0:
256,192,27964,5,8,0:0:0:0:
256,192,28383,1,8,0:0:0:0:
256,192,28593,1,8,0:0:0:0:
256,192,28803,1,8,0:0:0:0:
256,192,29222,1,8,0:0:0:0:
256,192,29642,1,8,0:0:0:0:
256,192,29852,1,8,0:0:0:0:
256,192,30062,1,8,0:0:0:0:
256,192,30481,1,0,0:0:0:0:
256,192,31320,1,8,0:0:0:0:
256,192,31740,1,8,0:0:0:0:
256,192,31950,1,8,0:0:0:0:
256,192,32159,1,8,0:0:0:0:
256,192,32579,1,8,0:0:0:0:
256,192,32999,1,0,0:0:0:0:
256,192,33208,1,0,0:0:0:0:
256,192,33418,1,0,0:0:0:0:
256,192,33838,1,8,0:0:0:0:
256,192,34677,1,8,0:0:0:0:
256,192,35097,1,8,0:0:0:0:
256,192,35306,1,8,0:0:0:0:
256,192,35516,1,8,0:0:0:0:
256,192,35936,1,8,0:0:0:0:
256,192,36355,1,8,0:0:0:0:
256,192,36565,1,8,0:0:0:0:
256,192,36775,1,8,0:0:0:0:
256,192,37194,1,0,0:0:0:0:
256,192,38034,1,8,0:0:0:0:
256,192,38453,1,8,0:0:0:0:
256,192,38663,1,8,0:0:0:0:
256,192,38873,1,8,0:0:0:0:
256,192,39292,1,8,0:0:0:0:
256,192,39712,1,4,0:0:0:0:
256,192,40131,1,4,0:0:0:0:
256,192,40551,1,4,0:0:0:0:
256,192,41390,1,0,0:0:0:0:
256,192,41810,1,8,0:0:0:0:
256,192,42649,1,8,0:0:0:0:
256,192,43069,1,0,0:0:0:0:
256,192,43488,1,8,0:0:0:0:
256,192,43908,1,0,0:0:0:0:
256,192,44117,1,0,0:0:0:0:
256,192,44327,1,8,0:0:0:0:
256,192,44747,1,0,0:0:0:0:
256,192,45166,1,8,0:0:0:0:
256,192,46006,1,8,0:0:0:0:
256,192,46425,1,0,0:0:0:0:
256,192,46845,1,8,0:0:0:0:
256,192,47264,1,8,0:0:0:0:
256,192,47474,1,8,0:0:0:0:
256,192,47684,1,8,0:0:0:0:
256,192,48104,1,0,0:0:0:0:
256,192,48523,1,8,0:0:0:0:
256,192,49152,1,0,0:0:0:0:
256,192,49362,1,8,0:0:0:0:
256,192,49782,1,0,0:0:0:0:
256,192,50201,1,8,0:0:0:0:
256,192,50621,1,0,0:0:0:0:
256,192,50831,1,0,0:0:0:0:
256,192,51041,1,8,0:0:0:0:
256,192,51460,1,0,0:0:0:0:
256,192,51880,1,8,0:0:0:0:
256,192,52299,1,0,0:0:0:0:
256,192,52719,1,8,0:0:0:0:
256,192,53138,1,8,0:0:0:0:
256,192,53978,1,8,0:0:0:0:
256,192,54397,1,8,0:0:0:0:
256,192,54817,1,0,0:0:0:0:
256,192,55236,1,8,0:0:0:0:
256,192,56076,1,8,0:0:0:0:
256,192,56495,1,0,0:0:0:0:
256,192,56915,1,8,0:0:0:0:
256,192,57544,1,0,0:0:0:0:
256,192,57754,1,8,0:0:0:0:
256,192,58173,1,0,0:0:0:0:
256,192,58593,1,8,0:0:0:0:
256,192,59432,1,8,0:0:0:0:
256,192,59852,1,0,0:0:0:0:
256,192,60271,1,8,0:0:0:0:
256,192,60691,1,8,0:0:0:0:
256,192,60901,1,8,0:0:0:0:
256,192,61111,1,8,0:0:0:0:
256,192,61530,1,0,0:0:0:0:
256,192,61950,1,8,0:0:0:0:
256,192,62369,1,0,0:0:0:0:
256,192,62579,1,0,0:0:0:0:
256,192,62789,1,8,0:0:0:0:
256,192,63208,1,0,0:0:0:0:
256,192,63628,1,8,0:0:0:0:
256,192,64048,1,0,0:0:0:0:
256,192,64257,1,0,0:0:0:0:
256,192,64467,1,8,0:0:0:0:
256,192,64887,1,0,0:0:0:0:
256,192,65306,1,8,0:0:0:0:
256,192,65726,1,0,0:0:0:0:
256,192,66145,1,8,0:0:0:0:
256,192,66565,1,4,0:0:0:0:
256,192,66985,1,4,0:0:0:0:
256,192,67404,1,4,0:0:0:0:
256,192,68243,1,0,0:0:0:0:
256,192,68663,1,8,0:0:0:0:
256,192,68873,1,8,0:0:0:0:
256,192,69083,1,8,0:0:0:0:
256,192,69502,1,8,0:0:0:0:
256,192,69922,1,0,0:0:0:0:
256,192,70341,1,8,0:0:0:0:
256,192,70761,1,8,0:0:0:0:
256,192,71600,1,0,0:0:0:0:
256,192,72020,1,8,0:0:0:0:
256,192,72229,1,8,0:0:0:0:
256,192,72439,1,8,0:0:0:0:
256,192,72859,1,8,0:0:0:0:
256,192,73278,1,0,0:0:0:0:
256,192,73698,1,8,0:0:0:0:
256,192,74117,1,0,0:0:0:0:
256,192,74957,1,0,0:0:0:0:
256,192,75376,1,8,0:0:0:0:
256,192,75586,1,8,0:0:0:0:
256,192,75796,1,8,0:0:0:0:
256,192,76215,1,8,0:0:0:0:
256,192,76635,1,4,0:0:0:0:
256,192,77055,1,4,0:0:0:0:
256,192,77474,1,4,0:0:0:0:
256,192,78313,1,0,0:0:0:0:
256,192,78943,1,0,0:0:0:0:
256,192,79572,1,0,0:0:0:0:
256,192,80201,1,0,0:0:0:0:
256,192,80831,1,0,0:0:0:0:
256,192,81250,1,8,0:0:0:0:
256,192,81670,1,0,0:0:0:0:
256,192,82299,1,0,0:0:0:0:
256,192,82929,1,0,0:0:0:0:
256,192,83348,1,12,0:0:0:0:
256,192,83768,1,12,0:0:0:0:
256,192,85027,1,4,0:0:0:0:
256,192,85656,1,0,0:0:0:0:
256,192,85866,1,0,0:0:0:0:
256,192,86285,1,8,0:0:0:0:
256,192,86705,1,0,0:0:0:0:
256,192,87124,1,0,0:0:0:0:
256,192,87544,1,8,0:0:0:0:
256,192,87964,1,8,0:0:0:0:
256,192,88173,1,8,0:0:0:0:
256,192,88383,1,0,0:0:0:0:
256,192,89013,1,0,0:0:0:0:
256,192,89222,1,0,0:0:0:0:
256,192,89642,1,8,0:0:0:0:
256,192,90062,1,0,0:0:0:0:
256,192,90481,1,8,0:0:0:0:
256,192,90691,1,0,0:0:0:0:
256,192,90901,1,8,0:0:0:0:
256,192,91740,1,0,0:0:0:0:
256,192,92369,1,0,0:0:0:0:
256,192,92579,1,0,0:0:0:0:
256,192,92999,1,8,0:0:0:0:
256,192,93418,1,0,0:0:0:0:
256,192,93838,1,0,0:0:0:0:
256,192,94257,1,8,0:0:0:0:
256,192,94677,1,8,0:0:0:0:
256,192,94887,1,8,0:0:0:0:
256,192,95097,1,0,0:0:0:0:
256,192,95726,1,0,0:0:0:0:
256,192,95936,1,0,0:0:0:0:
256,192,96355,1,8,0:0:0:0:
256,192,96775,1,0,0:0:0:0:
256,192,97194,1,8,0:0:0:0:
256,192,97404,1,8,0:0:0:0:
256,192,97614,1,0,0:0:0:0:
256,192,98453,1,4,0:0:0:0:
256,192,99083,1,0,0:0:0:0:
256,192,99292,1,8,0:0:0:0:
256,192,99712,1,8,0:0:0:0:
256,192,100131,1,0,0:0:0:0:
256,192,100551,1,0,0:0:0:0:
256,192,100971,1,8,0:0:0:0:
256,192,101390,1,8,0:0:0:0:
256,192,101600,1,8,0:0:0:0:
256,192,101810,1,0,0:0:0:0:
256,192,102439,1,0,0:0:0:0:
256,192,102649,1,8,0:0:0:0:
256,192,103069,1,8,0:0:0:0:
256,192,103488,1,0,0:0:0:0:
256,192,103908,1,0,0:0:0:0:
256,192,104117,1,0,0:0:0:0:
256,192,104327,1,8,0:0:0:0:
256,192,105166,1,0,0:0:0:0:
256,192,105796,1,0,0:0:0:0:
256,192,106006,1,8,0:0:0:0:
256,192,106425,1,8,0:0:0:0:
256,192,106845,1,0,0:0:0:0:
256,192,107264,1,0,0:0:0:0:
256,192,107684,1,8,0:0:0:0:
256,192,108104,1,8,0:0:0:0:
256,192,108313,1,8,0:0:0:0:
256,192,108523,2,0,L|96:192|224:192,1,280
256,192,109782,1,0,0:0:0:0:
256,192,110201,1,12,0:0:0:0:
256,192,110621,1,12,0:0:0:0:
256,192,111880,1,8,0:0:0:0:
256,192,112299,1,8,0:0:0:0:
256,192,112719,1,8,0:0:0:0:
256,192,112929,1,0,0:0:0:0:
256,192,113138,1,8,0:0:0:0:
256,192,113558,1,0,0:0:0:0:
256,192,113978,1,0,0:0:0:0:
256,192,114397,1,0,0:0:0:0:
256,192,115236,1,8,0:0:0:0:
256,192,115656,1,8,0:0:0:0:
256,192,116076,1,8,0:0:0:0:
256,192,116285,1,0,0:0:0:0:
256,192,116495,1,8,0:0:0:0:
256,192,116915,1,0,0:0:0:0:
256,192,117334,1,8,0:0:0:0:
256,192,117754,1,8,0:0:0:0:
256,192,118593,1,8,0:0:0:0:
256,192,119013,1,8,0:0:0:0:
256,192,119432,1,8,0:0:0:0:
256,192,119642,1,0,0:0:0:0:
256,192,119852,1,8,0:0:0:0:
256,192,120271,1,8,0:0:0:0:
256,192,120691,1,8,0:0:0:0:
256,192,121111,1,0,0:0:0:0:
256,192,121950,1,8,0:0:0:0:
256,192,122369,1,8,0:0:0:0:
256,192,122789,1,8,0:0:0:0:
256,192,122999,1,0,0:0:0:0:
256,192,123208,1,8,0:0:0:0:
256,192,123628,1,4,0:0:0:0:
256,192,124048,1,4,0:0:0:0:
256,192,124467,1,4,0:0:0:0:
256,192,125306,1,0,0:0:0:0:
256,192,125726,1,8,0:0:0:0:
256,192,126565,1,8,0:0:0:0:
256,192,126985,1,0,0:0:0:0:
256,192,127404,1,8,0:0:0:0:
256,192,127824,1,0,0:0:0:0:
256,192,128033,1,0,0:0:0:0:
256,192,128243,1,8,0:0:0:0:
256,192,128663,1,0,0:0:0:0:
256,192,129082,1,8,0:0:0:0:
256,192,129922,1,8,0:0:0:0:
256,192,130341,1,0,0:0:0:0:
256,192,130761,1,8,0:0:0:0:
256,192,131180,1,8,0:0:0:0:
256,192,131390,1,8,0:0:0:0:
256,192,131600,1,8,0:0:0:0:
256,192,132020,1,0,0:0:0:0:
256,192,132439,1,8,0:0:0:0:
256,192,133068,1,0,0:0:0:0:
256,192,133278,1,8,0:0:0:0:
256,192,133698,1,0,0:0:0:0:
256,192,134117,1,8,0:0:0:0:
256,192,134537,1,0,0:0:0:0:
256,192,134747,1,0,0:0:0:0:
256,192,134957,1,8,0:0:0:0:
256,192,135376,1,0,0:0:0:0:
256,192,135796,1,8,0:0:0:0:
256,192,136215,1,0,0:0:0:0:
256,192,136635,1,8,0:0:0:0:
256,192,137054,1,8,0:0:0:0:
256,192,137894,1,8,0:0:0:0:
256,192,138313,1,8,0:0:0:0:
256,192,138733,1,0,0:0:0:0:
256,192,139152,1,8,0:0:0:0:
256,192,139992,1,8,0:0:0:0:
256,192,140411,1,0,0:0:0:0:
256,192,140831,1,8,0:0:0:0:
256,192,141250,1,0,0:0:0:0:
256,192,141460,1,0,0:0:0:0:
256,192,141670,1,8,0:0:0:0:
256,192,142090,1,0,0:0:0:0:
256,192,142509,1,8,0:0:0:0:
256,192,143348,1,8,0:0:0:0:
256,192,143768,1,0,0:0:0:0:
256,192,144187,1,8,0:0:0:0:
256,192,144607,1,8,0:0:0:0:
256,192,144817,1,8,0:0:0:0:
256,192,145027,1,8,0:0:0:0:
256,192,145446,1,0,0:0:0:0:
256,192,145866,1,8,0:0:0:0:
256,192,146285,1,0,0:0:0:0:
256,192,146495,1,0,0:0:0:0:
256,192,146705,1,8,0:0:0:0:
256,192,147124,1,0,0:0:0:0:
256,192,147544,1,8,0:0:0:0:
256,192,147964,1,0,0:0:0:0:
256,192,148173,1,0,0:0:0:0:
256,192,148383,1,8,0:0:0:0:
256,192,148803,1,0,0:0:0:0:
256,192,149222,1,8,0:0:0:0:
256,192,149642,1,0,0:0:0:0:
256,192,150062,1,8,0:0:0:0:
256,192,150481,1,4,0:0:0:0:
256,192,150901,1,4,0:0:0:0:
256,192,151320,1,4,0:0:0:0:
256,192,152159,1,0,0:0:0:0:
256,192,152579,1,8,0:0:0:0:
256,192,152789,1,8,0:0:0:0:
256,192,152999,1,8,0:0:0:0:
256,192,153418,1,8,0:0:0:0:
256,192,153838,1,0,0:0:0:0:
256,192,154257,1,8,0:0:0:0:
256,192,154677,1,8,0:0:0:0:
256,192,155516,1,0,0:0:0:0:
256,192,155936,1,8,0:0:0:0:
256,192,156145,1,8,0:0:0:0:
256,192,156355,1,8,0:0:0:0:
256,192,156775,1,8,0:0:0:0:
256,192,157194,1,0,0:0:0:0:
256,192,157614,1,8,0:0:0:0:
256,192,158034,1,0,0:0:0:0:
256,192,158873,1,0,0:0:0:0:
256,192,159292,1,8,0:0:0:0:
256,192,159502,1,8,0:0:0:0:
256,192,159712,1,8,0:0:0:0:
256,192,160131,1,8,0:0:0:0:
256,192,160551,1,4,0:0:0:0:
256,192,160971,1,4,0:0:0:0:
256,192,161390,1,4,0:0:0:0:
256,192,162229,1,0,0:0:0:0:
256,192,162649,1,8,0:0:0:0:
256,192,163278,1,8,0:0:0:0:
256,192,163908,1,8,0:0:0:0:
256,192,164537,1,8,0:0:0:0:
256,192,165166,1,8,0:0:0:0:
256,192,165586,1,0,0:0:0:0:
256,192,166006,1,8,0:0:0:0:
256,192,166635,1,8,0:0:0:0:
256,192,167264,1,12,0:0:0:0:
256,192,167684,1,12,0:0:0:0:
256,192,168943,1,4,0:0:0:0:
256,192,169572,1,0,0:0:0:0:
256,192,169782,1,0,0:0:0:0:
256,192,170201,1,8,0:0:0:0:
256,192,170621,1,0,0:0:0:0:
256,192,171041,1,0,0:0:0:0:
256,192,171460,1,8,0:0:0:0:
256,192,171880,1,8,0:0:0:0:
256,192,172090,1,8,0:0:0:0:
256,192,172299,1,0,0:0:0:0:
256,192,172929,1,0,0:0:0:0:
256,192,173138,1,0,0:0:0:0:
256,192,173558,1,8,0:0:0:0:
256,192,173978,1,0,0:0:0:0:
256,192,174397,1,0,0:0:0:0:
256,192,174607,1,0,0:0:0:0:
256,192,174817,1,8,0:0:0:0:
256,192,175656,1,0,0:0:0:0:
256,192,176285,1,0,0:0:0:0:
256,192,176495,1,0,0:0:0:0:
256,192,176915,1,8,0:0:0:0:
256,192,177334,1,0,0:0:0:0:
256,192,177754,1,0,0:0:0:0:
256,192,178173,1,8,0:0:0:0:
256,192,178593,1,8,0:0:0:0:
256,192,178803,1,8,0:0:0:0:
256,192,179013,1,0,0:0:0:0:
256,192,179642,1,0,0:0:0:0:
256,192,179852,1,0,0:0:0:0:
256,192,180271,1,8,0:0:0:0:
256,192,180691,1,0,0:0:0:0:
256,192,181111,1,8,0:0:0:0:
256,192,181320,1,8,0:0:0:0:
256,192,181530,1,0,0:0:0:0:
256,192,182369,1,4,0:0:0:0:
256,192,182999,1,0,0:0:0:0:
256,192,183208,1,8,0:0:0:0:
256,192,183628,1,8,0:0:0:0:
256,192,184048,1,0,0:0:0:0:
256,192,184467,1,0,0:0:0:0:
256,192,184887,1,8,0:0:0:0:
256,192,185306,1,8,0:0:0:0:
256,192,185516,1,8,0:0:0:0:
256,192,185726,1,0,0:0:0:0:
256,192,186355,1,0,0:0:0:0:
256,192,186565,1,8,0:0:0:0:
256,192,186985,1,8,0:0:0:0:
256,192,187404,1,0,0:0:0:0:
256,192,187824,1,0,0:0:0:0:
256,192,188034,1,0,0:0:0:0:
256,192,188243,1,8,0:0:0:0:
256,192,189083,1,0,0:0:0:0:
256,192,189712,1,0,0:0:0:0:
256,192,189922,1,8,0:0:0:0:
256,192,190341,1,8,0:0:0:0:
256,192,190761,1,0,0:0:0:0:
256,192,191180,1,0,0:0:0:0:
256,192,191600,1,8,0:0:0:0:
256,192,192020,1,8,0:0:0:0:
256,192,192229,1,8,0:0:0:0:
256,192,192439,2,0,L|96:192|224:192,1,280
256,192,193698,1,0,0:0:0:0:
256,192,194117,1,12,0:0:0:0:
256,192,194537,1,12,0:0:0:0:
256,192,195796,1,4,0:0:0:0:
256,192,197474,1,4,0:0:0:0:
256,192,199152,1,4,0:0:0:0:
256,192,200831,1,4,0:0:0:0:
256,192,201250,1,4,0:0:0:0:
256,192,201670,1,4,0:0:0:0:
256,192,202090,1,4,0:0:0:0:
256,192,202509,1,0,0:0:0:0:
256,192,202929,1,8,0:0:0:0:
256,192,203348,1,0,0:0:0:0:
256,192,203558,1,0,0:0:0:0:
256,192,203768,1,8,0:0:0:0:
256,192,204187,1,0,0:0:0:0:
256,192,204607,1,8,0:0:0:0:
256,192,204817,1,8,0:0:0:0:
256,192,205027,1,0,0:0:0:0:
256,192,205446,1,8,0:0:0:0:
256,192,205866,8,8,207544,0:0:0:0:
256,192,209222,5,0,0:0:0:0:
256,192,209642,1,8,0:0:0:0:
256,192,210062,1,0,0:0:0:0:
256,192,210271,1,0,0:0:0:0:
256,192,210481,1,8,0:0:0:0:
256,192,210901,1,8,0:0:0:0:
256,192,211320,1,8,0:0:0:0:
256,192,211530,1,8,0:0:0:0:
256,192,211740,1,8,0:0:0:0:
256,192,212579,1,8,0:0:0:0:
256,192,212999,1,0,0:0:0:0:
256,192,213418,1,8,0:0:0:0:
256,192,213628,1,8,0:0:0:0:
256,192,213838,1,0,0:0:0:0:
256,192,214257,1,0,0:0:0:0:
256,192,214677,1,0,0:0:0:0:
256,192,214887,1,0,0:0:0:0:
256,192,215097,1,0,0:0:0:0:
256,192,215936,1,0,0:0:0:0:
256,192,216355,1,8,0:0:0:0:
256,192,216775,1,0,0:0:0:0:
256,192,216985,1,0,0:0:0:0:
256,192,217194,1,8,0:0:0:0:
256,192,217614,1,0,0:0:0:0:
256,192,218034,1,0,0:0:0:0:
256,192,218243,1,0,0:0:0:0:
256,192,218453,1,8,0:0:0:0:
256,192,219292,1,8,0:0:0:0:
256,192,219712,1,0,0:0:0:0:
256,192,220131,1,8,0:0:0:0:
256,192,220341,1,8,0:0:0:0:
256,192,220551,1,0,0:0:0:0:
256,192,220971,1,8,0:0:0:0:
256,192,221390,1,8,0:0:0:0:
256,192,221600,1,8,0:0:0:0:
256,192,221810,1,0,0:0:0:0:
256,192,222649,1,0,0:0:0:0:
256,192,223069,1,0,0:0:0:0:
256,192,223278,1,8,0:0:0:0:
256,192,223488,1,0,0:0:0:0:
256,192,223908,1,0,0:0:0:0:
256,192,224327,1,0,0:0:0:0:
256,192,224537,1,8,0:0:0:0:
256,192,224747,1,0,0:0:0:0:
256,192,225166,1,0,0:0:0:0:
256,192,226006,1,8,0:0:0:0:
256,192,226425,1,8,0:0:0:0:
256,192,226635,1,0,0:0:0:0:
256,192,226845,1,8,0:0:0:0:
256,192,227264,1,8,0:0:0:0:
256,192,227684,1,8,0:0:0:0:
256,192,227894,1,0,0:0:0:0:
256,192,228104,1,8,0:0:0:0:
256,192,228523,1,8,0:0:0:0:
256,192,229362,1,0,0:0:0:0:
256,192,229572,1,0,0:0:0:0:
256,192,229782,1,8,0:0:0:0:
256,192,230201,1,8,0:0:0:0:
256,192,230621,1,0,0:0:0:0:
256,192,230831,1,0,0:0:0:0:
256,192,231041,1,8,0:0:0:0:
256,192,231460,1,8,0:0:0:0:
256,192,231880,1,8,0:0:0:0:
256,192,232090,1,8,0:0:0:0:
256,192,232299,1,0,0:0:0:0:
256,192,232719,8,0,236076,0:0:0:0:
256,192,239432,5,8,0:0:0:0:
256,192,246145,5,8,0:0:0:0:
256,192,246775,1,8,0:0:0:0:
256,192,246985,1,8,0:0:0:0:
256,192,247824,1,8,0:0:0:0:
256,192,248243,1,8,0:0:0:0:
256,192,248663,1,8,0:0:0:0:
256,192,249502,1,8,0:0:0:0:
256,192,250131,1,8,0:0:0:0:
256,192,250341,1,8,0:0:0:0:
256,192,251180,2,0,L|96:192|224:192,1,280
256,192,252859,1,4,0:0:0:0:
256,192,253488,1,0,0:0:0:0:
256,192,253698,1,8,0:0:0:0:
256,192,254117,1,8,0:0:0:0:
256,192,254537,1,0,0:0:0:0:
256,192,254747,1,0,0:0:0:0:
256,192,254957,1,0,0:0:0:0:
256,192,255376,1,8,0:0:0:0:
256,192,255796,1,8,0:0:0:0:
256,192,256006,1,8,0:0:0:0:
256,192,256215,1,0,0:0:0:0:
256,192,256845,1,0,0:0:0:0:
256,192,257055,1,8,0:0:0:0:
256,192,257474,1,8,0:0:0:0:
256,192,257894,1,0,0:0:0:0:
256,192,258313,1,0,0:0:0:0:
256,192,258523,1,0,0:0:0:0:
256,192,258733,1,8,0:0:0:0:
256,192,259572,1,0,0:0:0:0:
256,192,260201,1,0,0:0:0:0:
256,192,260411,1,8,0:0:0:0:
256,192,260831,1,8,0:0:0:0:
256,192,261250,1,0,0:0:0:0:
256,192,261460,1,0,0:0:0:0:
256,192,261670,1,0,0:0:0:0:
256,192,262090,1,8,0:0:0:0:
256,192,262509,1,8,0:0:0:0:
256,192,262719,1,8,0:0:0:0:
256,192,262929,2,0,L|96:192|224:192,1,280
256,192,264187,1,0,0:0:0:0:
256,192,264607,1,12,0:0:0:0:
256,192,266285,1,8,0:0:0:0:
256,192,266705,1,8,0:0:0:0:
256,192,266915,1,8,0:0:0:0:
256,192,267124,1,8,0:0:0:0:
256,192,267544,1,8,0:0:0:0:
256,192,267964,1,8,0:0:0:0:
256,192,268173,1,8,0:0:0:0:
256,192,268383,1,8,0:0:0:0:
256,192,268803,1,0,0:0:0:0:
256,192,269642,1,8,0:0:0:0:
256,192,270062,1,8,0:0:0:0:
256,192,270271,1,8,0:0:0:0:
256,192,270481,1,8,0:0:0:0:
256,192,270901,1,8,0:0:0:0:
256,192,271320,1,0,0:0:0:0:
256,192,271530,1,0,0:0:0:0:
256,192,271740,1,0,0:0:0:0:
256,192,272159,1,8,0:0:0:0:
256,192,272999,1,8,0:0:0:0:
256,192,273418,1,8,0:0:0:0:
256,192,273628,1,8,0:0:0:0:
256,192,273838,1,8,0:0:0:0:
256,192,274257,1,8,0:0:0:0:
256,192,274677,1,8,0:0:0:0:
256,192,274887,1,8,0:0:0:0:
256,192,275097,1,8,0:0:0:0:
256,192,275516,1,0,0:0:0:0:
256,192,276355,1,8,0:0:0:0:
256,192,276775,1,8,0:0:0:0:
256,192,276985,1,8,0:0:0:0:
256,192,277194,1,8,0:0:0:0:
256,192,277614,1,8,0:0:0:0:
256,192,278034,1,0,0:0:0:0:
256,192,278453,1,0,0:0:0:0:
256,192,278873,1,0,0:0:0:0:
256,192,279712,1,8,0:0:0:0:
256,192,280131,1,8,0:0:0:0:
256,192,280551,1,8,0:0:0:0:
256,192,280761,1,0,0:0:0:0:
256,192,280971,1,8,0:0:0:0:
256,192,281390,1,0,0:0:0:0:
256,192,281810,1,0,0:0:0:0:
256,192,282229,1,0,0:0:0:0:
256,192,283069,1,8,0:0:0:0:
256,192,283488,1,8,0:0:0:0:
256,192,283908,1,8,0:0:0:0:
256,192,284117,1,0,0:0:0:0:
256,192,284327,1,8,0:0:0:0:
256,192,284747,1,0,0:0:0:0:
256,192,285166,1,8,0:0:0:0:
256,192,285586,1,8,0:0:0:0:
256,192,286425,1,8,0:0:0:0:
256,192,286845,1,8,0:0:0:0:
256,192,287264,1,8,0:0:0:0:
256,192,287474,1,0,0:0:0:0:
256,192,287684,1,8,0:0:0:0:
256,192,288104,1,8,0:0:0:0:
256,192,288523,1,8,0:0:0:0:
256,192,288943,1,0,0:0:0:0:
256,192,289362,1,8,0:0:0:0:
256,192,289782,8,8,291460,0:0:0:0:
