osu file format v14

[General]
AudioFilename: audio.mp3
AudioLeadIn: 0
PreviewTime: 64116
Countdown: 0
SampleSet: Normal
StackLeniency: 0.7
Mode: 1
LetterboxInBreaks: 0
WidescreenStoryboard: 1

[Editor]
Bookmarks: 11950,60783,62116
DistanceSpacing: 1.1
BeatDivisor: 2
GridSize: 8
TimelineZoom: 2.1

[Metadata]
Title:Lonely Storm
TitleUnicode:Lonely Storm
Artist:TSUNKU feat. Clinton Edward Strother
ArtistUnicode:つんく feat. Clinton Edward Strother
Creator:Ognjen3800
Version:liku's Kantan
Source:Rhythm Heaven Fever
Tags:Video Game rock English Beat the Beat: Rhythm Paradise Minna no Rhythm Tengoku Karate Man Karate Joe dub Yusuke Itagaki liku Terada Mitsuo 寺田光男 みんなのリズム天国
BeatmapID:3981368
BeatmapSetID:1870449

[Difficulty]
HPDrainRate:8
CircleSize:2
OverallDifficulty:3
ApproachRate:10
SliderMultiplier:1.3
SliderTickRate:1

[Events]
//Background and Video events
0,0,"thumb-1920-658951.jpg",0,40
//Break Periods
//Storyboard Layer 0 (Background)
//Storyboard Layer 1 (Fail)
//Storyboard Layer 2 (Pass)
//Storyboard Layer 3 (Foreground)
//Storyboard Layer 4 (Overlay)
//Storyboard Sound Samples

[TimingPoints]
117,333.333333333333,4,1,0,80,1,0
64116,-100,4,1,0,80,0,1
73450,-100,4,1,0,80,0,0
74783,-100,4,1,0,80,0,1
85450,-100,4,1,0,80,0,0

[HitObjects]
139,143,117,5,0,0:0:0:0:
139,143,783,1,8,0:0:0:0:
139,143,1283,1,8,0:0:0:0:
139,143,1783,1,0,0:0:0:0:
139,143,2116,1,8,0:0:0:0:
139,143,2783,1,0,0:0:0:0:
139,143,3450,1,8,0:0:0:0:
139,143,3950,1,0,0:0:0:0:
115,38,4450,1,0,0:0:0:0:
164,124,4783,1,8,0:0:0:0:
115,38,5450,1,0,0:0:0:0:
114,51,6616,1,8,0:0:0:0:
130,102,7116,1,0,0:0:0:0:
130,102,7450,1,8,0:0:0:0:
130,102,8116,1,0,0:0:0:0:
130,102,8783,1,8,0:0:0:0:
197,151,9116,1,0,0:0:0:0:
197,151,9450,1,12,0:0:0:0:
197,151,9950,1,12,0:0:0:0:
181,98,10783,1,0,0:0:0:0:
166,101,11116,1,0,0:0:0:0:
166,101,11450,1,8,0:0:0:0:
155,95,11950,1,8,0:0:0:0:
172,185,12450,1,0,0:0:0:0:
162,146,12783,1,8,0:0:0:0:
128,157,13116,1,8,0:0:0:0:
191,190,13450,1,0,0:0:0:0:
90,146,15116,1,8,0:0:0:0:
90,146,15450,1,8,0:0:0:0:
90,146,15783,1,8,0:0:0:0:
90,146,16116,1,0,0:0:0:0:
139,173,16783,1,8,0:0:0:0:
139,173,17283,1,0,0:0:0:0:
170,98,17783,1,0,0:0:0:0:
170,98,18116,1,8,0:0:0:0:
170,98,18616,1,8,0:0:0:0:
175,98,20783,1,8,0:0:0:0:
166,101,21116,1,8,0:0:0:0:
198,128,21450,1,4,0:0:0:0:
198,128,22116,1,8,0:0:0:0:
198,128,22616,1,0,0:0:0:0:
198,128,23450,1,0,0:0:0:0:
198,128,23783,1,0,0:0:0:0:
198,128,24116,1,8,0:0:0:0:
88,160,24783,1,8,0:0:0:0:
88,160,25283,1,0,0:0:0:0:
168,158,26116,1,0,0:0:0:0:
168,158,26450,1,8,0:0:0:0:
168,158,26783,1,0,0:0:0:0:
160,161,27450,1,0,0:0:0:0:
160,161,28116,1,0,0:0:0:0:
153,163,28783,1,8,0:0:0:0:
153,163,29116,1,8,0:0:0:0:
153,163,29450,1,4,0:0:0:0:
213,157,31116,1,0,0:0:0:0:
213,157,31616,1,12,0:0:0:0:
143,168,32116,1,0,0:0:0:0:
143,168,32616,1,0,0:0:0:0:
106,101,32950,1,12,0:0:0:0:
277,146,33450,1,8,0:0:0:0:
277,146,33950,1,0,0:0:0:0:
277,146,34283,1,12,0:0:0:0:
261,117,34783,1,0,0:0:0:0:
122,99,35116,1,8,0:0:0:0:
122,99,35783,1,8,0:0:0:0:
122,99,36116,1,0,0:0:0:0:
108,103,37450,1,8,0:0:0:0:
105,93,37950,1,0,0:0:0:0:
105,93,38283,1,12,0:0:0:0:
105,93,38783,1,0,0:0:0:0:
105,93,39283,1,0,0:0:0:0:
105,93,39616,1,12,0:0:0:0:
141,164,40116,1,0,0:0:0:0:
350,149,40450,1,8,0:0:0:0:
350,149,41116,1,8,0:0:0:0:
350,149,41450,1,0,0:0:0:0:
210,157,42783,1,4,0:0:0:0:
74,253,43450,1,0,0:0:0:0:
74,253,43950,1,8,0:0:0:0:
74,253,44783,1,8,0:0:0:0:
74,253,45116,1,0,0:0:0:0:
74,253,45450,1,8,0:0:0:0:
94,225,46116,1,0,0:0:0:0:
94,225,46616,1,0,0:0:0:0:
238,84,47116,1,8,0:0:0:0:
238,84,47450,1,8,0:0:0:0:
238,84,47783,1,8,0:0:0:0:
86,217,48116,1,0,0:0:0:0:
110,74,48783,1,0,0:0:0:0:
86,217,49450,1,0,0:0:0:0:
179,117,49783,1,0,0:0:0:0:
86,217,50116,1,8,0:0:0:0:
66,211,50783,1,0,0:0:0:0:
180,147,51450,1,8,0:0:0:0:
180,147,51950,1,8,0:0:0:0:
148,139,53450,1,4,0:0:0:0:
148,139,54116,1,0,0:0:0:0:
148,139,54616,1,8,0:0:0:0:
148,139,55450,1,8,0:0:0:0:
148,139,55783,1,8,0:0:0:0:
148,139,56116,1,0,0:0:0:0:
148,139,56783,1,0,0:0:0:0:
176,153,57283,1,0,0:0:0:0:
175,153,57783,1,8,0:0:0:0:
176,153,58283,1,8,0:0:0:0:
73,102,58783,1,0,0:0:0:0:
73,102,59783,1,8,0:0:0:0:
132,113,60116,1,8,0:0:0:0:
141,157,60783,1,0,0:0:0:0:
110,167,61116,1,8,0:0:0:0:
141,157,61450,1,4,0:0:0:0:
164,185,64116,1,0,0:0:0:0:
164,185,64616,1,8,0:0:0:0:
164,185,65116,1,0,0:0:0:0:
164,185,65616,1,8,0:0:0:0:
164,185,66116,1,0,0:0:0:0:
164,185,66783,1,8,0:0:0:0:
164,185,67283,1,0,0:0:0:0:
164,185,67783,1,8,0:0:0:0:
164,185,68283,1,0,0:0:0:0:
164,185,68783,1,8,0:0:0:0:
188,58,69450,1,0,0:0:0:0:
188,58,69950,1,0,0:0:0:0:
188,58,70450,1,8,0:0:0:0:
188,58,70950,1,8,0:0:0:0:
188,58,71450,1,0,0:0:0:0:
188,58,72116,1,8,0:0:0:0:
188,58,72450,1,8,0:0:0:0:
188,58,72783,1,0,0:0:0:0:
188,58,73283,1,8,0:0:0:0:
180,61,74783,1,0,0:0:0:0:
180,61,75283,1,8,0:0:0:0:
180,61,75783,1,0,0:0:0:0:
180,61,76283,1,0,0:0:0:0:
180,61,76783,1,8,0:0:0:0:
180,61,77450,1,8,0:0:0:0:
180,61,77950,1,0,0:0:0:0:
180,61,78450,1,8,0:0:0:0:
117,149,80116,1,0,0:0:0:0:
117,149,80616,1,8,0:0:0:0:
117,149,81283,1,8,0:0:0:0:
117,134,82116,1,0,0:0:0:0:
117,134,82783,1,0,0:0:0:0:
163,87,83116,1,8,0:0:0:0:
163,87,83450,1,8,0:0:0:0:
163,87,83783,1,8,0:0:0:0:
152,89,84450,1,8,0:0:0:0:
152,89,84783,1,8,0:0:0:0:
152,89,85116,1,8,0:0:0:0:
152,89,85450,1,4,0:0:0:0:
192,120,86616,1,8,0:0:0:0:
161,114,87116,1,8,0:0:0:0:
197,147,87616,1,8,0:0:0:0:
197,147,88116,1,0,0:0:0:0:
197,147,88783,1,0,0:0:0:0:
197,147,89116,1,8,0:0:0:0:
197,147,89783,1,8,0:0:0:0:
197,147,90116,1,8,0:0:0:0:
154,151,90783,1,0,0:0:0:0:
194,148,91950,1,8,0:0:0:0:
240,125,92450,1,0,0:0:0:0:
232,126,92950,1,8,0:0:0:0:
181,151,93450,1,0,0:0:0:0:
195,111,94116,1,0,0:0:0:0:
195,111,94616,1,8,0:0:0:0:
228,75,95116,1,8,0:0:0:0:
228,75,95450,1,8,0:0:0:0:
180,151,96116,1,0,0:0:0:0:
159,121,97116,1,8,0:0:0:0:
180,151,97450,1,0,0:0:0:0:
88,157,97783,1,0,0:0:0:0:
88,157,98116,1,8,0:0:0:0:
180,151,98783,1,0,0:0:0:0:
180,172,99450,1,8,0:0:0:0:
204,109,99783,1,0,0:0:0:0:
180,172,100116,1,8,0:0:0:0:
180,172,100616,1,8,0:0:0:0:
144,160,101116,1,8,0:0:0:0:
264,133,101450,1,0,0:0:0:0:
254,140,102116,1,8,0:0:0:0:
186,153,102616,1,8,0:0:0:0:
240,85,104116,1,0,0:0:0:0:
243,100,104450,1,8,0:0:0:0:
243,100,104783,1,8,0:0:0:0:
243,100,105116,1,8,0:0:0:0:
234,111,105783,1,8,0:0:0:0:
234,111,106116,1,8,0:0:0:0:
210,198,106450,1,8,0:0:0:0:
139,143,106783,1,4,0:0:0:0:
139,143,107449,1,8,0:0:0:0:
139,143,107949,1,8,0:0:0:0:
139,143,108449,1,0,0:0:0:0:
139,143,108782,1,8,0:0:0:0:
139,143,109449,1,0,0:0:0:0:
139,143,110116,1,8,0:0:0:0:
139,143,110616,1,0,0:0:0:0:
115,38,111116,1,0,0:0:0:0:
164,124,111449,1,8,0:0:0:0:
190,187,111783,1,8,0:0:0:0:
115,38,112116,1,0,0:0:0:0:
114,51,113282,1,8,0:0:0:0:
130,102,113782,1,0,0:0:0:0:
130,102,114116,1,8,0:0:0:0:
130,102,114782,1,0,0:0:0:0:
130,102,115449,1,8,0:0:0:0:
197,151,115950,1,8,0:0:0:0:
199,93,116450,1,0,0:0:0:0:
199,93,116783,1,8,0:0:0:0:
139,143,117450,1,0,0:0:0:0:
139,143,118616,1,8,0:0:0:0:
139,143,119116,1,0,0:0:0:0:
139,143,119449,1,8,0:0:0:0:
139,143,120116,1,0,0:0:0:0:
139,143,120783,1,8,0:0:0:0:
139,143,121283,1,0,0:0:0:0:
115,38,121783,1,0,0:0:0:0:
164,124,122116,1,8,0:0:0:0:
115,38,122783,1,0,0:0:0:0:
114,51,123949,1,8,0:0:0:0:
130,102,124449,1,0,0:0:0:0:
130,102,124783,1,8,0:0:0:0:
130,102,125449,1,0,0:0:0:0:
130,102,126116,1,8,0:0:0:0:
187,118,126783,1,0,0:0:0:0:
211,121,127116,1,12,0:0:0:0:
211,121,127616,1,4,0:0:0:0:
