osu file format v14

[General]
AudioFilename: audio.mp3
AudioLeadIn: 0
PreviewTime: 64116
Countdown: 0
SampleSet: Normal
StackLeniency: 0.7
Mode: 1
LetterboxInBreaks: 0
WidescreenStoryboard: 1

[Editor]
Bookmarks: 11950
DistanceSpacing: 1
BeatDivisor: 4
GridSize: 8
TimelineZoom: 2.1

[Metadata]
Title:Lonely Storm
TitleUnicode:Lonely Storm
Artist:TSUNKU feat. Clinton Edward Strother
ArtistUnicode:つんく feat. Clinton Edward Strother
Creator:Ognjen3800
Version:Oni
Source:Rhythm Heaven Fever
Tags:Video Game rock English Beat the Beat: Rhythm Paradise Minna no Rhythm Tengoku Karate Man Karate Joe dub Yusuke Itagaki liku Terada Mitsuo 寺田光男 みんなのリズム天国
BeatmapID:3848387
BeatmapSetID:1870449

[Difficulty]
HPDrainRate:5
CircleSize:2
OverallDifficulty:6
ApproachRate:10
SliderMultiplier:1.4
SliderTickRate:1

[Events]
//Background and Video events
0,0,"thumb-1920-658951.jpg",0,40
//Break Periods
//Storyboard Layer 0 (Background)
//Storyboard Layer 1 (Fail)
//Storyboard Layer 2 (Pass)
//Storyboard Layer 3 (Foreground)
//Storyboard Layer 4 (Overlay)
//Storyboard Sound Samples

[TimingPoints]
117,333.333333333333,4,1,0,80,1,0
9284,-90.9090909090909,4,1,0,80,0,0
10117,-100,4,1,0,80,0,0
15034,-90.9090909090909,4,1,0,80,0,0
15117,-90.9090909090909,4,1,0,80,0,0
15950,-100,4,1,0,80,0,0
31115,-100,4,1,0,80,0,0
31198,-98.3864620228257,4,1,0,80,0,0
31282,-96.7866821525358,4,1,0,80,0,0
31365,-95.2562392836731,4,1,0,80,0,0
31449,-93.7558597412338,4,1,0,80,0,0
31615,-90.9256228405165,4,1,0,80,0,0
31784,-100.00600276127,4,1,0,80,0,0
32116,-100,4,1,0,80,0,0
32199,-99.5042704413785,4,1,0,80,0,0
32282,-99.0134315939617,4,1,0,80,0,0
32449,-98.0403695639381,4,1,0,80,0,0
32615,-97.0919051226761,4,1,0,80,0,0
32699,-96.6189178217248,4,1,0,80,0,0
32782,-96.1560660279349,4,1,0,80,0,0
32949,-95.2380952380952,4,1,0,80,0,0
33117,-100,4,1,0,80,0,0
33450,-100,4,1,0,80,0,0
33533,-99.4989262705798,4,1,0,80,0,0
33616,-99.0087255891257,4,1,0,80,0,0
33783,-98.0369107793582,4,1,0,80,0,0
33949,-97.0896391152503,4,1,0,80,0,0
34033,-96.6172381835032,4,1,0,80,0,0
34116,-96.1549547472185,4,1,0,80,0,0
34283,-95.2380952380952,4,1,0,80,0,0
34450,-100.002308455874,4,1,0,80,0,0
34783,-100,4,1,0,80,0,0
34866,-99.8087689791028,4,1,0,80,0,0
34949,-99.6182679483052,4,1,0,80,0,0
35116,-99.2371658305271,4,1,0,80,0,0
35282,-98.8612245829435,4,1,0,80,0,0
35365,-98.6743200765341,4,1,0,80,0,0
35449,-98.4858818715046,4,1,0,80,0,0
35532,-98.300392566203,4,1,0,80,0,0
35615,-98.1156006522921,4,1,0,80,0,0
35782,-97.7458877682258,4,1,0,80,0,0
35949,-97.3789506811132,4,1,0,80,0,0
36032,-97.1976037155871,4,1,0,80,0,0
36116,-97.0147582469263,4,1,0,80,0,0
36282,-96.6554363104933,4,1,0,80,0,0
36449,-96.2966256168586,4,1,0,80,0,0
36615,-95.9425939050319,4,1,0,80,0,0
36698,-95.7665524483254,4,1,0,80,0,0
36782,-95.5890465367727,4,1,0,80,0,0
36949,-95.2380952380952,4,1,0,80,0,0
37117,-100,4,1,0,80,0,0
37450,-100,4,1,0,80,0,0
37532,-99.5048618982283,4,1,0,80,0,0
37616,-99.0087255891257,4,1,0,80,0,0
37783,-98.0369107793582,4,1,0,80,0,0
37949,-97.0896391152503,4,1,0,80,0,0
38033,-96.6172381835032,4,1,0,80,0,0
38116,-96.1549547472185,4,1,0,80,0,0
38283,-95.2380952380952,4,1,0,80,0,0
38450,-100,4,1,0,80,0,0
38784,-100,4,1,0,80,0,0
38865,-99.5102138334727,4,1,0,80,0,0
38950,-99.0075473940691,4,1,0,80,0,0
39115,-98.0461393596987,4,1,0,80,0,0
39283,-97.0862470862471,4,1,0,80,0,0
39365,-96.6245215172254,4,1,0,80,0,0
39450,-96.1505165348877,4,1,0,80,0,0
39615,-95.2435399039561,4,1,0,80,0,0
39784,-100.002307390572,4,1,0,80,0,0
40116,-100,4,1,0,80,0,0
40199,-99.8088570573199,4,1,0,80,0,0
40282,-99.6184434330897,4,1,0,80,0,0
40449,-99.2375151695556,4,1,0,80,0,0
40615,-98.8617441091266,4,1,0,80,0,0
40698,-98.6749237284277,4,1,0,80,0,0
40782,-98.48657001318,4,1,0,80,0,0
40865,-98.3011635555354,4,1,0,80,0,0
40948,-98.1164538621751,4,1,0,80,0,0
41115,-97.7469045309998,4,1,0,80,0,0
41282,-97.380128521997,4,1,0,80,0,0
41365,-97.1988607055552,4,1,0,80,0,0
41449,-97.0160947328364,4,1,0,80,0,0
41615,-96.6569281206093,4,1,0,80,0,0
41782,-96.2982713415989,4,1,0,80,0,0
41948,-95.9443903302931,4,1,0,80,0,0
42031,-95.7684233786322,4,1,0,80,0,0
42115,-95.5909923024328,4,1,0,80,0,0
42282,-95.2401881070628,4,1,0,80,0,0
42450,-100,4,1,0,80,0,0
46784,-90.9090909090909,4,1,0,80,0,0
47117,-90.9090909090909,4,1,0,80,0,0
47950,-100,4,1,0,80,0,0
52448,-100,4,1,0,80,0,0
52531,-98.3864620228257,4,1,0,80,0,0
52615,-96.7866821525358,4,1,0,80,0,0
52698,-95.2562392836731,4,1,0,80,0,0
52782,-93.7558597412338,4,1,0,80,0,0
52948,-90.9256228405165,4,1,0,80,0,0
53117,-100,4,1,0,80,0,0
57782,-100,4,1,0,80,0,0
57865,-98.3864620228257,4,1,0,80,0,0
57949,-96.7866821525358,4,1,0,80,0,0
58032,-95.2562392836731,4,1,0,80,0,0
58115,-93.7734433608402,4,1,0,80,0,0
58282,-90.9256228405165,4,1,0,80,0,0
58450,-100,4,1,0,80,0,0
63115,-100,4,1,0,80,0,0
63198,-98.3864620228257,4,1,0,80,0,0
63282,-96.7866821525358,4,1,0,80,0,0
63365,-95.2562392836731,4,1,0,80,0,0
63449,-93.7558597412338,4,1,0,80,0,0
63615,-90.9256228405165,4,1,0,80,0,0
64116,-95.2380952380952,4,1,0,80,0,1
73450,-86.9565217391304,4,1,0,80,0,0
74783,-95.2380952380952,4,1,0,80,0,1
79115,-95.2562392836731,4,1,0,80,0,1
79199,-93.7558597412338,4,1,0,80,0,1
79282,-92.3190546528804,4,1,0,80,0,1
79365,-90.9256228405165,4,1,0,80,0,1
79449,-89.5575855274942,4,1,0,80,0,1
79615,-86.9716472429988,4,1,0,80,0,1
79784,-95.2380952380952,4,1,0,80,0,1
82784,-95.2380952380952,4,1,0,80,0,1
85450,-95.2380952380952,4,1,0,80,0,0
104116,-95.2443741209564,4,1,0,80,0,0
104199,-94.7198181659236,4,1,0,80,0,0
104282,-94.2071513965873,4,1,0,80,0,0
104365,-93.7000043239504,4,1,0,80,0,0
104449,-93.1922762654281,4,1,0,80,0,0
104615,-92.2049187303208,4,1,0,80,0,0
104698,-91.719044293484,4,1,0,80,0,0
104782,-91.2325018419114,4,1,0,80,0,0
104865,-90.7567952422834,4,1,0,80,0,0
104949,-90.2803816189643,4,1,0,80,0,0
105115,-89.3534553851229,4,1,0,80,0,0
105199,-88.8916235950447,4,1,0,80,0,0
105282,-88.4399551066218,4,1,0,80,0,0
105449,-87.5449440471862,4,1,0,80,0,0
105533,-87.1015716065758,4,1,0,80,0,0
105616,-86.6678664986902,4,1,0,80,0,0
105699,-86.238459089462,4,1,0,80,0,0
105782,-85.8132858132858,4,1,0,80,0,0
105949,-84.9703956397287,4,1,0,80,0,0
106032,-84.5576041361818,4,1,0,80,0,0
106115,-84.1488039763902,4,1,0,80,0,0
106282,-83.3381405634074,4,1,0,80,0,0
106450,-100,4,1,0,80,0,0
116949,-100,4,1,0,80,0,0
117032,-97.5752264095822,4,1,0,80,0,0
117115,-96.1538461538461,4,1,0,80,0,0
117199,-94.3396226415094,4,1,0,80,0,0
117282,-92.5925925925926,4,1,0,80,0,0
117450,-90.9338415464198,4,1,0,80,0,0
127115,-90.9338910611985,4,1,0,80,0,0
127199,-89.577657469012,4,1,0,80,0,0
127282,-88.2612844700033,4,1,0,80,0,0
127365,-86.9830402207838,4,1,0,80,0,0
127449,-85.7265470598452,4,1,0,80,0,0
127615,-83.3472662180028,4,1,0,80,0,0

[HitObjects]
255,191,117,5,8,0:0:0:0:
255,191,200,1,8,0:0:0:0:
255,191,283,1,0,0:0:0:0:
255,191,450,1,0,0:0:0:0:
255,191,616,1,0,0:0:0:0:
255,191,783,1,8,0:0:0:0:
255,191,1116,1,0,0:0:0:0:
255,191,1200,1,0,0:0:0:0:
255,191,1283,1,8,0:0:0:0:
255,191,1616,1,0,0:0:0:0:
255,191,1783,1,8,0:0:0:0:
255,191,1866,1,8,0:0:0:0:
255,191,1950,1,0,0:0:0:0:
255,191,2116,1,8,0:0:0:0:
255,191,2450,1,8,0:0:0:0:
255,191,2783,1,8,0:0:0:0:
255,191,2866,1,0,0:0:0:0:
255,191,2950,1,0,0:0:0:0:
255,191,3116,1,0,0:0:0:0:
255,191,3283,1,0,0:0:0:0:
255,191,3450,1,8,0:0:0:0:
255,191,3783,1,8,0:0:0:0:
255,191,3866,1,0,0:0:0:0:
255,191,3950,1,8,0:0:0:0:
255,191,4283,1,0,0:0:0:0:
255,191,4450,1,8,0:0:0:0:
255,191,4533,1,8,0:0:0:0:
255,191,4616,1,0,0:0:0:0:
255,191,4783,1,8,0:0:0:0:
255,191,4866,1,0,0:0:0:0:
255,191,4950,1,0,0:0:0:0:
255,191,5033,1,0,0:0:0:0:
255,191,5116,1,8,0:0:0:0:
255,191,5283,1,0,0:0:0:0:
255,191,5450,5,8,0:0:0:0:
255,191,5533,1,8,0:0:0:0:
255,191,5616,1,0,0:0:0:0:
255,191,5783,1,0,0:0:0:0:
255,191,5949,1,0,0:0:0:0:
255,191,6116,1,8,0:0:0:0:
255,191,6450,1,0,0:0:0:0:
255,191,6534,1,0,0:0:0:0:
255,191,6617,1,8,0:0:0:0:
255,191,6950,1,0,0:0:0:0:
255,191,7117,1,8,0:0:0:0:
255,191,7200,1,8,0:0:0:0:
255,191,7284,1,0,0:0:0:0:
255,191,7450,1,8,0:0:0:0:
255,191,7784,1,8,0:0:0:0:
255,191,8117,1,8,0:0:0:0:
255,191,8200,1,0,0:0:0:0:
255,191,8284,1,0,0:0:0:0:
255,191,8450,1,0,0:0:0:0:
255,191,8617,1,0,0:0:0:0:
255,191,8784,1,8,0:0:0:0:
255,191,9116,1,8,0:0:0:0:
255,191,9450,1,12,0:0:0:0:
255,191,9617,1,4,0:0:0:0:
255,191,9784,1,4,0:0:0:0:
255,191,9950,1,12,0:0:0:0:
255,191,10783,1,8,0:0:0:0:
255,191,10866,1,8,0:0:0:0:
255,191,10950,1,0,0:0:0:0:
255,191,11116,1,8,0:0:0:0:
255,191,11283,1,0,0:0:0:0:
255,191,11450,1,8,0:0:0:0:
255,191,11616,1,0,0:0:0:0:
255,191,11700,1,0,0:0:0:0:
255,191,11783,1,0,0:0:0:0:
255,191,11950,1,8,0:0:0:0:
255,191,12283,1,0,0:0:0:0:
255,191,12366,1,0,0:0:0:0:
255,191,12450,1,8,0:0:0:0:
255,191,12616,1,0,0:0:0:0:
255,191,12783,1,0,0:0:0:0:
255,191,12950,1,8,0:0:0:0:
255,191,13034,1,0,0:0:0:0:
255,191,13116,1,8,0:0:0:0:
255,191,13283,1,0,0:0:0:0:
255,191,13616,1,0,0:0:0:0:
255,191,13783,1,8,0:0:0:0:
255,191,13867,1,8,0:0:0:0:
255,191,13950,1,0,0:0:0:0:
255,191,14116,1,8,0:0:0:0:
255,191,14283,1,0,0:0:0:0:
255,191,14366,1,0,0:0:0:0:
255,191,14450,1,0,0:0:0:0:
255,191,14616,1,8,0:0:0:0:
255,191,14950,1,0,0:0:0:0:
255,191,15116,1,12,0:0:0:0:
255,191,15450,1,12,0:0:0:0:
255,191,15783,1,12,0:0:0:0:
255,191,16116,1,8,0:0:0:0:
255,191,16199,1,0,0:0:0:0:
255,191,16283,1,0,0:0:0:0:
255,191,16449,1,8,0:0:0:0:
255,191,16616,1,0,0:0:0:0:
255,191,16783,1,8,0:0:0:0:
255,191,16949,1,0,0:0:0:0:
255,191,17033,1,0,0:0:0:0:
255,191,17116,1,8,0:0:0:0:
255,191,17283,1,0,0:0:0:0:
255,191,17616,1,8,0:0:0:0:
255,191,17699,1,0,0:0:0:0:
255,191,17783,1,8,0:0:0:0:
255,191,17949,1,0,0:0:0:0:
255,191,18116,1,0,0:0:0:0:
255,191,18283,1,8,0:0:0:0:
255,191,18367,1,8,0:0:0:0:
255,191,18449,1,8,0:0:0:0:
255,191,18616,1,8,0:0:0:0:
255,191,18950,1,0,0:0:0:0:
255,191,19116,1,8,0:0:0:0:
255,191,19200,1,8,0:0:0:0:
255,191,19283,1,0,0:0:0:0:
255,191,19449,1,8,0:0:0:0:
255,191,19616,1,8,0:0:0:0:
255,191,19699,1,0,0:0:0:0:
255,191,19783,1,0,0:0:0:0:
255,191,19949,1,8,0:0:0:0:
255,191,20283,1,0,0:0:0:0:
255,191,20366,1,0,0:0:0:0:
255,191,20450,1,8,0:0:0:0:
255,191,20616,1,0,0:0:0:0:
255,191,20783,1,8,0:0:0:0:
255,191,20866,1,0,0:0:0:0:
255,191,20950,1,8,0:0:0:0:
255,191,21033,1,0,0:0:0:0:
255,191,21116,1,0,0:0:0:0:
255,191,21283,1,0,0:0:0:0:
255,191,21450,1,12,0:0:0:0:
255,191,21783,1,8,0:0:0:0:
255,191,21866,1,0,0:0:0:0:
255,191,21950,1,0,0:0:0:0:
255,191,22116,1,8,0:0:0:0:
255,191,22283,1,0,0:0:0:0:
255,191,22366,1,0,0:0:0:0:
255,191,22450,1,0,0:0:0:0:
255,191,22616,1,8,0:0:0:0:
255,191,22950,1,0,0:0:0:0:
255,191,23033,1,0,0:0:0:0:
255,191,23116,1,8,0:0:0:0:
255,191,23283,1,0,0:0:0:0:
255,191,23450,1,8,0:0:0:0:
255,191,23533,1,8,0:0:0:0:
255,191,23616,1,0,0:0:0:0:
255,191,23783,1,8,0:0:0:0:
255,191,23950,1,0,0:0:0:0:
255,191,24033,1,0,0:0:0:0:
255,191,24116,1,0,0:0:0:0:
255,191,24450,1,8,0:0:0:0:
255,191,24533,1,8,0:0:0:0:
255,191,24616,1,0,0:0:0:0:
255,191,24783,1,8,0:0:0:0:
255,191,24950,1,0,0:0:0:0:
255,191,25033,1,0,0:0:0:0:
255,191,25116,1,8,0:0:0:0:
255,191,25283,1,0,0:0:0:0:
255,191,25616,1,0,0:0:0:0:
255,191,25700,1,0,0:0:0:0:
255,191,25782,1,8,0:0:0:0:
255,191,25950,1,0,0:0:0:0:
255,191,26116,1,8,0:0:0:0:
255,191,26200,1,0,0:0:0:0:
255,191,26283,1,8,0:0:0:0:
255,191,26366,1,8,0:0:0:0:
255,191,26450,1,0,0:0:0:0:
255,191,26616,1,8,0:0:0:0:
255,191,26700,1,8,0:0:0:0:
255,191,26783,1,0,0:0:0:0:
255,191,27116,1,0,0:0:0:0:
255,191,27199,1,0,0:0:0:0:
255,191,27283,1,0,0:0:0:0:
255,191,27449,1,8,0:0:0:0:
255,191,27616,1,8,0:0:0:0:
255,191,27783,1,0,0:0:0:0:
255,191,27949,1,8,0:0:0:0:
255,191,28033,1,8,0:0:0:0:
255,191,28116,1,0,0:0:0:0:
255,191,28283,1,8,0:0:0:0:
255,191,28450,1,0,0:0:0:0:
255,191,28616,1,8,0:0:0:0:
255,191,28699,1,0,0:0:0:0:
255,191,28783,1,8,0:0:0:0:
255,191,29116,1,8,0:0:0:0:
255,191,29200,1,0,0:0:0:0:
255,191,29283,1,0,0:0:0:0:
255,191,29449,1,8,0:0:0:0:
255,191,29616,1,0,0:0:0:0:
255,191,29783,1,8,0:0:0:0:
255,191,29867,1,0,0:0:0:0:
255,191,29949,1,8,0:0:0:0:
255,191,30116,1,0,0:0:0:0:
255,191,30283,1,8,0:0:0:0:
255,191,30366,1,8,0:0:0:0:
255,191,30450,1,0,0:0:0:0:
255,191,30617,1,8,0:0:0:0:
255,191,30950,1,0,0:0:0:0:
255,191,31116,1,8,0:0:0:0:
255,191,31199,1,0,0:0:0:0:
255,191,31283,1,8,0:0:0:0:
255,191,31366,1,8,0:0:0:0:
255,191,31450,1,0,0:0:0:0:
255,191,31616,1,12,0:0:0:0:
255,191,32116,1,8,0:0:0:0:
255,191,32200,1,8,0:0:0:0:
255,191,32283,1,0,0:0:0:0:
255,191,32450,1,8,0:0:0:0:
255,191,32616,1,0,0:0:0:0:
255,191,32699,1,0,0:0:0:0:
255,191,32783,1,0,0:0:0:0:
255,191,32950,1,12,0:0:0:0:
255,191,33450,1,8,0:0:0:0:
255,191,33534,1,0,0:0:0:0:
255,191,33617,1,0,0:0:0:0:
255,191,33784,1,8,0:0:0:0:
255,191,33950,1,0,0:0:0:0:
255,191,34034,1,0,0:0:0:0:
255,191,34117,1,0,0:0:0:0:
255,191,34284,1,12,0:0:0:0:
255,191,34783,1,8,0:0:0:0:
255,191,34867,1,0,0:0:0:0:
255,191,34950,1,0,0:0:0:0:
255,191,35117,1,8,0:0:0:0:
255,191,35283,1,0,0:0:0:0:
255,191,35366,1,0,0:0:0:0:
255,191,35450,1,8,0:0:0:0:
255,191,35533,1,8,0:0:0:0:
255,191,35616,1,0,0:0:0:0:
255,191,35783,1,8,0:0:0:0:
255,191,35950,1,0,0:0:0:0:
255,191,36033,1,0,0:0:0:0:
255,191,36117,1,8,0:0:0:0:
255,191,36283,1,0,0:0:0:0:
255,191,36450,1,8,0:0:0:0:
255,191,36616,1,0,0:0:0:0:
255,191,36699,1,0,0:0:0:0:
255,191,36783,1,0,0:0:0:0:
255,191,36950,1,12,0:0:0:0:
255,191,37450,1,8,0:0:0:0:
255,191,37533,1,8,0:0:0:0:
255,191,37617,1,0,0:0:0:0:
255,191,37784,1,8,0:0:0:0:
255,191,37950,1,0,0:0:0:0:
255,191,38034,1,0,0:0:0:0:
255,191,38117,1,0,0:0:0:0:
255,191,38284,1,12,0:0:0:0:
255,191,38784,1,0,0:0:0:0:
255,191,38866,1,0,0:0:0:0:
255,191,38951,1,0,0:0:0:0:
255,191,39116,1,8,0:0:0:0:
255,191,39284,1,0,0:0:0:0:
255,191,39366,1,0,0:0:0:0:
255,191,39451,1,0,0:0:0:0:
255,191,39616,1,12,0:0:0:0:
255,191,40116,1,8,0:0:0:0:
255,191,40200,1,8,0:0:0:0:
255,191,40283,1,0,0:0:0:0:
255,191,40450,1,8,0:0:0:0:
255,191,40616,1,0,0:0:0:0:
255,191,40699,1,0,0:0:0:0:
255,191,40783,1,8,0:0:0:0:
255,191,40866,1,8,0:0:0:0:
255,191,40949,1,0,0:0:0:0:
255,191,41116,1,8,0:0:0:0:
255,191,41283,1,0,0:0:0:0:
255,191,41366,1,0,0:0:0:0:
255,191,41450,1,8,0:0:0:0:
255,191,41616,1,0,0:0:0:0:
255,191,41783,1,8,0:0:0:0:
255,191,41949,1,8,0:0:0:0:
255,191,42032,1,0,0:0:0:0:
255,191,42116,1,0,0:0:0:0:
255,191,42283,1,12,0:0:0:0:
255,191,42783,1,8,0:0:0:0:
255,191,42866,1,8,0:0:0:0:
255,191,42950,1,8,0:0:0:0:
255,191,43116,1,0,0:0:0:0:
255,191,43283,1,0,0:0:0:0:
255,191,43450,1,8,0:0:0:0:
255,191,43616,1,8,0:0:0:0:
255,191,43700,1,8,0:0:0:0:
255,191,43783,1,0,0:0:0:0:
255,191,43950,1,8,0:0:0:0:
255,191,44283,1,8,0:0:0:0:
255,191,44366,1,0,0:0:0:0:
255,191,44450,1,8,0:0:0:0:
255,191,44616,1,0,0:0:0:0:
255,191,44783,1,8,0:0:0:0:
255,191,44950,1,0,0:0:0:0:
255,191,45034,1,0,0:0:0:0:
255,191,45116,1,8,0:0:0:0:
255,191,45283,1,8,0:0:0:0:
255,191,45450,1,0,0:0:0:0:
255,191,45783,1,8,0:0:0:0:
255,191,45867,1,0,0:0:0:0:
255,191,45950,1,0,0:0:0:0:
255,191,46116,1,8,0:0:0:0:
255,191,46283,1,0,0:0:0:0:
255,191,46366,1,0,0:0:0:0:
255,191,46450,1,8,0:0:0:0:
255,191,46616,1,0,0:0:0:0:
255,191,47116,1,12,0:0:0:0:
255,191,47450,1,12,0:0:0:0:
255,191,47783,1,12,0:0:0:0:
255,191,48116,1,8,0:0:0:0:
255,191,48199,1,8,0:0:0:0:
255,191,48283,1,0,0:0:0:0:
255,191,48449,1,0,0:0:0:0:
255,191,48616,1,8,0:0:0:0:
255,191,48783,1,0,0:0:0:0:
255,191,48949,1,8,0:0:0:0:
255,191,49033,1,0,0:0:0:0:
255,191,49116,1,0,0:0:0:0:
255,191,49283,1,8,0:0:0:0:
255,191,49450,1,0,0:0:0:0:
255,191,49616,1,0,0:0:0:0:
255,191,49699,1,0,0:0:0:0:
255,191,49783,1,8,0:0:0:0:
255,191,50116,1,0,0:0:0:0:
255,191,50283,1,8,0:0:0:0:
255,191,50366,1,0,0:0:0:0:
255,191,50450,1,8,0:0:0:0:
255,191,50616,1,0,0:0:0:0:
255,191,50783,1,8,0:0:0:0:
255,191,50866,1,8,0:0:0:0:
255,191,50950,1,0,0:0:0:0:
255,191,51033,1,0,0:0:0:0:
255,191,51116,1,8,0:0:0:0:
255,191,51283,1,0,0:0:0:0:
255,191,51450,1,8,0:0:0:0:
255,191,51533,1,0,0:0:0:0:
255,191,51616,1,0,0:0:0:0:
255,191,51783,1,0,0:0:0:0:
255,191,51950,1,8,0:0:0:0:
255,191,52283,1,0,0:0:0:0:
255,191,52449,1,8,0:0:0:0:
255,191,52532,1,0,0:0:0:0:
255,191,52616,1,8,0:0:0:0:
255,191,52699,1,8,0:0:0:0:
255,191,52783,1,0,0:0:0:0:
255,191,52949,1,12,0:0:0:0:
255,191,53450,1,8,0:0:0:0:
255,191,53533,1,8,0:0:0:0:
255,191,53617,1,0,0:0:0:0:
255,191,53783,1,8,0:0:0:0:
255,191,53950,1,0,0:0:0:0:
255,191,54117,1,8,0:0:0:0:
255,191,54283,1,8,0:0:0:0:
255,191,54367,1,8,0:0:0:0:
255,191,54450,1,8,0:0:0:0:
255,191,54616,1,0,0:0:0:0:
255,191,54950,1,0,0:0:0:0:
255,191,55033,1,0,0:0:0:0:
255,191,55117,1,8,0:0:0:0:
255,191,55283,1,0,0:0:0:0:
255,191,55450,1,8,0:0:0:0:
255,191,55617,1,0,0:0:0:0:
255,191,55701,1,0,0:0:0:0:
255,191,55783,1,8,0:0:0:0:
255,191,55950,1,8,0:0:0:0:
255,191,56117,1,0,0:0:0:0:
255,191,56450,1,8,0:0:0:0:
255,191,56534,1,8,0:0:0:0:
255,191,56617,1,0,0:0:0:0:
255,191,56783,1,8,0:0:0:0:
255,191,56950,1,0,0:0:0:0:
255,191,57033,1,0,0:0:0:0:
255,191,57117,1,8,0:0:0:0:
255,191,57283,1,0,0:0:0:0:
255,191,57616,1,0,0:0:0:0:
255,191,57783,1,8,0:0:0:0:
255,191,57866,1,0,0:0:0:0:
255,191,57950,1,8,0:0:0:0:
255,191,58033,1,8,0:0:0:0:
255,191,58116,1,0,0:0:0:0:
255,191,58283,1,12,0:0:0:0:
255,191,58783,1,0,0:0:0:0:
255,191,58866,1,0,0:0:0:0:
255,191,58950,1,8,0:0:0:0:
255,191,59116,1,0,0:0:0:0:
255,191,59283,1,0,0:0:0:0:
255,191,59450,1,8,0:0:0:0:
255,191,59616,1,0,0:0:0:0:
255,191,59700,1,0,0:0:0:0:
255,191,59783,1,8,0:0:0:0:
255,191,59950,1,8,0:0:0:0:
255,191,60283,1,8,0:0:0:0:
255,191,60367,1,0,0:0:0:0:
255,191,60450,1,0,0:0:0:0:
255,191,60616,1,0,0:0:0:0:
255,191,60783,1,8,0:0:0:0:
255,191,60950,1,0,0:0:0:0:
255,191,61034,1,0,0:0:0:0:
255,191,61116,1,8,0:0:0:0:
255,191,61283,1,0,0:0:0:0:
255,191,61616,1,0,0:0:0:0:
255,191,61783,1,8,0:0:0:0:
255,191,61866,1,8,0:0:0:0:
255,191,61950,1,8,0:0:0:0:
255,191,62116,1,0,0:0:0:0:
255,191,62283,1,8,0:0:0:0:
255,191,62366,1,8,0:0:0:0:
255,191,62449,1,0,0:0:0:0:
255,191,62533,1,0,0:0:0:0:
255,191,62616,1,8,0:0:0:0:
255,191,62950,1,0,0:0:0:0:
255,191,63116,1,8,0:0:0:0:
255,191,63199,1,0,0:0:0:0:
255,191,63283,1,8,0:0:0:0:
255,191,63366,1,8,0:0:0:0:
255,191,63450,1,0,0:0:0:0:
255,191,63616,1,12,0:0:0:0:
255,191,64116,1,8,0:0:0:0:
255,191,64200,1,0,0:0:0:0:
255,191,64283,1,8,0:0:0:0:
255,191,64366,1,8,0:0:0:0:
255,191,64450,1,0,0:0:0:0:
255,191,64616,1,8,0:0:0:0:
255,191,64783,1,0,0:0:0:0:
255,191,64867,1,0,0:0:0:0:
255,191,64950,1,8,0:0:0:0:
255,191,65116,1,0,0:0:0:0:
255,191,65283,1,8,0:0:0:0:
255,191,65450,1,0,0:0:0:0:
255,191,65616,1,8,0:0:0:0:
255,191,65699,1,0,0:0:0:0:
255,191,65783,1,8,0:0:0:0:
255,191,65950,1,0,0:0:0:0:
255,191,66116,1,8,0:0:0:0:
255,191,66200,1,8,0:0:0:0:
255,191,66283,1,0,0:0:0:0:
255,191,66366,1,0,0:0:0:0:
255,191,66450,1,8,0:0:0:0:
255,191,66616,1,0,0:0:0:0:
255,191,66783,1,8,0:0:0:0:
255,191,66950,1,8,0:0:0:0:
255,191,67033,1,0,0:0:0:0:
255,191,67116,1,0,0:0:0:0:
255,191,67283,1,8,0:0:0:0:
255,191,67450,1,0,0:0:0:0:
255,191,67533,1,0,0:0:0:0:
255,191,67616,1,8,0:0:0:0:
255,191,67783,1,8,0:0:0:0:
255,191,67950,1,0,0:0:0:0:
255,191,68033,1,0,0:0:0:0:
255,191,68116,1,8,0:0:0:0:
255,191,68200,1,8,0:0:0:0:
255,191,68283,1,0,0:0:0:0:
255,191,68450,1,8,0:0:0:0:
255,191,68616,1,0,0:0:0:0:
255,191,68783,1,8,0:0:0:0:
255,191,68950,1,0,0:0:0:0:
255,191,69116,1,8,0:0:0:0:
255,191,69450,1,8,0:0:0:0:
255,191,69534,1,0,0:0:0:0:
255,191,69617,1,8,0:0:0:0:
255,191,69700,1,8,0:0:0:0:
255,191,69784,1,0,0:0:0:0:
255,191,69950,1,8,0:0:0:0:
255,191,70117,1,0,0:0:0:0:
255,191,70200,1,0,0:0:0:0:
255,191,70284,1,8,0:0:0:0:
255,191,70450,1,0,0:0:0:0:
255,191,70616,1,8,0:0:0:0:
255,191,70784,1,0,0:0:0:0:
255,191,70950,1,8,0:0:0:0:
255,191,71033,1,0,0:0:0:0:
255,191,71117,1,8,0:0:0:0:
255,191,71284,1,0,0:0:0:0:
255,191,71450,1,8,0:0:0:0:
255,191,71534,1,0,0:0:0:0:
255,191,71617,1,8,0:0:0:0:
255,191,71700,1,8,0:0:0:0:
255,191,71784,1,0,0:0:0:0:
255,191,72116,1,8,0:0:0:0:
255,191,72283,1,0,0:0:0:0:
255,191,72366,1,0,0:0:0:0:
255,191,72450,1,8,0:0:0:0:
255,191,72616,1,0,0:0:0:0:
255,191,72783,1,8,0:0:0:0:
255,191,72866,1,0,0:0:0:0:
255,191,72950,1,0,0:0:0:0:
255,191,73033,1,0,0:0:0:0:
255,191,73116,1,8,0:0:0:0:
255,191,73283,1,0,0:0:0:0:
255,191,73450,1,12,0:0:0:0:
255,191,73783,1,12,0:0:0:0:
255,191,74116,1,4,0:0:0:0:
255,191,74450,1,4,0:0:0:0:
255,191,74783,1,8,0:0:0:0:
255,191,74867,1,0,0:0:0:0:
255,191,74950,1,8,0:0:0:0:
255,191,75033,1,8,0:0:0:0:
255,191,75117,1,0,0:0:0:0:
255,191,75283,1,8,0:0:0:0:
255,191,75450,1,0,0:0:0:0:
255,191,75534,1,8,0:0:0:0:
255,191,75617,1,8,0:0:0:0:
255,191,75783,1,0,0:0:0:0:
255,191,75950,1,8,0:0:0:0:
255,191,76116,1,8,0:0:0:0:
255,191,76283,1,0,0:0:0:0:
255,191,76366,1,0,0:0:0:0:
255,191,76450,1,8,0:0:0:0:
255,191,76617,1,0,0:0:0:0:
255,191,76783,1,8,0:0:0:0:
255,191,76867,1,0,0:0:0:0:
255,191,76950,1,0,0:0:0:0:
255,191,77033,1,0,0:0:0:0:
255,191,77117,1,8,0:0:0:0:
255,191,77283,1,0,0:0:0:0:
255,191,77450,1,8,0:0:0:0:
255,191,77617,1,0,0:0:0:0:
255,191,77700,1,0,0:0:0:0:
255,191,77783,1,0,0:0:0:0:
255,191,77950,1,8,0:0:0:0:
255,191,78116,1,0,0:0:0:0:
255,191,78200,1,0,0:0:0:0:
255,191,78283,1,0,0:0:0:0:
255,191,78366,1,0,0:0:0:0:
255,191,78450,1,8,0:0:0:0:
255,191,78616,1,0,0:0:0:0:
255,191,79116,1,8,0:0:0:0:
255,191,79200,1,0,0:0:0:0:
255,191,79283,1,8,0:0:0:0:
255,191,79366,1,8,0:0:0:0:
255,191,79450,1,0,0:0:0:0:
255,191,79616,1,12,0:0:0:0:
255,191,80116,1,8,0:0:0:0:
255,191,80200,1,0,0:0:0:0:
255,191,80283,1,0,0:0:0:0:
255,191,80366,1,0,0:0:0:0:
255,191,80450,1,8,0:0:0:0:
255,191,80616,1,0,0:0:0:0:
255,191,80783,1,8,0:0:0:0:
255,191,80866,1,0,0:0:0:0:
255,191,80950,1,8,0:0:0:0:
255,191,81116,1,0,0:0:0:0:
255,191,81283,1,8,0:0:0:0:
255,191,81616,1,8,0:0:0:0:
255,191,81699,1,8,0:0:0:0:
255,191,81783,1,0,0:0:0:0:
255,191,81950,1,0,0:0:0:0:
255,191,82116,1,8,0:0:0:0:
255,191,82283,1,0,0:0:0:0:
255,191,82366,1,0,0:0:0:0:
255,191,82450,1,8,0:0:0:0:
255,191,82616,1,0,0:0:0:0:
255,191,83116,1,12,0:0:0:0:
255,191,83450,1,12,0:0:0:0:
255,191,83783,1,12,0:0:0:0:
255,191,84116,1,0,0:0:0:0:
255,191,84283,1,0,0:0:0:0:
255,191,84450,1,12,0:0:0:0:
255,191,84783,1,12,0:0:0:0:
255,191,85116,1,12,0:0:0:0:
255,191,85450,1,0,0:0:0:0:
255,191,85616,1,8,0:0:0:0:
255,191,85700,1,0,0:0:0:0:
255,191,85783,1,0,0:0:0:0:
255,191,85950,1,8,0:0:0:0:
255,191,86116,1,0,0:0:0:0:
255,191,86366,1,0,0:0:0:0:
255,191,86616,1,0,0:0:0:0:
255,191,86700,1,0,0:0:0:0:
255,191,86783,1,8,0:0:0:0:
255,191,86950,1,0,0:0:0:0:
255,191,87116,1,8,0:0:0:0:
255,191,87200,1,8,0:0:0:0:
255,191,87283,1,0,0:0:0:0:
255,191,87616,1,0,0:0:0:0:
255,191,87783,1,8,0:0:0:0:
255,191,87867,1,8,0:0:0:0:
255,191,87950,1,8,0:0:0:0:
255,191,88116,1,8,0:0:0:0:
255,191,88283,1,0,0:0:0:0:
255,191,88367,1,0,0:0:0:0:
255,191,88450,1,8,0:0:0:0:
255,191,88616,1,0,0:0:0:0:
255,191,88783,1,8,0:0:0:0:
255,191,88867,1,0,0:0:0:0:
255,191,88950,1,0,0:0:0:0:
255,191,89116,1,8,0:0:0:0:
255,191,89283,1,8,0:0:0:0:
255,191,89617,1,8,0:0:0:0:
255,191,89700,1,0,0:0:0:0:
255,191,89783,1,0,0:0:0:0:
255,191,89866,1,0,0:0:0:0:
255,191,89950,1,8,0:0:0:0:
255,191,90283,1,8,0:0:0:0:
255,191,90450,1,0,0:0:0:0:
255,191,90616,1,8,0:0:0:0:
255,191,90700,1,8,0:0:0:0:
255,191,90783,1,0,0:0:0:0:
255,191,90950,1,0,0:0:0:0:
255,191,91033,1,0,0:0:0:0:
255,191,91116,1,8,0:0:0:0:
255,191,91283,1,0,0:0:0:0:
255,191,91450,1,8,0:0:0:0:
255,191,91616,1,8,0:0:0:0:
255,191,91700,1,8,0:0:0:0:
255,191,91784,1,0,0:0:0:0:
255,191,91866,1,0,0:0:0:0:
255,191,91950,1,8,0:0:0:0:
255,191,92116,1,8,0:0:0:0:
255,191,92366,1,8,0:0:0:0:
255,191,92616,1,8,0:0:0:0:
255,191,92783,1,8,0:0:0:0:
255,191,92950,1,0,0:0:0:0:
255,191,93033,1,0,0:0:0:0:
255,191,93116,1,8,0:0:0:0:
255,191,93283,1,0,0:0:0:0:
255,191,93450,1,8,0:0:0:0:
255,191,93616,1,0,0:0:0:0:
255,191,93699,1,0,0:0:0:0:
255,191,93783,1,8,0:0:0:0:
255,191,93950,1,0,0:0:0:0:
255,191,94116,1,8,0:0:0:0:
255,191,94283,1,0,0:0:0:0:
255,191,94366,1,0,0:0:0:0:
255,191,94450,1,0,0:0:0:0:
255,191,94616,1,8,0:0:0:0:
255,191,94700,1,8,0:0:0:0:
255,191,94783,1,0,0:0:0:0:
255,191,94866,1,0,0:0:0:0:
255,191,94950,1,8,0:0:0:0:
255,191,95116,1,0,0:0:0:0:
255,191,95283,1,8,0:0:0:0:
255,191,95450,1,0,0:0:0:0:
255,191,95950,1,0,0:0:0:0:
255,191,96033,1,0,0:0:0:0:
255,191,96116,1,8,0:0:0:0:
255,191,96283,1,0,0:0:0:0:
255,191,96366,1,0,0:0:0:0:
255,191,96450,1,8,0:0:0:0:
255,191,96533,1,8,0:0:0:0:
255,191,96616,1,0,0:0:0:0:
255,191,96783,1,8,0:0:0:0:
255,191,96950,1,8,0:0:0:0:
255,191,97033,1,8,0:0:0:0:
255,191,97117,1,0,0:0:0:0:
255,191,97283,1,8,0:0:0:0:
255,191,97366,1,0,0:0:0:0:
255,191,97450,1,8,0:0:0:0:
255,191,97533,1,8,0:0:0:0:
255,191,97616,1,0,0:0:0:0:
255,191,97783,1,8,0:0:0:0:
255,191,97866,1,8,0:0:0:0:
255,191,97950,1,0,0:0:0:0:
255,191,98033,1,0,0:0:0:0:
255,191,98116,1,8,0:0:0:0:
255,191,98783,1,0,0:0:0:0:
255,191,98866,1,0,0:0:0:0:
255,191,98950,1,8,0:0:0:0:
255,191,99116,1,0,0:0:0:0:
255,191,99200,1,8,0:0:0:0:
255,191,99283,1,8,0:0:0:0:
255,191,99450,1,0,0:0:0:0:
255,191,99616,1,8,0:0:0:0:
255,191,99700,1,0,0:0:0:0:
255,191,99783,1,0,0:0:0:0:
255,191,99950,1,8,0:0:0:0:
255,191,100116,1,0,0:0:0:0:
255,191,100200,1,0,0:0:0:0:
255,191,100283,1,0,0:0:0:0:
255,191,100366,1,0,0:0:0:0:
255,191,100450,1,8,0:0:0:0:
255,191,100616,1,0,0:0:0:0:
255,191,100950,1,8,0:0:0:0:
255,191,101450,1,0,0:0:0:0:
255,191,101616,1,8,0:0:0:0:
255,191,101700,1,8,0:0:0:0:
255,191,101783,1,0,0:0:0:0:
255,191,101950,1,0,0:0:0:0:
255,191,102116,1,8,0:0:0:0:
255,191,102200,1,8,0:0:0:0:
255,191,102283,1,0,0:0:0:0:
255,191,102450,1,8,0:0:0:0:
255,191,102533,1,0,0:0:0:0:
255,191,102616,1,8,0:0:0:0:
255,191,102700,1,8,0:0:0:0:
255,191,102783,1,0,0:0:0:0:
255,191,102950,1,8,0:0:0:0:
255,191,103033,1,0,0:0:0:0:
255,191,103117,1,8,0:0:0:0:
255,191,103283,1,0,0:0:0:0:
255,191,103616,1,8,0:0:0:0:
255,191,103783,1,0,0:0:0:0:
255,191,103866,1,0,0:0:0:0:
255,191,103950,1,8,0:0:0:0:
255,191,104116,1,8,0:0:0:0:
255,191,104200,1,8,0:0:0:0:
255,191,104283,1,0,0:0:0:0:
255,191,104366,1,0,0:0:0:0:
255,191,104450,1,8,0:0:0:0:
255,191,104616,1,0,0:0:0:0:
255,191,104699,1,0,0:0:0:0:
255,191,104783,1,8,0:0:0:0:
255,191,104866,1,8,0:0:0:0:
255,191,104950,1,0,0:0:0:0:
255,191,105116,1,8,0:0:0:0:
255,191,105200,1,8,0:0:0:0:
255,191,105283,1,0,0:0:0:0:
255,191,105450,1,8,0:0:0:0:
255,191,105534,1,8,0:0:0:0:
255,191,105617,1,0,0:0:0:0:
255,191,105700,1,0,0:0:0:0:
255,191,105783,1,8,0:0:0:0:
255,191,105950,1,0,0:0:0:0:
255,191,106033,1,0,0:0:0:0:
255,191,106116,1,8,0:0:0:0:
255,191,106283,1,8,0:0:0:0:
255,191,106783,1,8,0:0:0:0:
255,191,106866,1,8,0:0:0:0:
255,191,106949,1,0,0:0:0:0:
255,191,107116,1,0,0:0:0:0:
255,191,107282,1,0,0:0:0:0:
255,191,107449,1,8,0:0:0:0:
255,191,107782,1,0,0:0:0:0:
255,191,107866,1,0,0:0:0:0:
255,191,107949,1,8,0:0:0:0:
255,191,108282,1,0,0:0:0:0:
255,191,108449,1,8,0:0:0:0:
255,191,108532,1,0,0:0:0:0:
255,191,108616,1,0,0:0:0:0:
255,191,108782,1,8,0:0:0:0:
255,191,109116,1,8,0:0:0:0:
255,191,109449,1,8,0:0:0:0:
255,191,109532,1,0,0:0:0:0:
255,191,109616,1,0,0:0:0:0:
255,191,109782,1,0,0:0:0:0:
255,191,109949,1,0,0:0:0:0:
255,191,110116,1,8,0:0:0:0:
255,191,110449,1,0,0:0:0:0:
255,191,110532,1,0,0:0:0:0:
255,191,110616,1,8,0:0:0:0:
255,191,110949,1,0,0:0:0:0:
255,191,111116,1,8,0:0:0:0:
255,191,111199,1,8,0:0:0:0:
255,191,111282,1,0,0:0:0:0:
255,191,111449,1,8,0:0:0:0:
255,191,111616,1,8,0:0:0:0:
255,191,111783,1,8,0:0:0:0:
255,191,111950,1,8,0:0:0:0:
255,191,112033,1,8,0:0:0:0:
255,191,112116,1,0,0:0:0:0:
255,191,112200,1,0,0:0:0:0:
255,191,112283,1,8,0:0:0:0:
255,191,112450,1,0,0:0:0:0:
255,191,112616,1,0,0:0:0:0:
255,191,112783,1,8,0:0:0:0:
255,191,113116,1,8,0:0:0:0:
255,191,113200,1,8,0:0:0:0:
255,191,113283,1,8,0:0:0:0:
255,191,113616,1,0,0:0:0:0:
255,191,113783,1,8,0:0:0:0:
255,191,113867,1,0,0:0:0:0:
255,191,113950,1,0,0:0:0:0:
255,191,114116,1,8,0:0:0:0:
255,191,114450,1,8,0:0:0:0:
255,191,114783,1,8,0:0:0:0:
255,191,114867,1,8,0:0:0:0:
255,191,114950,1,0,0:0:0:0:
255,191,115116,1,8,0:0:0:0:
255,191,115283,1,0,0:0:0:0:
255,191,115450,1,8,0:0:0:0:
255,191,115783,1,0,0:0:0:0:
255,191,115866,1,0,0:0:0:0:
255,191,115950,1,8,0:0:0:0:
255,191,116283,1,0,0:0:0:0:
255,191,116450,1,8,0:0:0:0:
255,191,116616,1,0,0:0:0:0:
255,191,116783,1,8,0:0:0:0:
255,191,116950,1,8,0:0:0:0:
255,191,117033,1,0,0:0:0:0:
255,191,117116,1,0,0:0:0:0:
255,191,117200,1,0,0:0:0:0:
255,191,117283,1,8,0:0:0:0:
255,191,117450,1,8,0:0:0:0:
255,191,117533,1,8,0:0:0:0:
255,191,117616,1,0,0:0:0:0:
255,191,117783,1,0,0:0:0:0:
255,191,117950,1,8,0:0:0:0:
255,191,118033,1,0,0:0:0:0:
255,191,118116,1,8,0:0:0:0:
255,191,118283,1,8,0:0:0:0:
255,191,118450,1,0,0:0:0:0:
255,191,118616,1,8,0:0:0:0:
255,191,118700,1,8,0:0:0:0:
255,191,118783,1,8,0:0:0:0:
255,191,118950,1,0,0:0:0:0:
255,191,119116,1,8,0:0:0:0:
255,191,119200,1,0,0:0:0:0:
255,191,119283,1,0,0:0:0:0:
255,191,119450,1,8,0:0:0:0:
255,191,119783,1,8,0:0:0:0:
255,191,120116,1,8,0:0:0:0:
255,191,120200,1,8,0:0:0:0:
255,191,120283,1,0,0:0:0:0:
255,191,120450,1,0,0:0:0:0:
255,191,120616,1,0,0:0:0:0:
255,191,120700,1,0,0:0:0:0:
255,191,120783,1,8,0:0:0:0:
255,191,120950,1,8,0:0:0:0:
255,191,121116,1,0,0:0:0:0:
255,191,121283,1,8,0:0:0:0:
255,191,121366,1,8,0:0:0:0:
255,191,121450,1,8,0:0:0:0:
255,191,121616,1,0,0:0:0:0:
255,191,121783,1,8,0:0:0:0:
255,191,121866,1,8,0:0:0:0:
255,191,121950,1,0,0:0:0:0:
255,191,122116,1,8,0:0:0:0:
255,191,122450,1,8,0:0:0:0:
255,191,122783,1,8,0:0:0:0:
255,191,122866,1,8,0:0:0:0:
255,191,122950,1,0,0:0:0:0:
255,191,123116,1,0,0:0:0:0:
255,191,123283,1,0,0:0:0:0:
255,191,123366,1,0,0:0:0:0:
255,191,123450,1,8,0:0:0:0:
255,191,123617,1,8,0:0:0:0:
255,191,123783,1,0,0:0:0:0:
255,191,123950,1,8,0:0:0:0:
255,191,124033,1,0,0:0:0:0:
255,191,124116,1,8,0:0:0:0:
255,191,124283,1,0,0:0:0:0:
255,191,124450,1,8,0:0:0:0:
255,191,124533,1,8,0:0:0:0:
255,191,124616,1,0,0:0:0:0:
255,191,124783,1,8,0:0:0:0:
255,191,125116,1,8,0:0:0:0:
255,191,125450,1,8,0:0:0:0:
255,191,125533,1,8,0:0:0:0:
255,191,125616,1,0,0:0:0:0:
255,191,125783,1,0,0:0:0:0:
255,191,125950,1,0,0:0:0:0:
255,191,126033,1,0,0:0:0:0:
255,191,126116,1,8,0:0:0:0:
255,191,126283,1,8,0:0:0:0:
255,191,126450,1,8,0:0:0:0:
255,191,126533,1,8,0:0:0:0:
255,191,126616,1,0,0:0:0:0:
255,191,126700,1,0,0:0:0:0:
255,191,126783,1,0,0:0:0:0:
255,191,127116,1,8,0:0:0:0:
255,191,127200,1,0,0:0:0:0:
255,191,127283,1,8,0:0:0:0:
255,191,127366,1,0,0:0:0:0:
255,191,127450,1,8,0:0:0:0:
255,191,127616,1,4,0:0:0:0:
