osu file format v14

[General]
AudioFilename: audio.mp3
AudioLeadIn: 0
PreviewTime: 64116
Countdown: 0
SampleSet: Normal
StackLeniency: 0.7
Mode: 1
LetterboxInBreaks: 0
WidescreenStoryboard: 0

[Editor]
Bookmarks: 11950
DistanceSpacing: 1
BeatDivisor: 4
GridSize: 8
TimelineZoom: 2.1

[Metadata]
Title:Lonely Storm
TitleUnicode:Lonely Storm
Artist:TSUNKU feat. Clinton Edward Strother
ArtistUnicode:つんく feat. Clinton Edward Strother
Creator:Ognjen3800
Version:No Return
Source:Rhythm Heaven Fever
Tags:Video Game rock English Beat the Beat: Rhythm Paradise Minna no Rhythm Tengoku Karate Man Karate Joe dub Yusuke Itagaki liku Terada Mitsuo 寺田光男 みんなのリズム天国
BeatmapID:3848386
BeatmapSetID:1870449

[Difficulty]
HPDrainRate:6
CircleSize:2
OverallDifficulty:6.5
ApproachRate:10
SliderMultiplier:1.4
SliderTickRate:1

[Events]
//Background and Video events
0,0,"thumb-1920-658951.jpg",0,40
//Break Periods
//Storyboard Layer 0 (Background)
//Storyboard Layer 1 (Fail)
//Storyboard Layer 2 (Pass)
//Storyboard Layer 3 (Foreground)
//Storyboard Layer 4 (Overlay)
//Storyboard Sound Samples

[TimingPoints]
117,333.333333333333,4,1,0,80,1,0
5200,-100,4,1,0,80,0,0
9450,-83.3333333333333,4,1,0,80,0,0
10450,-100,4,1,0,80,0,0
15034,-83.3333333333333,4,1,0,80,0,0
15950,-100,4,1,0,80,0,0
20448,-100,4,1,0,80,0,0
21617,-100,4,1,0,80,0,0
23115,-100,4,1,0,80,0,0
24284,-100,4,1,0,80,0,0
25782,-100,4,1,0,80,0,0
26950,-100,4,1,0,80,0,0
31115,-100,4,1,0,80,0,0
31199,-97.5704946824081,4,1,0,80,0,0
31282,-95.2562392836731,4,1,0,80,0,0
31365,-93.0492230389876,4,1,0,80,0,0
31449,-90.917356123284,4,1,0,80,0,0
31615,-86.9792119683396,4,1,0,80,0,0
31950,-100.024015369837,4,1,0,80,0,0
32116,-100,4,1,0,80,0,0
32199,-98.0461393596987,4,1,0,80,0,0
32282,-96.1671669360425,4,1,0,80,0,0
32449,-92.5967096487328,4,1,0,80,0,0
32615,-89.3010291595197,4,1,0,80,0,0
32699,-87.7211457455771,4,1,0,80,0,0
32783,-86.1961920529801,4,1,0,80,0,0
32865,-84.7578347578348,4,1,0,80,0,0
32949,-83.3333333333333,4,1,0,80,0,0
33449,-100,4,1,0,80,0,0
33532,-98.0484363978368,4,1,0,80,0,0
33616,-96.1494120359696,4,1,0,80,0,0
33782,-92.6049300466356,4,1,0,80,0,0
33949,-89.2933618843683,4,1,0,80,0,0
34033,-87.7156079091292,4,1,0,80,0,0
34115,-86.2282878411911,4,1,0,80,0,0
34199,-84.7560975609756,4,1,0,80,0,0
34283,-83.3333333333333,4,1,0,80,0,0
34450,-100.009234463016,4,1,0,80,0,0
34783,-100,4,1,0,80,0,0
34865,-99.2485337243402,4,1,0,80,0,0
34949,-98.4903601309567,4,1,0,80,0,0
35115,-97.0256226482709,4,1,0,80,0,0
35282,-95.595374702092,4,1,0,80,0,0
35365,-94.9001051524711,4,1,0,80,0,0
35449,-94.2066805845512,4,1,0,80,0,0
35532,-93.5313930391225,4,1,0,80,0,0
35615,-92.8657177156577,4,1,0,80,0,0
35699,-92.2016005448663,4,1,0,80,0,0
35782,-91.5546538168907,4,1,0,80,0,0
35949,-90.2800933644548,4,1,0,80,0,0
36032,-89.6597400447057,4,1,0,80,0,0
36116,-89.0405327632985,4,1,0,80,0,0
36199,-88.43704066634,4,1,0,80,0,0
36282,-87.8416741017114,4,1,0,80,0,0
36365,-87.2542700612311,4,1,0,80,0,0
36449,-86.6677336747759,4,1,0,80,0,0
36615,-85.5315116095404,4,1,0,80,0,0
36699,-84.9678330456614,4,1,0,80,0,0
36782,-84.4181152077325,4,1,0,80,0,0
36949,-83.3333333333333,4,1,0,80,0,0
37117,-100,4,1,0,80,0,0
37449,-100,4,1,0,80,0,0
37533,-98.0253878702398,4,1,0,80,0,0
37615,-96.1715867158672,4,1,0,80,0,0
37782,-92.6049300466356,4,1,0,80,0,0
37949,-89.2933618843683,4,1,0,80,0,0
38032,-87.7340626972438,4,1,0,80,0,0
38116,-86.2104610295638,4,1,0,80,0,0
38199,-84.7560975609756,4,1,0,80,0,0
38282,-83.3499900059964,4,1,0,80,0,0
38782,-100,4,1,0,80,0,0
38783,-100,4,1,0,80,0,0
38864,-98.0941935067532,4,1,0,80,0,0
38948,-96.1930419981362,4,1,0,80,0,0
39115,-92.6241385843918,4,1,0,80,0,0
39282,-89.3105844729099,4,1,0,80,0,0
39365,-87.7503835523968,4,1,0,80,0,0
39449,-86.2259214373168,4,1,0,80,0,0
39532,-84.770755656489,4,1,0,80,0,0
39615,-83.3638900853614,4,1,0,80,0,0
39784,-100.009230201218,4,1,0,80,0,0
40116,-100,4,1,0,80,0,0
40198,-99.2488778968581,4,1,0,80,0,0
40282,-98.491046268521,4,1,0,80,0,0
40448,-97.0269544192711,4,1,0,80,0,0
40615,-95.597317804835,4,1,0,80,0,0
40698,-94.9023386178506,4,1,0,80,0,0
40782,-94.2091992000696,4,1,0,80,0,0
40865,-93.5341850828729,4,1,0,80,0,0
40948,-92.8687751778521,4,1,0,80,0,0
41032,-92.2049187303208,4,1,0,80,0,0
41115,-91.5582220719959,4,1,0,80,0,0
41282,-90.2841429880843,4,1,0,80,0,0
41365,-89.6640185369083,4,1,0,80,0,0
41449,-89.0450361604208,4,1,0,80,0,0
41532,-88.4417598563383,4,1,0,80,0,0
41615,-87.8466028863305,4,1,0,80,0,0
41699,-87.2523755838299,4,1,0,80,0,0
41782,-86.6730661547076,4,1,0,80,0,0
41948,-85.5372227046657,4,1,0,80,0,0
42032,-84.9737275507803,4,1,0,80,0,0
42115,-84.4241857565841,4,1,0,80,0,0
42282,-83.3397430966849,4,1,0,80,0,0
42450,-100,4,1,0,80,0,0
47034,-83.3333333333333,4,1,0,80,0,0
47950,-100,4,1,0,80,0,0
52449,-100,4,1,0,80,0,0
52533,-97.5419430355053,4,1,0,80,0,0
52616,-95.229025807066,4,1,0,80,0,0
52699,-93.0232558139535,4,1,0,80,0,0
52783,-90.892564988184,4,1,0,80,0,0
52949,-86.9565217391304,4,1,0,80,0,0
53117,-100,4,1,0,80,0,0
57782,-100,4,1,0,80,0,0
57865,-97.5990630489947,4,1,0,80,0,0
57949,-95.2562392836731,4,1,0,80,0,0
58032,-93.0492230389876,4,1,0,80,0,0
58115,-90.9421607857403,4,1,0,80,0,0
58282,-86.9792119683396,4,1,0,80,0,0
58450,-100,4,1,0,80,0,0
63115,-100,4,1,0,80,0,0
63199,-97.5704946824081,4,1,0,80,0,0
63282,-95.2562392836731,4,1,0,80,0,0
63365,-93.0492230389876,4,1,0,80,0,0
63449,-90.917356123284,4,1,0,80,0,0
63615,-86.9792119683396,4,1,0,80,0,0
64116,-95.2380952380952,4,1,0,80,0,1
73450,-86.9565217391304,4,1,0,80,0,0
74783,-95.2380952380952,4,1,0,80,0,1
79115,-95.2380952380952,4,1,0,80,0,1
79198,-92.5925925925926,4,1,0,80,0,1
79282,-89.2857142857143,4,1,0,80,0,1
79365,-86.9565217391304,4,1,0,80,0,1
79448,-84.7457627118644,4,1,0,80,0,1
79615,-80,4,1,0,80,0,1
79784,-95.2380952380952,4,1,0,80,0,1
85450,-95.2380952380952,4,1,0,80,0,0
104116,-95.2380952380952,4,1,0,80,0,0
104199,-94.3396226415094,4,1,0,80,0,0
104282,-93.4579439252336,4,1,0,80,0,0
104365,-92.5925925925926,4,1,0,80,0,0
104449,-91.743119266055,4,1,0,80,0,0
104533,-90.9090909090909,4,1,0,80,0,0
104615,-90.0900900900901,4,1,0,80,0,0
104699,-89.2857142857143,4,1,0,80,0,0
104782,-88.4955752212389,4,1,0,80,0,0
104865,-87.719298245614,4,1,0,80,0,0
104949,-86.9565217391304,4,1,0,80,0,0
105032,-86.2068965517241,4,1,0,80,0,0
105115,-85.4700854700855,4,1,0,80,0,0
105171,-84.7457627118644,4,1,0,80,0,0
105227,-84.0336134453781,4,1,0,80,0,0
105282,-83.3333333333333,4,1,0,80,0,0
105365,-82.6446280991736,4,1,0,80,0,0
105449,-81.9672131147541,4,1,0,80,0,0
105532,-81.3008130081301,4,1,0,80,0,0
105615,-80.6451612903226,4,1,0,80,0,0
105699,-80,4,1,0,80,0,0
105782,-79.3650793650794,4,1,0,80,0,0
105865,-78.7401574803149,4,1,0,80,0,0
105949,-78.125,4,1,0,80,0,0
106033,-77.5193798449612,4,1,0,80,0,0
106115,-76.9230769230769,4,1,0,80,0,0
106199,-76.3358778625954,4,1,0,80,0,0
106282,-75.7575757575758,4,1,0,80,0,0
106450,-100,4,1,0,80,0,0
116615,-100,4,1,0,80,0,0
116698,-98.5448953034426,4,1,0,80,0,0
116782,-97.0975638186269,4,1,0,80,0,0
116865,-95.7086229677716,4,1,0,80,0,0
116949,-94.3428280197067,4,1,0,80,0,0
117032,-93.0310475765021,4,1,0,80,0,0
117116,-91.7400881057269,4,1,0,80,0,0
117199,-90.4992123417893,4,1,0,80,0,0
117282,-89.2914567477758,4,1,0,80,0,0
117365,-88.115512773047,4,1,0,80,0,0
117449,-86.9565217391304,4,1,0,80,0,0
127115,-86.9565217391304,4,1,0,80,0,0
127199,-85.1136266916333,4,1,0,80,0,0
127282,-83.3472245374229,4,1,0,80,0,0
127365,-81.6526496284804,4,1,0,80,0,0
127449,-80.006400512041,4,1,0,80,0,0
127615,-76.9408324998076,4,1,0,80,0,0

[HitObjects]
254,192,117,5,8,0:0:0:0:
254,192,200,1,0,0:0:0:0:
254,192,283,1,8,0:0:0:0:
254,192,366,1,0,0:0:0:0:
254,192,450,1,0,0:0:0:0:
254,192,616,1,0,0:0:0:0:
254,192,783,1,8,0:0:0:0:
254,192,1116,1,0,0:0:0:0:
254,192,1200,1,0,0:0:0:0:
254,192,1283,1,8,0:0:0:0:
254,192,1616,1,0,0:0:0:0:
254,192,1783,1,8,0:0:0:0:
254,192,1949,1,8,0:0:0:0:
254,192,2032,1,8,0:0:0:0:
254,192,2116,1,0,0:0:0:0:
254,192,2450,1,8,0:0:0:0:
254,192,2783,1,8,0:0:0:0:
254,192,2866,1,8,0:0:0:0:
254,192,2950,1,0,0:0:0:0:
254,192,3034,1,0,0:0:0:0:
254,192,3117,1,0,0:0:0:0:
254,192,3283,1,0,0:0:0:0:
254,192,3450,1,8,0:0:0:0:
254,192,3783,1,8,0:0:0:0:
254,192,3866,1,0,0:0:0:0:
254,192,3950,1,8,0:0:0:0:
254,192,4283,1,8,0:0:0:0:
254,192,4450,1,8,0:0:0:0:
254,192,4616,1,8,0:0:0:0:
254,192,4700,1,0,0:0:0:0:
254,192,4783,1,8,0:0:0:0:
254,192,4866,1,8,0:0:0:0:
254,192,4950,1,0,0:0:0:0:
254,192,5033,1,0,0:0:0:0:
254,192,5116,1,8,0:0:0:0:
254,192,5283,1,0,0:0:0:0:
254,192,5450,1,8,0:0:0:0:
254,192,5533,1,0,0:0:0:0:
254,192,5616,1,8,0:0:0:0:
254,192,5700,1,0,0:0:0:0:
254,192,5783,1,0,0:0:0:0:
254,192,5950,1,0,0:0:0:0:
254,192,6116,1,8,0:0:0:0:
254,192,6450,1,0,0:0:0:0:
254,192,6533,1,0,0:0:0:0:
254,192,6616,1,8,0:0:0:0:
254,192,6950,1,0,0:0:0:0:
254,192,7117,1,8,0:0:0:0:
254,192,7283,1,8,0:0:0:0:
254,192,7367,1,8,0:0:0:0:
254,192,7450,1,0,0:0:0:0:
254,192,7784,1,8,0:0:0:0:
254,192,8117,1,8,0:0:0:0:
254,192,8200,1,8,0:0:0:0:
254,192,8284,1,0,0:0:0:0:
254,192,8366,1,0,0:0:0:0:
254,192,8451,1,0,0:0:0:0:
254,192,8616,1,0,0:0:0:0:
254,192,8784,1,8,0:0:0:0:
254,192,8950,1,0,0:0:0:0:
254,192,9033,1,0,0:0:0:0:
254,192,9116,1,8,0:0:0:0:
254,192,9283,1,0,0:0:0:0:
254,192,9450,1,12,0:0:0:0:
254,192,9616,1,4,0:0:0:0:
254,192,9783,1,4,0:0:0:0:
254,192,9950,1,12,0:0:0:0:
254,192,10783,1,8,0:0:0:0:
254,192,10866,1,8,0:0:0:0:
254,192,10950,1,0,0:0:0:0:
254,192,11116,1,8,0:0:0:0:
254,192,11200,1,0,0:0:0:0:
254,192,11283,1,8,0:0:0:0:
254,192,11366,1,8,0:0:0:0:
254,192,11450,1,0,0:0:0:0:
254,192,11616,1,8,0:0:0:0:
254,192,11700,1,0,0:0:0:0:
254,192,11783,1,0,0:0:0:0:
254,192,11950,1,8,0:0:0:0:
254,192,12283,1,0,0:0:0:0:
254,192,12366,1,0,0:0:0:0:
254,192,12450,1,8,0:0:0:0:
254,192,12616,1,0,0:0:0:0:
254,192,12783,1,0,0:0:0:0:
254,192,12950,1,8,0:0:0:0:
254,192,13033,1,8,0:0:0:0:
254,192,13116,1,8,0:0:0:0:
254,192,13283,1,0,0:0:0:0:
254,192,13450,1,8,0:0:0:0:
254,192,13533,1,0,0:0:0:0:
254,192,13616,1,0,0:0:0:0:
254,192,13700,1,0,0:0:0:0:
254,192,13783,1,8,0:0:0:0:
254,192,13950,1,0,0:0:0:0:
254,192,14033,1,0,0:0:0:0:
254,192,14116,1,8,0:0:0:0:
254,192,14283,1,8,0:0:0:0:
254,192,14366,1,8,0:0:0:0:
254,192,14450,1,0,0:0:0:0:
254,192,14616,1,8,0:0:0:0:
254,192,14950,1,0,0:0:0:0:
254,192,15116,1,12,0:0:0:0:
254,192,15450,1,12,0:0:0:0:
254,192,15783,1,12,0:0:0:0:
254,192,16116,1,8,0:0:0:0:
254,192,16200,1,8,0:0:0:0:
254,192,16283,1,0,0:0:0:0:
254,192,16450,1,8,0:0:0:0:
254,192,16533,1,8,0:0:0:0:
254,192,16617,1,0,0:0:0:0:
254,192,16700,1,0,0:0:0:0:
254,192,16783,1,8,0:0:0:0:
254,192,16950,1,0,0:0:0:0:
254,192,17033,1,0,0:0:0:0:
254,192,17117,1,8,0:0:0:0:
254,192,17283,1,0,0:0:0:0:
254,192,17616,1,8,0:0:0:0:
254,192,17699,1,0,0:0:0:0:
254,192,17783,1,8,0:0:0:0:
254,192,17949,1,0,0:0:0:0:
254,192,18116,1,0,0:0:0:0:
254,192,18283,1,8,0:0:0:0:
254,192,18366,1,8,0:0:0:0:
254,192,18449,1,8,0:0:0:0:
254,192,18616,1,0,0:0:0:0:
254,192,18783,1,8,0:0:0:0:
254,192,18866,1,0,0:0:0:0:
254,192,18949,1,0,0:0:0:0:
254,192,19033,1,0,0:0:0:0:
254,192,19116,1,8,0:0:0:0:
254,192,19283,1,0,0:0:0:0:
254,192,19366,1,0,0:0:0:0:
254,192,19449,1,8,0:0:0:0:
254,192,19616,1,8,0:0:0:0:
254,192,19699,1,8,0:0:0:0:
254,192,19783,1,0,0:0:0:0:
254,192,19949,1,8,0:0:0:0:
254,192,20283,1,0,0:0:0:0:
254,192,20449,1,8,0:0:0:0:
254,192,20533,1,0,0:0:0:0:
254,192,20616,1,0,0:0:0:0:
254,192,20700,1,0,0:0:0:0:
254,192,20783,1,8,0:0:0:0:
254,192,20950,1,0,0:0:0:0:
254,192,21034,1,0,0:0:0:0:
254,192,21116,1,8,0:0:0:0:
254,192,21283,1,0,0:0:0:0:
254,192,21450,1,12,0:0:0:0:
254,192,21782,1,8,0:0:0:0:
254,192,21866,1,8,0:0:0:0:
254,192,21949,1,0,0:0:0:0:
254,192,22116,1,8,0:0:0:0:
254,192,22283,1,0,0:0:0:0:
254,192,22366,1,0,0:0:0:0:
254,192,22450,1,0,0:0:0:0:
254,192,22616,1,8,0:0:0:0:
254,192,22950,1,0,0:0:0:0:
254,192,23116,1,8,0:0:0:0:
254,192,23200,1,8,0:0:0:0:
254,192,23283,1,0,0:0:0:0:
254,192,23366,1,0,0:0:0:0:
254,192,23450,1,8,0:0:0:0:
254,192,23616,1,0,0:0:0:0:
254,192,23700,1,0,0:0:0:0:
254,192,23783,1,8,0:0:0:0:
254,192,23950,1,8,0:0:0:0:
254,192,24116,1,0,0:0:0:0:
254,192,24450,1,8,0:0:0:0:
254,192,24533,1,0,0:0:0:0:
254,192,24616,1,0,0:0:0:0:
254,192,24783,1,8,0:0:0:0:
254,192,24950,1,0,0:0:0:0:
254,192,25033,1,0,0:0:0:0:
254,192,25117,1,8,0:0:0:0:
254,192,25283,1,8,0:0:0:0:
254,192,25617,1,0,0:0:0:0:
254,192,25783,1,8,0:0:0:0:
254,192,25866,1,0,0:0:0:0:
254,192,25950,1,8,0:0:0:0:
254,192,26033,1,8,0:0:0:0:
254,192,26116,1,0,0:0:0:0:
254,192,26283,1,0,0:0:0:0:
254,192,26366,1,0,0:0:0:0:
254,192,26450,1,8,0:0:0:0:
254,192,26616,1,8,0:0:0:0:
254,192,26783,1,0,0:0:0:0:
254,192,27116,1,8,0:0:0:0:
254,192,27200,1,8,0:0:0:0:
254,192,27283,1,0,0:0:0:0:
254,192,27450,1,8,0:0:0:0:
254,192,27616,1,0,0:0:0:0:
254,192,27700,1,0,0:0:0:0:
254,192,27783,1,0,0:0:0:0:
254,192,27950,1,8,0:0:0:0:
254,192,28116,1,0,0:0:0:0:
254,192,28450,1,8,0:0:0:0:
254,192,28616,1,0,0:0:0:0:
254,192,28699,1,0,0:0:0:0:
254,192,28783,1,8,0:0:0:0:
254,192,28866,1,8,0:0:0:0:
254,192,28950,1,0,0:0:0:0:
254,192,29116,1,8,0:0:0:0:
254,192,29450,1,8,0:0:0:0:
254,192,29533,1,8,0:0:0:0:
254,192,29616,1,0,0:0:0:0:
254,192,29783,1,8,0:0:0:0:
254,192,29950,1,0,0:0:0:0:
254,192,30116,1,0,0:0:0:0:
254,192,30200,1,0,0:0:0:0:
254,192,30283,1,8,0:0:0:0:
254,192,30366,1,8,0:0:0:0:
254,192,30450,1,0,0:0:0:0:
254,192,30533,1,0,0:0:0:0:
254,192,30616,1,8,0:0:0:0:
254,192,30950,1,0,0:0:0:0:
254,192,31116,1,8,0:0:0:0:
254,192,31200,1,0,0:0:0:0:
254,192,31283,1,8,0:0:0:0:
254,192,31366,1,8,0:0:0:0:
254,192,31450,1,0,0:0:0:0:
254,192,31616,1,12,0:0:0:0:
254,192,32116,1,0,0:0:0:0:
254,192,32200,1,0,0:0:0:0:
254,192,32283,1,8,0:0:0:0:
254,192,32450,1,8,0:0:0:0:
254,192,32616,1,0,0:0:0:0:
254,192,32700,1,0,0:0:0:0:
254,192,32783,1,0,0:0:0:0:
254,192,32866,1,0,0:0:0:0:
254,192,32950,1,12,0:0:0:0:
254,192,33450,1,8,0:0:0:0:
254,192,33533,1,0,0:0:0:0:
254,192,33617,1,0,0:0:0:0:
254,192,33783,1,8,0:0:0:0:
254,192,33950,1,8,0:0:0:0:
254,192,34034,1,0,0:0:0:0:
254,192,34116,1,0,0:0:0:0:
254,192,34200,1,0,0:0:0:0:
254,192,34284,1,12,0:0:0:0:
254,192,34783,1,8,0:0:0:0:
254,192,34866,1,8,0:0:0:0:
254,192,34950,1,0,0:0:0:0:
254,192,35116,1,8,0:0:0:0:
254,192,35283,1,8,0:0:0:0:
254,192,35366,1,0,0:0:0:0:
254,192,35450,1,8,0:0:0:0:
254,192,35533,1,8,0:0:0:0:
254,192,35616,1,0,0:0:0:0:
254,192,35700,1,0,0:0:0:0:
254,192,35783,1,8,0:0:0:0:
254,192,35950,1,0,0:0:0:0:
254,192,36033,1,0,0:0:0:0:
254,192,36117,1,8,0:0:0:0:
254,192,36200,1,8,0:0:0:0:
254,192,36283,1,0,0:0:0:0:
254,192,36366,1,0,0:0:0:0:
254,192,36450,1,8,0:0:0:0:
254,192,36616,1,0,0:0:0:0:
254,192,36700,1,0,0:0:0:0:
254,192,36783,1,8,0:0:0:0:
254,192,36950,1,12,0:0:0:0:
254,192,37450,1,0,0:0:0:0:
254,192,37534,1,0,0:0:0:0:
254,192,37616,1,8,0:0:0:0:
254,192,37783,1,8,0:0:0:0:
254,192,37950,1,8,0:0:0:0:
254,192,38033,1,8,0:0:0:0:
254,192,38117,1,0,0:0:0:0:
254,192,38200,1,0,0:0:0:0:
254,192,38283,1,12,0:0:0:0:
254,192,38783,1,8,0:0:0:0:
254,192,38865,1,8,0:0:0:0:
254,192,38949,1,0,0:0:0:0:
254,192,39116,1,8,0:0:0:0:
254,192,39283,1,0,0:0:0:0:
254,192,39366,1,0,0:0:0:0:
254,192,39450,1,8,0:0:0:0:
254,192,39533,1,0,0:0:0:0:
254,192,39616,1,12,0:0:0:0:
254,192,40116,1,8,0:0:0:0:
254,192,40199,1,0,0:0:0:0:
254,192,40283,1,0,0:0:0:0:
254,192,40449,1,8,0:0:0:0:
254,192,40616,1,0,0:0:0:0:
254,192,40699,1,0,0:0:0:0:
254,192,40783,1,8,0:0:0:0:
254,192,40866,1,8,0:0:0:0:
254,192,40949,1,0,0:0:0:0:
254,192,41033,1,0,0:0:0:0:
254,192,41116,1,8,0:0:0:0:
254,192,41283,1,8,0:0:0:0:
254,192,41366,1,0,0:0:0:0:
254,192,41450,1,8,0:0:0:0:
254,192,41533,1,8,0:0:0:0:
254,192,41616,1,0,0:0:0:0:
254,192,41700,1,0,0:0:0:0:
254,192,41783,1,8,0:0:0:0:
254,192,41949,1,0,0:0:0:0:
254,192,42033,1,0,0:0:0:0:
254,192,42116,1,8,0:0:0:0:
254,192,42283,1,12,0:0:0:0:
254,192,42783,1,8,0:0:0:0:
254,192,42866,1,0,0:0:0:0:
254,192,42950,1,0,0:0:0:0:
254,192,43033,1,0,0:0:0:0:
254,192,43116,1,8,0:0:0:0:
254,192,43283,1,0,0:0:0:0:
254,192,43450,1,8,0:0:0:0:
254,192,43533,1,8,0:0:0:0:
254,192,43616,1,0,0:0:0:0:
254,192,43700,1,0,0:0:0:0:
254,192,43783,1,8,0:0:0:0:
254,192,43866,1,0,0:0:0:0:
254,192,43950,1,8,0:0:0:0:
254,192,44283,1,0,0:0:0:0:
254,192,44366,1,0,0:0:0:0:
254,192,44450,1,8,0:0:0:0:
254,192,44616,1,0,0:0:0:0:
254,192,44783,1,8,0:0:0:0:
254,192,44950,1,8,0:0:0:0:
254,192,45033,1,0,0:0:0:0:
254,192,45116,1,8,0:0:0:0:
254,192,45283,1,0,0:0:0:0:
254,192,45450,1,8,0:0:0:0:
254,192,45533,1,8,0:0:0:0:
254,192,45616,1,0,0:0:0:0:
254,192,45700,1,0,0:0:0:0:
254,192,45783,1,8,0:0:0:0:
254,192,45950,1,0,0:0:0:0:
254,192,46116,1,8,0:0:0:0:
254,192,46200,1,0,0:0:0:0:
254,192,46283,1,8,0:0:0:0:
254,192,46366,1,0,0:0:0:0:
254,192,46450,1,0,0:0:0:0:
254,192,46533,1,0,0:0:0:0:
254,192,46616,1,8,0:0:0:0:
254,192,46950,1,0,0:0:0:0:
254,192,47116,1,12,0:0:0:0:
254,192,47450,1,12,0:0:0:0:
254,192,47783,1,12,0:0:0:0:
254,192,48116,1,8,0:0:0:0:
254,192,48200,1,0,0:0:0:0:
254,192,48283,1,8,0:0:0:0:
254,192,48366,1,8,0:0:0:0:
254,192,48450,1,0,0:0:0:0:
254,192,48616,1,8,0:0:0:0:
254,192,48783,1,0,0:0:0:0:
254,192,48866,1,0,0:0:0:0:
254,192,48950,1,8,0:0:0:0:
254,192,49033,1,0,0:0:0:0:
254,192,49117,1,0,0:0:0:0:
254,192,49450,1,0,0:0:0:0:
254,192,49616,1,0,0:0:0:0:
254,192,49699,1,8,0:0:0:0:
254,192,49783,1,8,0:0:0:0:
254,192,49949,1,0,0:0:0:0:
254,192,50116,1,0,0:0:0:0:
254,192,50283,1,8,0:0:0:0:
254,192,50366,1,8,0:0:0:0:
254,192,50449,1,8,0:0:0:0:
254,192,50616,1,0,0:0:0:0:
254,192,50783,1,8,0:0:0:0:
254,192,50866,1,8,0:0:0:0:
254,192,50949,1,0,0:0:0:0:
254,192,51033,1,0,0:0:0:0:
254,192,51116,1,8,0:0:0:0:
254,192,51283,1,0,0:0:0:0:
254,192,51450,1,8,0:0:0:0:
254,192,51533,1,8,0:0:0:0:
254,192,51616,1,8,0:0:0:0:
254,192,51699,1,8,0:0:0:0:
254,192,51783,1,0,0:0:0:0:
254,192,51866,1,0,0:0:0:0:
254,192,51949,1,8,0:0:0:0:
254,192,52283,1,0,0:0:0:0:
254,192,52450,1,8,0:0:0:0:
254,192,52534,1,0,0:0:0:0:
254,192,52617,1,8,0:0:0:0:
254,192,52700,1,8,0:0:0:0:
254,192,52784,1,0,0:0:0:0:
254,192,52950,1,12,0:0:0:0:
254,192,53450,1,8,0:0:0:0:
254,192,53533,1,0,0:0:0:0:
254,192,53617,1,0,0:0:0:0:
254,192,53700,1,0,0:0:0:0:
254,192,53783,1,8,0:0:0:0:
254,192,53950,1,0,0:0:0:0:
254,192,54117,1,8,0:0:0:0:
254,192,54200,1,0,0:0:0:0:
254,192,54283,1,8,0:0:0:0:
254,192,54366,1,8,0:0:0:0:
254,192,54450,1,0,0:0:0:0:
254,192,54533,1,0,0:0:0:0:
254,192,54617,1,8,0:0:0:0:
254,192,54950,1,0,0:0:0:0:
254,192,55033,1,0,0:0:0:0:
254,192,55117,1,8,0:0:0:0:
254,192,55283,1,0,0:0:0:0:
254,192,55450,1,8,0:0:0:0:
254,192,55617,1,0,0:0:0:0:
254,192,55700,1,8,0:0:0:0:
254,192,55783,1,8,0:0:0:0:
254,192,55950,1,0,0:0:0:0:
254,192,56117,1,8,0:0:0:0:
254,192,56200,1,8,0:0:0:0:
254,192,56283,1,0,0:0:0:0:
254,192,56367,1,8,0:0:0:0:
254,192,56450,1,8,0:0:0:0:
254,192,56617,1,0,0:0:0:0:
254,192,56783,1,8,0:0:0:0:
254,192,56866,1,0,0:0:0:0:
254,192,56950,1,8,0:0:0:0:
254,192,57033,1,8,0:0:0:0:
254,192,57117,1,0,0:0:0:0:
254,192,57200,1,0,0:0:0:0:
254,192,57283,1,8,0:0:0:0:
254,192,57617,1,0,0:0:0:0:
254,192,57783,1,8,0:0:0:0:
254,192,57866,1,0,0:0:0:0:
254,192,57950,1,8,0:0:0:0:
254,192,58033,1,0,0:0:0:0:
254,192,58116,1,0,0:0:0:0:
254,192,58283,1,12,0:0:0:0:
254,192,58783,1,0,0:0:0:0:
254,192,58867,1,0,0:0:0:0:
254,192,58950,1,8,0:0:0:0:
254,192,59033,1,0,0:0:0:0:
254,192,59117,1,8,0:0:0:0:
254,192,59284,1,0,0:0:0:0:
254,192,59450,1,8,0:0:0:0:
254,192,59533,1,0,0:0:0:0:
254,192,59617,1,0,0:0:0:0:
254,192,59700,1,0,0:0:0:0:
254,192,59784,1,8,0:0:0:0:
254,192,59950,1,8,0:0:0:0:
254,192,60283,1,0,0:0:0:0:
254,192,60366,1,0,0:0:0:0:
254,192,60450,1,8,0:0:0:0:
254,192,60616,1,0,0:0:0:0:
254,192,60783,1,8,0:0:0:0:
254,192,60866,1,8,0:0:0:0:
254,192,60949,1,0,0:0:0:0:
254,192,61033,1,0,0:0:0:0:
254,192,61116,1,8,0:0:0:0:
254,192,61283,1,8,0:0:0:0:
254,192,61617,1,0,0:0:0:0:
254,192,61700,1,0,0:0:0:0:
254,192,61783,1,8,0:0:0:0:
254,192,61866,1,0,0:0:0:0:
254,192,61949,1,0,0:0:0:0:
254,192,62116,1,8,0:0:0:0:
254,192,62282,1,8,0:0:0:0:
254,192,62366,1,8,0:0:0:0:
254,192,62449,1,0,0:0:0:0:
254,192,62616,1,8,0:0:0:0:
254,192,62700,1,0,0:0:0:0:
254,192,62783,1,0,0:0:0:0:
254,192,62866,1,0,0:0:0:0:
254,192,62950,1,8,0:0:0:0:
254,192,63116,1,8,0:0:0:0:
254,192,63200,1,0,0:0:0:0:
254,192,63283,1,8,0:0:0:0:
254,192,63366,1,8,0:0:0:0:
254,192,63450,1,0,0:0:0:0:
254,192,63616,1,12,0:0:0:0:
254,192,64116,1,8,0:0:0:0:
254,192,64200,1,8,0:0:0:0:
254,192,64283,1,0,0:0:0:0:
254,192,64366,1,0,0:0:0:0:
254,192,64450,1,8,0:0:0:0:
254,192,64616,1,8,0:0:0:0:
254,192,64700,1,8,0:0:0:0:
254,192,64783,1,0,0:0:0:0:
254,192,64866,1,0,0:0:0:0:
254,192,64950,1,8,0:0:0:0:
254,192,65033,1,0,0:0:0:0:
254,192,65116,1,8,0:0:0:0:
254,192,65283,1,0,0:0:0:0:
254,192,65450,1,8,0:0:0:0:
254,192,65616,1,0,0:0:0:0:
254,192,65700,1,0,0:0:0:0:
254,192,65783,1,8,0:0:0:0:
254,192,65866,1,8,0:0:0:0:
254,192,65950,1,0,0:0:0:0:
254,192,66033,1,0,0:0:0:0:
254,192,66116,1,8,0:0:0:0:
254,192,66283,1,0,0:0:0:0:
254,192,66450,1,8,0:0:0:0:
254,192,66534,1,0,0:0:0:0:
254,192,66616,1,0,0:0:0:0:
254,192,66783,1,8,0:0:0:0:
254,192,66866,1,0,0:0:0:0:
254,192,66950,1,8,0:0:0:0:
254,192,67033,1,8,0:0:0:0:
254,192,67116,1,0,0:0:0:0:
254,192,67283,1,8,0:0:0:0:
254,192,67366,1,0,0:0:0:0:
254,192,67450,1,8,0:0:0:0:
254,192,67533,1,8,0:0:0:0:
254,192,67616,1,0,0:0:0:0:
254,192,67783,1,8,0:0:0:0:
254,192,67866,1,0,0:0:0:0:
254,192,67950,1,8,0:0:0:0:
254,192,68116,1,0,0:0:0:0:
254,192,68199,1,0,0:0:0:0:
254,192,68283,1,8,0:0:0:0:
254,192,68366,1,8,0:0:0:0:
254,192,68449,1,0,0:0:0:0:
254,192,68616,1,0,0:0:0:0:
254,192,68783,1,8,0:0:0:0:
254,192,68950,1,0,0:0:0:0:
254,192,69116,1,8,0:0:0:0:
254,192,69450,1,8,0:0:0:0:
254,192,69533,1,0,0:0:0:0:
254,192,69616,1,8,0:0:0:0:
254,192,69700,1,8,0:0:0:0:
254,192,69784,1,0,0:0:0:0:
254,192,69950,1,8,0:0:0:0:
254,192,70033,1,8,0:0:0:0:
254,192,70117,1,0,0:0:0:0:
254,192,70200,1,0,0:0:0:0:
254,192,70284,1,0,0:0:0:0:
254,192,70367,1,0,0:0:0:0:
254,192,70450,1,8,0:0:0:0:
254,192,70616,1,8,0:0:0:0:
254,192,70784,1,0,0:0:0:0:
254,192,70950,1,8,0:0:0:0:
254,192,71034,1,0,0:0:0:0:
254,192,71117,1,8,0:0:0:0:
254,192,71200,1,8,0:0:0:0:
254,192,71284,1,0,0:0:0:0:
254,192,71366,1,0,0:0:0:0:
254,192,71450,1,8,0:0:0:0:
254,192,71617,1,0,0:0:0:0:
254,192,71700,1,0,0:0:0:0:
254,192,71784,1,8,0:0:0:0:
254,192,72117,1,8,0:0:0:0:
254,192,72200,1,0,0:0:0:0:
254,192,72284,1,8,0:0:0:0:
254,192,72450,1,0,0:0:0:0:
254,192,72533,1,0,0:0:0:0:
254,192,72616,1,8,0:0:0:0:
254,192,72700,1,0,0:0:0:0:
254,192,72784,1,8,0:0:0:0:
254,192,72950,1,0,0:0:0:0:
254,192,73032,1,0,0:0:0:0:
254,192,73117,1,8,0:0:0:0:
254,192,73283,1,0,0:0:0:0:
254,192,73450,1,12,0:0:0:0:
254,192,73783,1,12,0:0:0:0:
254,192,74116,1,4,0:0:0:0:
254,192,74450,1,4,0:0:0:0:
254,192,74783,1,8,0:0:0:0:
254,192,74867,1,0,0:0:0:0:
254,192,74950,1,8,0:0:0:0:
254,192,75033,1,8,0:0:0:0:
254,192,75116,1,0,0:0:0:0:
254,192,75283,1,8,0:0:0:0:
254,192,75366,1,0,0:0:0:0:
254,192,75450,1,8,0:0:0:0:
254,192,75533,1,8,0:0:0:0:
254,192,75617,1,0,0:0:0:0:
254,192,75700,1,0,0:0:0:0:
254,192,75783,1,8,0:0:0:0:
254,192,75950,1,0,0:0:0:0:
254,192,76117,1,8,0:0:0:0:
254,192,76283,1,8,0:0:0:0:
254,192,76367,1,8,0:0:0:0:
254,192,76450,1,0,0:0:0:0:
254,192,76533,1,0,0:0:0:0:
254,192,76616,1,0,0:0:0:0:
254,192,76700,1,0,0:0:0:0:
254,192,76783,1,8,0:0:0:0:
254,192,76950,1,8,0:0:0:0:
254,192,77116,1,0,0:0:0:0:
254,192,77200,1,0,0:0:0:0:
254,192,77283,1,8,0:0:0:0:
254,192,77450,1,8,0:0:0:0:
254,192,77616,1,0,0:0:0:0:
254,192,77783,1,8,0:0:0:0:
254,192,77865,1,0,0:0:0:0:
254,192,77950,1,8,0:0:0:0:
254,192,78033,1,0,0:0:0:0:
254,192,78117,1,8,0:0:0:0:
254,192,78200,1,8,0:0:0:0:
254,192,78283,1,0,0:0:0:0:
254,192,78365,1,0,0:0:0:0:
254,192,78450,1,8,0:0:0:0:
254,192,78617,1,8,0:0:0:0:
254,192,79116,1,8,0:0:0:0:
254,192,79199,1,0,0:0:0:0:
254,192,79283,1,8,0:0:0:0:
254,192,79366,1,8,0:0:0:0:
254,192,79449,1,0,0:0:0:0:
254,192,79616,1,12,0:0:0:0:
254,192,80116,1,8,0:0:0:0:
254,192,80200,1,8,0:0:0:0:
254,192,80283,1,0,0:0:0:0:
254,192,80366,1,0,0:0:0:0:
254,192,80450,1,8,0:0:0:0:
254,192,80616,1,0,0:0:0:0:
254,192,80700,1,0,0:0:0:0:
254,192,80783,1,8,0:0:0:0:
254,192,80950,1,8,0:0:0:0:
254,192,81033,1,0,0:0:0:0:
254,192,81116,1,8,0:0:0:0:
254,192,81283,1,8,0:0:0:0:
254,192,81616,1,0,0:0:0:0:
254,192,81700,1,0,0:0:0:0:
254,192,81783,1,8,0:0:0:0:
254,192,81866,1,8,0:0:0:0:
254,192,81950,1,0,0:0:0:0:
254,192,82116,1,8,0:0:0:0:
254,192,82200,1,8,0:0:0:0:
254,192,82283,1,0,0:0:0:0:
254,192,82450,1,8,0:0:0:0:
254,192,82616,1,8,0:0:0:0:
254,192,82783,1,0,0:0:0:0:
254,192,82950,1,0,0:0:0:0:
254,192,83116,1,12,0:0:0:0:
254,192,83283,1,0,0:0:0:0:
254,192,83450,1,12,0:0:0:0:
254,192,83616,1,0,0:0:0:0:
254,192,83783,1,12,0:0:0:0:
254,192,83950,1,0,0:0:0:0:
254,192,84116,1,0,0:0:0:0:
254,192,84200,1,0,0:0:0:0:
254,192,84283,1,0,0:0:0:0:
254,192,84450,1,12,0:0:0:0:
254,192,84616,1,0,0:0:0:0:
254,192,84784,1,12,0:0:0:0:
254,192,84950,1,0,0:0:0:0:
254,192,85117,1,12,0:0:0:0:
254,192,85283,1,0,0:0:0:0:
254,192,85450,1,8,0:0:0:0:
254,192,85616,1,0,0:0:0:0:
254,192,85700,1,0,0:0:0:0:
254,192,85783,1,8,0:0:0:0:
254,192,85950,1,0,0:0:0:0:
254,192,86116,1,8,0:0:0:0:
254,192,86200,1,0,0:0:0:0:
254,192,86283,1,0,0:0:0:0:
254,192,86366,1,8,0:0:0:0:
254,192,86450,1,0,0:0:0:0:
254,192,86533,1,0,0:0:0:0:
254,192,86616,1,8,0:0:0:0:
254,192,86700,1,0,0:0:0:0:
254,192,86783,1,8,0:0:0:0:
254,192,86866,1,0,0:0:0:0:
254,192,86950,1,8,0:0:0:0:
254,192,87033,1,8,0:0:0:0:
254,192,87116,1,0,0:0:0:0:
254,192,87283,1,8,0:0:0:0:
254,192,87617,1,0,0:0:0:0:
254,192,87700,1,0,0:0:0:0:
254,192,87783,1,8,0:0:0:0:
254,192,87950,1,8,0:0:0:0:
254,192,88116,1,8,0:0:0:0:
254,192,88200,1,0,0:0:0:0:
254,192,88283,1,8,0:0:0:0:
254,192,88366,1,8,0:0:0:0:
254,192,88450,1,0,0:0:0:0:
254,192,88533,1,0,0:0:0:0:
254,192,88616,1,8,0:0:0:0:
254,192,88700,1,0,0:0:0:0:
254,192,88783,1,8,0:0:0:0:
254,192,88866,1,0,0:0:0:0:
254,192,88950,1,8,0:0:0:0:
254,192,89033,1,8,0:0:0:0:
254,192,89116,1,0,0:0:0:0:
254,192,89200,1,0,0:0:0:0:
254,192,89283,1,8,0:0:0:0:
254,192,89616,1,8,0:0:0:0:
254,192,89700,1,0,0:0:0:0:
254,192,89783,1,8,0:0:0:0:
254,192,89866,1,0,0:0:0:0:
254,192,89950,1,8,0:0:0:0:
254,192,90033,1,8,0:0:0:0:
254,192,90116,1,0,0:0:0:0:
254,192,90616,1,8,0:0:0:0:
254,192,90949,1,8,0:0:0:0:
254,192,91033,1,0,0:0:0:0:
254,192,91116,1,8,0:0:0:0:
254,192,91199,1,0,0:0:0:0:
254,192,91283,1,8,0:0:0:0:
254,192,91366,1,8,0:0:0:0:
254,192,91449,1,8,0:0:0:0:
254,192,91533,1,0,0:0:0:0:
254,192,91616,1,8,0:0:0:0:
254,192,91700,1,8,0:0:0:0:
254,192,91783,1,0,0:0:0:0:
254,192,91866,1,0,0:0:0:0:
254,192,91950,1,8,0:0:0:0:
254,192,92116,1,8,0:0:0:0:
254,192,92200,1,0,0:0:0:0:
254,192,92366,1,8,0:0:0:0:
254,192,92450,1,0,0:0:0:0:
254,192,92533,1,0,0:0:0:0:
254,192,92616,1,8,0:0:0:0:
254,192,92783,1,8,0:0:0:0:
254,192,92866,1,0,0:0:0:0:
254,192,92949,1,0,0:0:0:0:
254,192,93033,1,8,0:0:0:0:
254,192,93116,1,0,0:0:0:0:
254,192,93200,1,0,0:0:0:0:
254,192,93283,1,8,0:0:0:0:
254,192,93450,1,8,0:0:0:0:
254,192,93533,1,8,0:0:0:0:
254,192,93616,1,0,0:0:0:0:
254,192,93700,1,0,0:0:0:0:
254,192,93783,1,8,0:0:0:0:
254,192,93866,1,8,0:0:0:0:
254,192,93950,1,0,0:0:0:0:
254,192,94033,1,0,0:0:0:0:
254,192,94116,1,8,0:0:0:0:
254,192,94200,1,0,0:0:0:0:
254,192,94283,1,8,0:0:0:0:
254,192,94366,1,8,0:0:0:0:
254,192,94450,1,0,0:0:0:0:
254,192,94533,1,0,0:0:0:0:
254,192,94616,1,8,0:0:0:0:
254,192,94700,1,0,0:0:0:0:
254,192,94783,1,8,0:0:0:0:
254,192,94866,1,0,0:0:0:0:
254,192,94950,1,0,0:0:0:0:
254,192,95033,1,8,0:0:0:0:
254,192,95116,1,8,0:0:0:0:
254,192,95200,1,0,0:0:0:0:
254,192,95283,1,8,0:0:0:0:
254,192,95366,1,0,0:0:0:0:
254,192,95450,1,8,0:0:0:0:
254,192,95950,1,8,0:0:0:0:
254,192,96033,1,0,0:0:0:0:
254,192,96116,1,8,0:0:0:0:
254,192,96200,1,8,0:0:0:0:
254,192,96283,1,8,0:0:0:0:
254,192,96366,1,0,0:0:0:0:
254,192,96450,1,8,0:0:0:0:
254,192,96533,1,8,0:0:0:0:
254,192,96616,1,8,0:0:0:0:
254,192,96700,1,0,0:0:0:0:
254,192,96783,1,8,0:0:0:0:
254,192,96866,1,0,0:0:0:0:
254,192,96950,1,8,0:0:0:0:
254,192,97116,1,0,0:0:0:0:
254,192,97200,1,0,0:0:0:0:
254,192,97283,1,8,0:0:0:0:
254,192,97366,1,0,0:0:0:0:
254,192,97450,1,8,0:0:0:0:
254,192,97533,1,8,0:0:0:0:
254,192,97616,1,0,0:0:0:0:
254,192,97700,1,0,0:0:0:0:
254,192,97783,1,8,0:0:0:0:
254,192,97866,1,8,0:0:0:0:
254,192,97950,1,8,0:0:0:0:
254,192,98033,1,0,0:0:0:0:
254,192,98116,1,8,0:0:0:0:
254,192,98783,1,0,0:0:0:0:
254,192,98867,1,0,0:0:0:0:
254,192,98950,1,8,0:0:0:0:
254,192,99033,1,8,0:0:0:0:
254,192,99117,1,8,0:0:0:0:
254,192,99200,1,0,0:0:0:0:
254,192,99283,1,8,0:0:0:0:
254,192,99366,1,8,0:0:0:0:
254,192,99450,1,0,0:0:0:0:
254,192,99505,1,0,0:0:0:0:
254,192,99561,1,0,0:0:0:0:
254,192,99616,1,8,0:0:0:0:
254,192,99699,1,8,0:0:0:0:
254,192,99783,1,0,0:0:0:0:
254,192,99839,1,0,0:0:0:0:
254,192,99894,1,0,0:0:0:0:
254,192,99950,1,8,0:0:0:0:
254,192,100033,1,8,0:0:0:0:
254,192,100116,1,0,0:0:0:0:
254,192,100200,1,8,0:0:0:0:
254,192,100283,1,8,0:0:0:0:
254,192,100366,1,8,0:0:0:0:
254,192,100450,1,0,0:0:0:0:
254,192,100533,1,8,0:0:0:0:
254,192,100616,1,8,0:0:0:0:
254,192,100950,1,8,0:0:0:0:
254,192,101616,1,8,0:0:0:0:
254,192,101783,1,0,0:0:0:0:
254,192,101950,1,0,0:0:0:0:
254,192,102116,1,8,0:0:0:0:
254,192,102200,1,0,0:0:0:0:
254,192,102283,1,0,0:0:0:0:
254,192,102366,1,0,0:0:0:0:
254,192,102450,1,8,0:0:0:0:
254,192,102616,1,8,0:0:0:0:
254,192,102700,1,0,0:0:0:0:
254,192,102783,1,8,0:0:0:0:
254,192,102950,1,0,0:0:0:0:
254,192,103033,1,0,0:0:0:0:
254,192,103116,1,8,0:0:0:0:
254,192,103283,1,0,0:0:0:0:
254,192,103616,1,8,0:0:0:0:
254,192,103700,1,8,0:0:0:0:
254,192,103783,1,0,0:0:0:0:
254,192,103950,1,0,0:0:0:0:
254,192,104116,1,8,0:0:0:0:
254,192,104200,1,8,0:0:0:0:
254,192,104283,1,0,0:0:0:0:
254,192,104366,1,0,0:0:0:0:
254,192,104450,1,8,0:0:0:0:
254,192,104534,1,0,0:0:0:0:
254,192,104616,1,8,0:0:0:0:
254,192,104700,1,8,0:0:0:0:
254,192,104783,1,8,0:0:0:0:
254,192,104866,1,8,0:0:0:0:
254,192,104950,1,0,0:0:0:0:
254,192,105033,1,0,0:0:0:0:
254,192,105116,1,8,0:0:0:0:
254,192,105172,1,0,0:0:0:0:
254,192,105228,1,0,0:0:0:0:
254,192,105283,1,8,0:0:0:0:
254,192,105366,1,0,0:0:0:0:
254,192,105450,1,8,0:0:0:0:
254,192,105533,1,0,0:0:0:0:
254,192,105616,1,0,0:0:0:0:
254,192,105700,1,0,0:0:0:0:
254,192,105783,1,8,0:0:0:0:
254,192,105866,1,8,0:0:0:0:
254,192,105950,1,0,0:0:0:0:
254,192,106034,1,0,0:0:0:0:
254,192,106116,1,8,0:0:0:0:
254,192,106200,1,0,0:0:0:0:
254,192,106283,1,8,0:0:0:0:
254,192,106783,5,8,0:0:0:0:
254,192,106866,1,0,0:0:0:0:
254,192,106949,1,8,0:0:0:0:
254,192,107032,1,0,0:0:0:0:
254,192,107116,1,0,0:0:0:0:
254,192,107282,1,0,0:0:0:0:
254,192,107449,1,8,0:0:0:0:
254,192,107782,1,0,0:0:0:0:
254,192,107866,1,0,0:0:0:0:
254,192,107949,1,8,0:0:0:0:
254,192,108282,1,0,0:0:0:0:
254,192,108449,1,8,0:0:0:0:
254,192,108615,1,8,0:0:0:0:
254,192,108700,1,8,0:0:0:0:
254,192,108782,1,0,0:0:0:0:
254,192,109116,1,8,0:0:0:0:
254,192,109449,1,8,0:0:0:0:
254,192,109532,1,8,0:0:0:0:
254,192,109616,1,8,0:0:0:0:
254,192,109700,1,0,0:0:0:0:
254,192,109783,1,0,0:0:0:0:
254,192,109949,1,0,0:0:0:0:
254,192,110116,1,8,0:0:0:0:
254,192,110450,1,8,0:0:0:0:
254,192,110532,1,0,0:0:0:0:
254,192,110616,1,8,0:0:0:0:
254,192,110949,1,8,0:0:0:0:
254,192,111116,1,8,0:0:0:0:
254,192,111283,1,0,0:0:0:0:
254,192,111450,1,8,0:0:0:0:
254,192,111505,1,8,0:0:0:0:
254,192,111616,1,0,0:0:0:0:
254,192,111672,1,0,0:0:0:0:
254,192,111783,1,8,0:0:0:0:
254,192,111839,1,8,0:0:0:0:
254,192,111950,1,0,0:0:0:0:
254,192,112033,1,0,0:0:0:0:
254,192,112116,1,8,0:0:0:0:
254,192,112200,1,0,0:0:0:0:
254,192,112283,1,8,0:0:0:0:
254,192,112366,1,0,0:0:0:0:
254,192,112450,1,0,0:0:0:0:
254,192,112616,1,0,0:0:0:0:
254,192,112783,1,8,0:0:0:0:
254,192,113116,1,0,0:0:0:0:
254,192,113200,1,0,0:0:0:0:
254,192,113283,1,8,0:0:0:0:
254,192,113616,1,0,0:0:0:0:
254,192,113783,1,8,0:0:0:0:
254,192,113949,1,8,0:0:0:0:
254,192,114032,1,8,0:0:0:0:
254,192,114116,1,0,0:0:0:0:
254,192,114450,1,8,0:0:0:0:
254,192,114783,1,8,0:0:0:0:
254,192,114866,1,0,0:0:0:0:
254,192,114950,1,8,0:0:0:0:
254,192,115034,1,0,0:0:0:0:
254,192,115117,1,0,0:0:0:0:
254,192,115283,1,0,0:0:0:0:
254,192,115450,1,8,0:0:0:0:
254,192,115783,1,8,0:0:0:0:
254,192,115866,1,0,0:0:0:0:
254,192,115950,1,8,0:0:0:0:
254,192,116283,1,0,0:0:0:0:
254,192,116450,1,8,0:0:0:0:
254,192,116616,1,8,0:0:0:0:
254,192,116699,1,8,0:0:0:0:
254,192,116783,1,0,0:0:0:0:
254,192,116866,1,0,0:0:0:0:
254,192,116950,1,0,0:0:0:0:
254,192,117033,1,0,0:0:0:0:
254,192,117117,1,8,0:0:0:0:
254,192,117200,1,8,0:0:0:0:
254,192,117283,1,0,0:0:0:0:
254,192,117366,1,0,0:0:0:0:
254,192,117450,1,8,0:0:0:0:
254,192,117533,1,0,0:0:0:0:
254,192,117617,1,8,0:0:0:0:
254,192,117701,1,0,0:0:0:0:
254,192,117784,1,0,0:0:0:0:
254,192,117950,1,0,0:0:0:0:
254,192,118033,1,0,0:0:0:0:
254,192,118117,1,8,0:0:0:0:
254,192,118283,1,8,0:0:0:0:
254,192,118451,1,0,0:0:0:0:
254,192,118533,1,0,0:0:0:0:
254,192,118617,1,8,0:0:0:0:
254,192,118783,1,0,0:0:0:0:
254,192,118950,1,8,0:0:0:0:
254,192,119033,1,0,0:0:0:0:
254,192,119117,1,8,0:0:0:0:
254,192,119283,1,8,0:0:0:0:
254,192,119366,1,8,0:0:0:0:
254,192,119450,1,0,0:0:0:0:
254,192,119616,1,0,0:0:0:0:
254,192,119783,1,8,0:0:0:0:
254,192,119950,1,0,0:0:0:0:
254,192,120116,1,8,0:0:0:0:
254,192,120200,1,8,0:0:0:0:
254,192,120283,1,8,0:0:0:0:
254,192,120366,1,0,0:0:0:0:
254,192,120450,1,0,0:0:0:0:
254,192,120616,1,0,0:0:0:0:
254,192,120700,1,0,0:0:0:0:
254,192,120783,1,8,0:0:0:0:
254,192,120950,1,0,0:0:0:0:
254,192,121116,1,8,0:0:0:0:
254,192,121199,1,0,0:0:0:0:
254,192,121283,1,8,0:0:0:0:
254,192,121450,1,0,0:0:0:0:
254,192,121616,1,8,0:0:0:0:
254,192,121700,1,8,0:0:0:0:
254,192,121783,1,0,0:0:0:0:
254,192,121950,1,0,0:0:0:0:
254,192,122033,1,0,0:0:0:0:
254,192,122116,1,8,0:0:0:0:
254,192,122283,1,0,0:0:0:0:
254,192,122450,1,8,0:0:0:0:
254,192,122616,1,0,0:0:0:0:
254,192,122783,1,8,0:0:0:0:
254,192,122866,1,0,0:0:0:0:
254,192,122950,1,8,0:0:0:0:
254,192,123033,1,8,0:0:0:0:
254,192,123116,1,0,0:0:0:0:
254,192,123283,1,0,0:0:0:0:
254,192,123367,1,0,0:0:0:0:
254,192,123450,1,8,0:0:0:0:
254,192,123617,1,0,0:0:0:0:
254,192,123783,1,8,0:0:0:0:
254,192,123866,1,0,0:0:0:0:
254,192,123950,1,8,0:0:0:0:
254,192,124117,1,0,0:0:0:0:
254,192,124283,1,8,0:0:0:0:
254,192,124367,1,8,0:0:0:0:
254,192,124450,1,0,0:0:0:0:
254,192,124617,1,0,0:0:0:0:
254,192,124700,1,0,0:0:0:0:
254,192,124783,1,8,0:0:0:0:
254,192,124950,1,0,0:0:0:0:
254,192,125117,1,8,0:0:0:0:
254,192,125283,1,0,0:0:0:0:
254,192,125450,1,8,0:0:0:0:
254,192,125533,1,0,0:0:0:0:
254,192,125617,1,8,0:0:0:0:
254,192,125700,1,8,0:0:0:0:
254,192,125783,1,0,0:0:0:0:
254,192,125950,1,0,0:0:0:0:
254,192,126034,1,0,0:0:0:0:
254,192,126117,1,8,0:0:0:0:
254,192,126200,1,8,0:0:0:0:
254,192,126283,1,0,0:0:0:0:
254,192,126366,1,0,0:0:0:0:
254,192,126450,1,8,0:0:0:0:
254,192,126533,1,8,0:0:0:0:
254,192,126617,1,0,0:0:0:0:
254,192,126700,1,0,0:0:0:0:
254,192,126783,1,0,0:0:0:0:
254,192,127116,1,8,0:0:0:0:
254,192,127200,1,0,0:0:0:0:
254,192,127283,1,8,0:0:0:0:
254,192,127366,1,0,0:0:0:0:
254,192,127450,1,8,0:0:0:0:
254,192,127616,1,4,0:0:0:0:
