osu file format v14

[General]
AudioFilename: audio.mp3
AudioLeadIn: 0
PreviewTime: 64116
Countdown: 0
SampleSet: Normal
StackLeniency: 0.7
Mode: 1
LetterboxInBreaks: 0
WidescreenStoryboard: 1

[Editor]
Bookmarks: 11950
DistanceSpacing: 1
BeatDivisor: 4
GridSize: 8
TimelineZoom: 2.1

[Metadata]
Title:Lonely Storm
TitleUnicode:Lonely Storm
Artist:TSUNKU feat. Clinton Edward Strother
ArtistUnicode:つんく feat. Clinton Edward Strother
Creator:Ognjen3800
Version:Muzukashii
Source:Rhythm Heaven Fever
Tags:Video Game rock English Beat the Beat: Rhythm Paradise Minna no Rhythm Tengoku Karate Man Karate Joe dub Yusuke Itagaki liku Terada Mitsuo 寺田光男 みんなのリズム天国
BeatmapID:3848385
BeatmapSetID:1870449

[Difficulty]
HPDrainRate:6
CircleSize:2
OverallDifficulty:5
ApproachRate:10
SliderMultiplier:1.4
SliderTickRate:1

[Events]
//Background and Video events
0,0,"thumb-1920-658951.jpg",0,40
//Break Periods
//Storyboard Layer 0 (Background)
//Storyboard Layer 1 (Fail)
//Storyboard Layer 2 (Pass)
//Storyboard Layer 3 (Foreground)
//Storyboard Layer 4 (Overlay)
//Storyboard Sound Samples

[TimingPoints]
117,333.333333333333,4,1,0,80,1,0
64116,-95.2380952380952,4,1,0,80,0,1
73450,-95.2380952380952,4,1,0,80,0,0
74783,-95.2380952380952,4,1,0,80,0,1
85450,-95.2380952380952,4,1,0,80,0,0
106617,-100,4,1,0,80,0,0

[HitObjects]
255,192,117,5,8,0:0:0:0:
255,192,283,1,0,0:0:0:0:
255,192,450,1,0,0:0:0:0:
255,192,616,1,0,0:0:0:0:
255,192,783,1,8,0:0:0:0:
255,192,1283,1,8,0:0:0:0:
255,192,1616,1,8,0:0:0:0:
255,192,1700,1,8,0:0:0:0:
255,192,1783,1,8,0:0:0:0:
255,192,1950,1,0,0:0:0:0:
255,192,2116,1,8,0:0:0:0:
255,192,2450,1,8,0:0:0:0:
255,192,2783,1,8,0:0:0:0:
255,192,2950,1,0,0:0:0:0:
255,192,3116,1,0,0:0:0:0:
255,192,3283,1,8,0:0:0:0:
255,192,3450,1,8,0:0:0:0:
255,192,3950,1,8,0:0:0:0:
255,192,4283,1,0,0:0:0:0:
255,192,4366,1,0,0:0:0:0:
255,192,4450,1,0,0:0:0:0:
255,192,4616,1,8,0:0:0:0:
255,192,4783,1,8,0:0:0:0:
255,192,4950,1,0,0:0:0:0:
255,192,5116,1,0,0:0:0:0:
255,192,5450,1,8,0:0:0:0:
255,192,5616,1,0,0:0:0:0:
255,192,5783,1,0,0:0:0:0:
255,192,5950,1,8,0:0:0:0:
255,192,6116,1,8,0:0:0:0:
255,192,6616,1,8,0:0:0:0:
255,192,6950,1,8,0:0:0:0:
255,192,7033,1,8,0:0:0:0:
255,192,7116,1,8,0:0:0:0:
255,192,7283,1,0,0:0:0:0:
255,192,7450,1,8,0:0:0:0:
255,192,7783,1,8,0:0:0:0:
255,192,8116,1,8,0:0:0:0:
255,192,8283,1,0,0:0:0:0:
255,192,8450,1,8,0:0:0:0:
255,192,8616,1,0,0:0:0:0:
255,192,8783,1,8,0:0:0:0:
255,192,9116,1,8,0:0:0:0:
255,192,9450,1,12,0:0:0:0:
255,192,9616,1,4,0:0:0:0:
255,192,9783,1,4,0:0:0:0:
255,192,9950,1,12,0:0:0:0:
255,192,10783,1,8,0:0:0:0:
255,192,10950,1,0,0:0:0:0:
255,192,11033,1,0,0:0:0:0:
255,192,11116,1,0,0:0:0:0:
255,192,11283,1,0,0:0:0:0:
255,192,11450,1,8,0:0:0:0:
255,192,11616,1,0,0:0:0:0:
255,192,11783,1,0,0:0:0:0:
255,192,11950,1,8,0:0:0:0:
255,192,12450,1,8,0:0:0:0:
255,192,12616,1,0,0:0:0:0:
255,192,12783,1,0,0:0:0:0:
255,192,12950,1,8,0:0:0:0:
255,192,13116,1,8,0:0:0:0:
255,192,13283,1,0,0:0:0:0:
255,192,13783,1,8,0:0:0:0:
255,192,13950,1,0,0:0:0:0:
255,192,14033,1,0,0:0:0:0:
255,192,14116,1,0,0:0:0:0:
255,192,14283,1,8,0:0:0:0:
255,192,14449,1,0,0:0:0:0:
255,192,14616,1,8,0:0:0:0:
255,192,14950,1,0,0:0:0:0:
255,192,15116,1,12,0:0:0:0:
255,192,15450,1,12,0:0:0:0:
255,192,15783,1,12,0:0:0:0:
255,192,16116,1,8,0:0:0:0:
255,192,16283,1,0,0:0:0:0:
255,192,16366,1,0,0:0:0:0:
255,192,16449,1,0,0:0:0:0:
255,192,16616,1,8,0:0:0:0:
255,192,16783,1,8,0:0:0:0:
255,192,16949,1,0,0:0:0:0:
255,192,17116,1,0,0:0:0:0:
255,192,17283,1,8,0:0:0:0:
255,192,17783,1,8,0:0:0:0:
255,192,17949,1,0,0:0:0:0:
255,192,18116,1,0,0:0:0:0:
255,192,18283,1,8,0:0:0:0:
255,192,18450,1,8,0:0:0:0:
255,192,18616,1,0,0:0:0:0:
255,192,19116,1,0,0:0:0:0:
255,192,19283,1,8,0:0:0:0:
255,192,19366,1,8,0:0:0:0:
255,192,19449,1,8,0:0:0:0:
255,192,19616,1,8,0:0:0:0:
255,192,19783,1,0,0:0:0:0:
255,192,19949,1,8,0:0:0:0:
255,192,20283,1,0,0:0:0:0:
255,192,20450,1,8,0:0:0:0:
255,192,20783,1,0,0:0:0:0:
255,192,20950,1,8,0:0:0:0:
255,192,21116,1,8,0:0:0:0:
255,192,21283,1,0,0:0:0:0:
255,192,21450,1,12,0:0:0:0:
255,192,21783,1,8,0:0:0:0:
255,192,21950,1,0,0:0:0:0:
255,192,22116,1,8,0:0:0:0:
255,192,22200,1,8,0:0:0:0:
255,192,22283,1,8,0:0:0:0:
255,192,22450,1,0,0:0:0:0:
255,192,22616,1,8,0:0:0:0:
255,192,23116,1,8,0:0:0:0:
255,192,23283,1,0,0:0:0:0:
255,192,23450,1,8,0:0:0:0:
255,192,23617,1,8,0:0:0:0:
255,192,23783,1,0,0:0:0:0:
255,192,23950,1,0,0:0:0:0:
255,192,24116,1,8,0:0:0:0:
255,192,24450,1,0,0:0:0:0:
255,192,24617,1,0,0:0:0:0:
255,192,24783,1,8,0:0:0:0:
255,192,24867,1,8,0:0:0:0:
255,192,24950,1,8,0:0:0:0:
255,192,25117,1,0,0:0:0:0:
255,192,25283,1,8,0:0:0:0:
255,192,25783,1,8,0:0:0:0:
255,192,25949,1,0,0:0:0:0:
255,192,26116,1,8,0:0:0:0:
255,192,26283,1,8,0:0:0:0:
255,192,26450,1,0,0:0:0:0:
255,192,26616,1,0,0:0:0:0:
255,192,26783,1,8,0:0:0:0:
255,192,27116,1,0,0:0:0:0:
255,192,27283,1,8,0:0:0:0:
255,192,27450,1,0,0:0:0:0:
255,192,27616,1,0,0:0:0:0:
255,192,27700,1,0,0:0:0:0:
255,192,27783,1,0,0:0:0:0:
255,192,27950,1,8,0:0:0:0:
255,192,28116,1,0,0:0:0:0:
255,192,28616,1,8,0:0:0:0:
255,192,28783,1,8,0:0:0:0:
255,192,28950,1,0,0:0:0:0:
255,192,29116,1,8,0:0:0:0:
255,192,29450,1,8,0:0:0:0:
255,192,29616,1,0,0:0:0:0:
255,192,29783,1,8,0:0:0:0:
255,192,29950,1,0,0:0:0:0:
255,192,30116,1,8,0:0:0:0:
255,192,30283,1,8,0:0:0:0:
255,192,30450,1,0,0:0:0:0:
255,192,30616,1,0,0:0:0:0:
255,192,31116,1,8,0:0:0:0:
255,192,31200,1,8,0:0:0:0:
255,192,31283,1,8,0:0:0:0:
255,192,31450,1,0,0:0:0:0:
255,192,31616,1,12,0:0:0:0:
255,192,32116,1,8,0:0:0:0:
255,192,32450,1,0,0:0:0:0:
255,192,32533,1,0,0:0:0:0:
255,192,32616,1,8,0:0:0:0:
255,192,32950,1,12,0:0:0:0:
255,192,33450,1,8,0:0:0:0:
255,192,33783,1,0,0:0:0:0:
255,192,33866,1,0,0:0:0:0:
255,192,33950,1,0,0:0:0:0:
255,192,34283,1,12,0:0:0:0:
255,192,34783,1,8,0:0:0:0:
255,192,34950,1,0,0:0:0:0:
255,192,35116,1,8,0:0:0:0:
255,192,35200,1,8,0:0:0:0:
255,192,35283,1,8,0:0:0:0:
255,192,35450,1,0,0:0:0:0:
255,192,35616,1,0,0:0:0:0:
255,192,35950,1,8,0:0:0:0:
255,192,36116,1,8,0:0:0:0:
255,192,36283,1,0,0:0:0:0:
255,192,36450,1,0,0:0:0:0:
255,192,36616,1,8,0:0:0:0:
255,192,36783,1,0,0:0:0:0:
255,192,36950,1,12,0:0:0:0:
255,192,37450,1,8,0:0:0:0:
255,192,37784,1,8,0:0:0:0:
255,192,37867,1,8,0:0:0:0:
255,192,37950,1,0,0:0:0:0:
255,192,38284,1,12,0:0:0:0:
255,192,38784,1,8,0:0:0:0:
255,192,39117,1,0,0:0:0:0:
255,192,39200,1,0,0:0:0:0:
255,192,39284,1,0,0:0:0:0:
255,192,39617,1,12,0:0:0:0:
255,192,40117,1,8,0:0:0:0:
255,192,40284,1,0,0:0:0:0:
255,192,40450,1,8,0:0:0:0:
255,192,40534,1,8,0:0:0:0:
255,192,40617,1,8,0:0:0:0:
255,192,40784,1,0,0:0:0:0:
255,192,40950,1,0,0:0:0:0:
255,192,41283,1,8,0:0:0:0:
255,192,41450,1,8,0:0:0:0:
255,192,41617,1,0,0:0:0:0:
255,192,41784,1,8,0:0:0:0:
255,192,41950,1,8,0:0:0:0:
255,192,42117,1,0,0:0:0:0:
255,192,42284,1,12,0:0:0:0:
255,192,42783,1,8,0:0:0:0:
255,192,42950,1,0,0:0:0:0:
255,192,43033,1,0,0:0:0:0:
255,192,43116,1,0,0:0:0:0:
255,192,43283,1,0,0:0:0:0:
255,192,43450,1,8,0:0:0:0:
255,192,43616,1,8,0:0:0:0:
255,192,43783,1,0,0:0:0:0:
255,192,43950,1,8,0:0:0:0:
255,192,44450,1,8,0:0:0:0:
255,192,44616,1,0,0:0:0:0:
255,192,44783,1,8,0:0:0:0:
255,192,44950,1,8,0:0:0:0:
255,192,45116,1,0,0:0:0:0:
255,192,45283,1,0,0:0:0:0:
255,192,45450,1,8,0:0:0:0:
255,192,46116,1,8,0:0:0:0:
255,192,46200,1,8,0:0:0:0:
255,192,46283,1,8,0:0:0:0:
255,192,46449,1,0,0:0:0:0:
255,192,46616,1,8,0:0:0:0:
255,192,46950,1,0,0:0:0:0:
255,192,47116,1,12,0:0:0:0:
255,192,47450,1,12,0:0:0:0:
255,192,47783,1,12,0:0:0:0:
255,192,48116,1,8,0:0:0:0:
255,192,48283,1,0,0:0:0:0:
255,192,48449,1,0,0:0:0:0:
255,192,48616,1,8,0:0:0:0:
255,192,48783,1,8,0:0:0:0:
255,192,48950,1,0,0:0:0:0:
255,192,49116,1,0,0:0:0:0:
255,192,49450,1,0,0:0:0:0:
255,192,49616,1,8,0:0:0:0:
255,192,49783,1,8,0:0:0:0:
255,192,49949,1,0,0:0:0:0:
255,192,50033,1,0,0:0:0:0:
255,192,50116,1,0,0:0:0:0:
255,192,50283,1,8,0:0:0:0:
255,192,50450,1,8,0:0:0:0:
255,192,50616,1,0,0:0:0:0:
255,192,50783,1,8,0:0:0:0:
255,192,51450,1,0,0:0:0:0:
255,192,51533,1,0,0:0:0:0:
255,192,51616,1,0,0:0:0:0:
255,192,51783,1,0,0:0:0:0:
255,192,51950,1,8,0:0:0:0:
255,192,52283,1,0,0:0:0:0:
255,192,52450,1,8,0:0:0:0:
255,192,52533,1,8,0:0:0:0:
255,192,52616,1,8,0:0:0:0:
255,192,52783,1,0,0:0:0:0:
255,192,52950,1,12,0:0:0:0:
255,192,53450,1,8,0:0:0:0:
255,192,53617,1,0,0:0:0:0:
255,192,53783,1,8,0:0:0:0:
255,192,53950,1,0,0:0:0:0:
255,192,54117,1,8,0:0:0:0:
255,192,54200,1,8,0:0:0:0:
255,192,54283,1,8,0:0:0:0:
255,192,54450,1,0,0:0:0:0:
255,192,54617,1,8,0:0:0:0:
255,192,55117,1,8,0:0:0:0:
255,192,55283,1,0,0:0:0:0:
255,192,55450,1,8,0:0:0:0:
255,192,55617,1,8,0:0:0:0:
255,192,55783,1,0,0:0:0:0:
255,192,55950,1,0,0:0:0:0:
255,192,56117,1,8,0:0:0:0:
255,192,56783,1,8,0:0:0:0:
255,192,56867,1,8,0:0:0:0:
255,192,56950,1,8,0:0:0:0:
255,192,57116,1,0,0:0:0:0:
255,192,57283,1,8,0:0:0:0:
255,192,57617,1,0,0:0:0:0:
255,192,57783,1,8,0:0:0:0:
255,192,57866,1,8,0:0:0:0:
255,192,57950,1,8,0:0:0:0:
255,192,58116,1,0,0:0:0:0:
255,192,58283,1,12,0:0:0:0:
255,192,58783,1,8,0:0:0:0:
255,192,58950,1,0,0:0:0:0:
255,192,59033,1,0,0:0:0:0:
255,192,59116,1,0,0:0:0:0:
255,192,59283,1,8,0:0:0:0:
255,192,59450,1,8,0:0:0:0:
255,192,59616,1,0,0:0:0:0:
255,192,59783,1,8,0:0:0:0:
255,192,59950,1,0,0:0:0:0:
255,192,60450,1,8,0:0:0:0:
255,192,60616,1,0,0:0:0:0:
255,192,60783,1,8,0:0:0:0:
255,192,60866,1,8,0:0:0:0:
255,192,60950,1,8,0:0:0:0:
255,192,61116,1,0,0:0:0:0:
255,192,61283,1,0,0:0:0:0:
255,192,61783,1,8,0:0:0:0:
255,192,61866,1,8,0:0:0:0:
255,192,61950,1,8,0:0:0:0:
255,192,62116,1,0,0:0:0:0:
255,192,62283,1,8,0:0:0:0:
255,192,62450,1,0,0:0:0:0:
255,192,62616,1,8,0:0:0:0:
255,192,62950,1,0,0:0:0:0:
255,192,63116,1,8,0:0:0:0:
255,192,63200,1,8,0:0:0:0:
255,192,63283,1,8,0:0:0:0:
255,192,63450,1,0,0:0:0:0:
255,192,63616,1,12,0:0:0:0:
255,192,64116,1,8,0:0:0:0:
255,192,64283,1,0,0:0:0:0:
255,192,64366,1,0,0:0:0:0:
255,192,64450,1,0,0:0:0:0:
255,192,64616,1,8,0:0:0:0:
255,192,64783,1,0,0:0:0:0:
255,192,64950,1,0,0:0:0:0:
255,192,65116,1,8,0:0:0:0:
255,192,65450,1,8,0:0:0:0:
255,192,65616,1,0,0:0:0:0:
255,192,65783,1,0,0:0:0:0:
255,192,65950,1,8,0:0:0:0:
255,192,66033,1,8,0:0:0:0:
255,192,66116,1,8,0:0:0:0:
255,192,66283,1,0,0:0:0:0:
255,192,66450,1,8,0:0:0:0:
255,192,66616,1,0,0:0:0:0:
255,192,66783,1,8,0:0:0:0:
255,192,67116,1,0,0:0:0:0:
255,192,67283,1,8,0:0:0:0:
255,192,67450,1,0,0:0:0:0:
255,192,67533,1,0,0:0:0:0:
255,192,67616,1,0,0:0:0:0:
255,192,67783,1,8,0:0:0:0:
255,192,67950,1,0,0:0:0:0:
255,192,68116,1,8,0:0:0:0:
255,192,68283,1,8,0:0:0:0:
255,192,68366,1,8,0:0:0:0:
255,192,68450,1,8,0:0:0:0:
255,192,68616,1,0,0:0:0:0:
255,192,68783,1,8,0:0:0:0:
255,192,69450,1,8,0:0:0:0:
255,192,69616,1,0,0:0:0:0:
255,192,69699,1,0,0:0:0:0:
255,192,69783,1,0,0:0:0:0:
255,192,69949,1,8,0:0:0:0:
255,192,70116,1,8,0:0:0:0:
255,192,70283,1,0,0:0:0:0:
255,192,70449,1,8,0:0:0:0:
255,192,70783,1,0,0:0:0:0:
255,192,70949,1,8,0:0:0:0:
255,192,71116,1,8,0:0:0:0:
255,192,71283,1,0,0:0:0:0:
255,192,71366,1,0,0:0:0:0:
255,192,71449,1,0,0:0:0:0:
255,192,71616,1,8,0:0:0:0:
255,192,71783,1,0,0:0:0:0:
255,192,72116,1,8,0:0:0:0:
255,192,72283,1,0,0:0:0:0:
255,192,72450,1,8,0:0:0:0:
255,192,72533,1,8,0:0:0:0:
255,192,72616,1,8,0:0:0:0:
255,192,72783,1,0,0:0:0:0:
255,192,72949,1,8,0:0:0:0:
255,192,73116,1,0,0:0:0:0:
255,192,73283,1,0,0:0:0:0:
255,192,73449,1,12,0:0:0:0:
255,192,73783,1,12,0:0:0:0:
255,192,74116,1,4,0:0:0:0:
255,192,74450,1,4,0:0:0:0:
255,192,74783,1,8,0:0:0:0:
255,192,74950,1,0,0:0:0:0:
255,192,75033,1,0,0:0:0:0:
255,192,75117,1,0,0:0:0:0:
255,192,75283,1,8,0:0:0:0:
255,192,75450,1,8,0:0:0:0:
255,192,75617,1,0,0:0:0:0:
255,192,75783,1,8,0:0:0:0:
255,192,76117,1,0,0:0:0:0:
255,192,76283,1,8,0:0:0:0:
255,192,76450,1,0,0:0:0:0:
255,192,76616,1,0,0:0:0:0:
255,192,76783,1,8,0:0:0:0:
255,192,76866,1,8,0:0:0:0:
255,192,76950,1,8,0:0:0:0:
255,192,77116,1,0,0:0:0:0:
255,192,77283,1,0,0:0:0:0:
255,192,77450,1,8,0:0:0:0:
255,192,77783,1,0,0:0:0:0:
255,192,77950,1,8,0:0:0:0:
255,192,78117,1,0,0:0:0:0:
255,192,78200,1,0,0:0:0:0:
255,192,78283,1,0,0:0:0:0:
255,192,78450,1,8,0:0:0:0:
255,192,78617,1,0,0:0:0:0:
255,192,79117,1,8,0:0:0:0:
255,192,79200,1,8,0:0:0:0:
255,192,79284,1,8,0:0:0:0:
255,192,79450,1,0,0:0:0:0:
255,192,79617,1,12,0:0:0:0:
255,192,80116,1,8,0:0:0:0:
255,192,80283,1,0,0:0:0:0:
255,192,80366,1,0,0:0:0:0:
255,192,80449,1,0,0:0:0:0:
255,192,80616,1,8,0:0:0:0:
255,192,80783,1,0,0:0:0:0:
255,192,80949,1,8,0:0:0:0:
255,192,81116,1,8,0:0:0:0:
255,192,81283,1,0,0:0:0:0:
255,192,81616,1,0,0:0:0:0:
255,192,81783,1,8,0:0:0:0:
255,192,81950,1,0,0:0:0:0:
255,192,82116,1,8,0:0:0:0:
255,192,82200,1,8,0:0:0:0:
255,192,82283,1,8,0:0:0:0:
255,192,82450,1,0,0:0:0:0:
255,192,82616,1,0,0:0:0:0:
255,192,83116,1,12,0:0:0:0:
255,192,83450,1,12,0:0:0:0:
255,192,83783,1,12,0:0:0:0:
255,192,84450,1,12,0:0:0:0:
255,192,84784,1,12,0:0:0:0:
255,192,85117,1,12,0:0:0:0:
255,192,85450,1,8,0:0:0:0:
255,192,85950,1,8,0:0:0:0:
255,192,86033,1,8,0:0:0:0:
255,192,86116,1,8,0:0:0:0:
255,192,86366,1,8,0:0:0:0:
255,192,86616,1,8,0:0:0:0:
255,192,86783,1,8,0:0:0:0:
255,192,86950,1,0,0:0:0:0:
255,192,87116,1,8,0:0:0:0:
255,192,87283,1,0,0:0:0:0:
255,192,87616,1,0,0:0:0:0:
255,192,87783,1,8,0:0:0:0:
255,192,87950,1,0,0:0:0:0:
255,192,88116,1,8,0:0:0:0:
255,192,88200,1,8,0:0:0:0:
255,192,88283,1,8,0:0:0:0:
255,192,88450,1,0,0:0:0:0:
255,192,88616,1,8,0:0:0:0:
255,192,88783,1,0,0:0:0:0:
255,192,88950,1,8,0:0:0:0:
255,192,89033,1,8,0:0:0:0:
255,192,89116,1,8,0:0:0:0:
255,192,89283,1,8,0:0:0:0:
255,192,89616,1,0,0:0:0:0:
255,192,89783,1,8,0:0:0:0:
255,192,89950,1,8,0:0:0:0:
255,192,90616,1,8,0:0:0:0:
255,192,90950,1,0,0:0:0:0:
255,192,91116,1,8,0:0:0:0:
255,192,91200,1,8,0:0:0:0:
255,192,91283,1,8,0:0:0:0:
255,192,91450,1,0,0:0:0:0:
255,192,91533,1,0,0:0:0:0:
255,192,91616,1,0,0:0:0:0:
255,192,91783,1,8,0:0:0:0:
255,192,91950,1,0,0:0:0:0:
255,192,92116,1,8,0:0:0:0:
255,192,92366,1,8,0:0:0:0:
255,192,92616,1,8,0:0:0:0:
255,192,92783,1,8,0:0:0:0:
255,192,93033,1,0,0:0:0:0:
255,192,93283,1,8,0:0:0:0:
255,192,93450,1,0,0:0:0:0:
255,192,93616,1,8,0:0:0:0:
255,192,93700,1,8,0:0:0:0:
255,192,93783,1,8,0:0:0:0:
255,192,93950,1,0,0:0:0:0:
255,192,94116,1,8,0:0:0:0:
255,192,94450,1,0,0:0:0:0:
255,192,94616,1,8,0:0:0:0:
255,192,94783,1,0,0:0:0:0:
255,192,94950,1,8,0:0:0:0:
255,192,95116,1,0,0:0:0:0:
255,192,95283,1,8,0:0:0:0:
255,192,95450,1,8,0:0:0:0:
255,192,95950,1,8,0:0:0:0:
255,192,96033,1,8,0:0:0:0:
255,192,96116,1,8,0:0:0:0:
255,192,96283,1,0,0:0:0:0:
255,192,96450,1,8,0:0:0:0:
255,192,96616,1,0,0:0:0:0:
255,192,96700,1,0,0:0:0:0:
255,192,96783,1,0,0:0:0:0:
255,192,96950,1,8,0:0:0:0:
255,192,97116,1,8,0:0:0:0:
255,192,97200,1,8,0:0:0:0:
255,192,97283,1,8,0:0:0:0:
255,192,97450,1,0,0:0:0:0:
255,192,97616,1,0,0:0:0:0:
255,192,97783,1,8,0:0:0:0:
255,192,97950,1,0,0:0:0:0:
255,192,98033,1,0,0:0:0:0:
255,192,98116,1,0,0:0:0:0:
255,192,98783,1,8,0:0:0:0:
255,192,98950,1,0,0:0:0:0:
255,192,99116,1,8,0:0:0:0:
255,192,99200,1,8,0:0:0:0:
255,192,99283,1,8,0:0:0:0:
255,192,99450,1,0,0:0:0:0:
255,192,99533,1,0,0:0:0:0:
255,192,99616,1,0,0:0:0:0:
255,192,99783,1,8,0:0:0:0:
255,192,99950,1,0,0:0:0:0:
255,192,100116,1,8,0:0:0:0:
255,192,100200,1,8,0:0:0:0:
255,192,100283,1,8,0:0:0:0:
255,192,100450,1,0,0:0:0:0:
255,192,100617,1,8,0:0:0:0:
255,192,100950,1,8,0:0:0:0:
255,192,101616,1,8,0:0:0:0:
255,192,101783,1,0,0:0:0:0:
255,192,101950,1,0,0:0:0:0:
255,192,102116,1,8,0:0:0:0:
255,192,102200,1,8,0:0:0:0:
255,192,102283,1,8,0:0:0:0:
255,192,102450,1,0,0:0:0:0:
255,192,102616,1,8,0:0:0:0:
255,192,102783,1,8,0:0:0:0:
255,192,102950,1,0,0:0:0:0:
255,192,103033,1,0,0:0:0:0:
255,192,103116,1,0,0:0:0:0:
255,192,103283,1,8,0:0:0:0:
255,192,103616,1,0,0:0:0:0:
255,192,103783,1,8,0:0:0:0:
255,192,103950,1,8,0:0:0:0:
255,192,104116,1,0,0:0:0:0:
255,192,104200,1,0,0:0:0:0:
255,192,104283,1,0,0:0:0:0:
255,192,104450,1,12,0:0:0:0:
255,192,104783,1,12,0:0:0:0:
255,192,105116,1,12,0:0:0:0:
255,192,105783,1,12,0:0:0:0:
255,192,106116,1,12,0:0:0:0:
255,192,106450,1,12,0:0:0:0:
255,192,106783,1,8,0:0:0:0:
255,192,106950,1,0,0:0:0:0:
255,192,107116,1,0,0:0:0:0:
255,192,107283,1,8,0:0:0:0:
255,192,107450,1,8,0:0:0:0:
255,192,107950,1,8,0:0:0:0:
255,192,108283,1,8,0:0:0:0:
255,192,108367,1,8,0:0:0:0:
255,192,108450,1,8,0:0:0:0:
255,192,108617,1,0,0:0:0:0:
255,192,108783,1,8,0:0:0:0:
255,192,109117,1,8,0:0:0:0:
255,192,109450,1,8,0:0:0:0:
255,192,109617,1,0,0:0:0:0:
255,192,109783,1,0,0:0:0:0:
255,192,109950,1,8,0:0:0:0:
255,192,110117,1,8,0:0:0:0:
255,192,110617,1,8,0:0:0:0:
255,192,110950,1,8,0:0:0:0:
255,192,111117,1,8,0:0:0:0:
255,192,111283,1,0,0:0:0:0:
255,192,111450,1,8,0:0:0:0:
255,192,111950,1,8,0:0:0:0:
255,192,112033,1,8,0:0:0:0:
255,192,112116,1,8,0:0:0:0:
255,192,112283,1,0,0:0:0:0:
255,192,112450,1,0,0:0:0:0:
255,192,112616,1,8,0:0:0:0:
255,192,112783,1,8,0:0:0:0:
255,192,113283,1,8,0:0:0:0:
255,192,113616,1,8,0:0:0:0:
255,192,113700,1,8,0:0:0:0:
255,192,113783,1,8,0:0:0:0:
255,192,113950,1,0,0:0:0:0:
255,192,114116,1,8,0:0:0:0:
255,192,114450,1,8,0:0:0:0:
255,192,114783,1,8,0:0:0:0:
255,192,114950,1,8,0:0:0:0:
255,192,115116,1,0,0:0:0:0:
255,192,115283,1,8,0:0:0:0:
255,192,115450,1,8,0:0:0:0:
255,192,115950,1,8,0:0:0:0:
255,192,116283,1,0,0:0:0:0:
255,192,116450,1,8,0:0:0:0:
255,192,116616,1,0,0:0:0:0:
255,192,116783,1,8,0:0:0:0:
255,192,116950,1,0,0:0:0:0:
255,192,117116,1,0,0:0:0:0:
255,192,117200,1,0,0:0:0:0:
255,192,117283,1,0,0:0:0:0:
255,192,117450,1,8,0:0:0:0:
255,192,117616,1,0,0:0:0:0:
255,192,117950,1,8,0:0:0:0:
255,192,118116,1,8,0:0:0:0:
255,192,118283,1,0,0:0:0:0:
255,192,118450,1,8,0:0:0:0:
255,192,118616,1,8,0:0:0:0:
255,192,119116,1,8,0:0:0:0:
255,192,119200,1,8,0:0:0:0:
255,192,119283,1,8,0:0:0:0:
255,192,119450,1,0,0:0:0:0:
255,192,119616,1,0,0:0:0:0:
255,192,119783,1,8,0:0:0:0:
255,192,119950,1,0,0:0:0:0:
255,192,120116,1,8,0:0:0:0:
255,192,120283,1,0,0:0:0:0:
255,192,120616,1,8,0:0:0:0:
255,192,120783,1,8,0:0:0:0:
255,192,120950,1,0,0:0:0:0:
255,192,121116,1,8,0:0:0:0:
255,192,121283,1,8,0:0:0:0:
255,192,121783,1,8,0:0:0:0:
255,192,121866,1,8,0:0:0:0:
255,192,121950,1,8,0:0:0:0:
255,192,122116,1,0,0:0:0:0:
255,192,122283,1,8,0:0:0:0:
255,192,122450,1,8,0:0:0:0:
255,192,122616,1,0,0:0:0:0:
255,192,122783,1,8,0:0:0:0:
255,192,122950,1,0,0:0:0:0:
255,192,123283,1,8,0:0:0:0:
255,192,123450,1,8,0:0:0:0:
255,192,123616,1,0,0:0:0:0:
255,192,123783,1,8,0:0:0:0:
255,192,123950,1,8,0:0:0:0:
255,192,124450,1,8,0:0:0:0:
255,192,124533,1,8,0:0:0:0:
255,192,124616,1,8,0:0:0:0:
255,192,124783,1,0,0:0:0:0:
255,192,124950,1,0,0:0:0:0:
255,192,125116,1,8,0:0:0:0:
255,192,125283,1,0,0:0:0:0:
255,192,125450,1,8,0:0:0:0:
255,192,125616,1,8,0:0:0:0:
255,192,125950,1,0,0:0:0:0:
255,192,126116,1,8,0:0:0:0:
255,192,126283,1,0,0:0:0:0:
255,192,126450,1,8,0:0:0:0:
255,192,126616,1,0,0:0:0:0:
255,192,126700,1,0,0:0:0:0:
255,192,126783,1,0,0:0:0:0:
255,192,127116,1,8,0:0:0:0:
255,192,127200,1,8,0:0:0:0:
255,192,127283,1,8,0:0:0:0:
255,192,127450,1,8,0:0:0:0:
255,192,127616,1,4,0:0:0:0:
