osu file format v14

[General]
AudioFilename: audio.mp3
AudioLeadIn: 0
PreviewTime: 10393
Countdown: 0
SampleSet: Soft
StackLeniency: 0.5
Mode: 0
LetterboxInBreaks: 0
WidescreenStoryboard: 1

[Editor]
DistanceSpacing: 0.9
BeatDivisor: 4
GridSize: 4
TimelineZoom: 1.9

[Metadata]
Title:Shugyou no Thema
TitleUnicode:しゅぎょうのテーマ
Artist:TSUNKU
ArtistUnicode:つんく
Creator:Naotoshi
Version:unko's Insane
Source:リズム天国ゴールド
Tags:diraimur diri antares- antares alexefer armin frostwich akitoshi corinn unko a_r_m_i_n alphabet nintendo rhythm heaven tengoku paradise gold munchy monk ds vgm
BeatmapID:1400621
BeatmapSetID:660914

[Difficulty]
HPDrainRate:6.4
CircleSize:4
OverallDifficulty:8.5
ApproachRate:9.2
SliderMultiplier:1.7
SliderTickRate:1

[Events]
//Background and Video events
0,0,"munchy_monk_by_driftermanifesto.jpg",0,0
//Break Periods
//Storyboard Layer 0 (Background)
//Storyboard Layer 1 (Fail)
//Storyboard Layer 2 (Pass)
//Storyboard Layer 3 (Foreground)
//Storyboard Sound Samples

[TimingPoints]
314,317.460317460317,4,2,1,65,1,0
30790,-100,4,2,1,65,0,1
35869,-100,4,2,1,65,0,0
38409,-76.9230769230769,4,2,1,75,0,1
40155,-76.9230769230769,4,2,1,75,0,0

[Colours]
Combo1 : 36,173,219
Combo2 : 250,205,69
Combo3 : 254,66,56
Combo4 : 51,215,146

[HitObjects]
363,207,314,5,4,1:0:0:0:
160,176,472,1,2,0:0:0:0:
160,176,790,5,0,0:0:0:0:
363,207,948,1,2,0:0:0:0:
241,299,1266,5,0,0:0:0:0:
272,96,1425,1,2,0:0:0:0:
272,96,1742,5,0,0:0:0:0:
241,299,1901,1,2,0:0:0:0:
145,173,2377,5,2,0:0:0:0:
363,207,2536,2,0,L|248:216,1,85,2|0,0:0|0:0,0:0:0:0:
132,304,2853,5,4,1:0:0:0:
200,72,3012,1,2,0:0:0:0:
200,72,3329,5,0,0:0:0:0:
132,304,3488,1,2,0:0:0:0:
387,116,3806,6,0,L|284:122,1,85,0|2,0:0|0:0,0:0:0:0:
164,180,4123,1,8,0:0:0:0:
164,180,4202,1,0,3:0:0:0:
164,180,4282,1,4,3:0:0:0:
346,327,4440,5,4,1:0:0:0:
279,40,4758,1,2,1:3:0:0:
164,180,4917,1,0,1:0:0:0:
449,271,5393,5,0,0:0:0:0:
277,239,5552,1,0,1:0:0:0:
277,239,5869,5,0,0:0:0:0:
449,271,6028,1,0,3:0:0:0:
338,349,6345,5,0,0:0:0:0:
370,177,6504,1,0,1:0:0:0:
370,177,6821,5,0,1:0:0:0:
338,349,6980,1,0,0:0:0:0:
320,261,7298,5,0,0:0:0:0:
467,185,7456,1,0,1:0:0:0:
281,122,7615,1,0,0:0:0:0:
467,185,7774,1,0,0:0:0:0:
320,261,7933,6,0,L|405:258,1,85,4|0,1:2|0:0,0:0:0:0:
236,164,8250,2,0,L|321:161,1,85,4|0,1:2|0:0,0:0:0:0:
238,250,8567,1,4,1:2:0:0:
255,79,8726,1,0,0:0:0:0:
133,171,8885,1,4,1:2:0:0:
352,262,9044,1,0,0:0:0:0:
127,303,9202,5,0,1:0:0:0:
192,19,9361,1,4,0:0:0:0:
343,189,9520,1,4,0:0:0:0:
57,131,9679,1,4,0:0:0:0:
458,208,9996,5,0,0:0:0:0:
458,208,10075,1,0,0:0:0:0:
458,208,10155,1,8,0:0:0:0:
488,44,10472,6,0,P|450:36|395:48,1,85,6|0,0:0|0:0,0:0:0:0:
198,133,10790,1,8,0:0:0:0:
384,133,10948,1,0,0:0:0:0:
233,20,11107,1,2,0:0:0:0:
261,230,11266,1,2,0:0:0:0:
396,134,11425,1,8,0:0:0:0:
198,133,11583,2,0,L|13:138,1,170,2|0,0:0|0:0,0:0:0:0:
124,222,12060,6,0,L|209:225,1,85,8|0,0:0|0:0,0:0:0:0:
28,49,12377,1,2,0:0:0:0:
22,230,12536,1,0,0:0:0:0:
113,135,12694,2,0,L|203:132,1,85,8|0,0:0|0:0,0:0:0:0:
278,325,13012,6,0,L|161:327,1,85,2|0,0:0|0:0,0:0:0:0:
86,290,13329,1,8,0:0:0:0:
261,240,13488,1,0,0:0:0:0:
72,270,13647,1,2,0:0:0:0:
284,246,13806,1,2,0:0:0:0:
166,143,13964,2,0,L|173:264,1,85,8|0,0:0|0:0,0:0:0:0:
468,292,14282,6,0,P|404:282|332:351,1,170,6|8,0:0|0:0,0:0:0:0:
460,192,14758,2,0,L|475:402,1,170,6|0,0:0|0:0,0:0:0:0:
336,212,15234,1,8,0:0:0:0:
506,100,15393,1,0,0:0:0:0:
241,113,15552,6,0,L|366:105,1,85,6|0,0:0|0:0,0:0:0:0:
72,78,15869,1,8,0:0:0:0:
213,32,16028,1,0,0:0:0:0:
274,219,16187,1,2,0:0:0:0:
144,246,16345,2,0,L|59:240,1,85,2|8,0:0|0:0,0:0:0:0:
210,129,16663,2,0,P|298:111|363:157,1,170,2|0,0:0|0:0,0:0:0:0:
432,252,17139,6,0,P|445:295|426:362,1,85,8|0,0:0|0:0,0:0:0:0:
363,357,17456,1,2,0:0:0:0:
360,153,17615,1,0,0:0:0:0:
265,295,17774,2,0,L|149:299,1,85,8|0,0:0|0:0,0:0:0:0:
17,202,18091,6,0,L|102:205,1,85,2|0,0:0|0:0,0:0:0:0:
20,342,18409,1,8,0:0:0:0:
20,342,18567,1,0,0:0:0:0:
195,202,18726,1,2,0:0:0:0:
180,297,18885,1,0,0:0:0:0:
111,110,19044,1,8,0:0:0:0:
101,204,19202,1,0,0:0:0:0:
23,28,19361,6,0,L|122:24,1,85,2|0,0:0|0:0,0:0:0:0:
235,36,19679,1,8,0:0:0:0:
280,147,19837,2,0,P|238:153|197:141,1,85,2|0,0:0|0:0,0:0:0:0:
111,110,20154,5,2,0:0:0:0:
268,254,20313,1,8,0:0:0:0:
272,69,20472,1,10,0:0:0:0:
370,207,20631,6,0,L|375:38,1,170,4|8,0:0|0:0,0:0:0:0:
443,339,21107,1,0,0:0:0:0:
471,143,21266,2,0,L|469:35,1,85,2|2,0:0|0:0,0:0:0:0:
371,245,21583,1,8,0:0:0:0:
175,344,21742,2,0,P|249:378|323:343,1,170,2|0,0:0|0:0,0:0:0:0:
251,200,22218,6,0,L|248:285,1,85,8|0,0:0|0:0,0:0:0:0:
166,80,22536,1,2,0:0:0:0:
166,211,22694,1,0,0:0:0:0:
260,33,22853,2,0,L|256:117,1,85,8|0,0:0|0:0,0:0:0:0:
10,149,23171,6,0,P|52:143|94:150,1,85,2|0,0:0|0:0,0:0:0:0:
197,251,23488,1,8,0:0:0:0:
38,235,23647,1,0,0:0:0:0:
181,145,23806,1,2,0:0:0:0:
141,331,23964,1,2,0:0:0:0:
284,309,24123,5,8,0:0:0:0:
113,237,24282,1,0,0:0:0:0:
420,228,24440,6,0,P|343:197|259:227,1,170,4|8,0:0|0:0,0:0:0:0:
467,296,24917,2,0,P|501:225|453:149,1,170,4|0,0:0|0:0,0:0:0:0:
352,121,25393,1,8,0:0:0:0:
363,328,25552,1,0,0:0:0:0:
250,243,25710,6,0,L|421:227,1,170,4|8,0:0|0:0,0:0:0:0:
301,148,26187,2,0,L|472:132,1,170,4|0,0:0|0:0,0:0:0:0:
257,47,26663,1,8,0:0:0:0:
284,240,26821,1,2,0:0:0:0:
162,7,26980,6,0,L|177:195,1,170,4|8,0:0|0:0,0:0:0:0:
92,63,27456,2,0,P|184:94|245:41,1,170,4|2,0:0|0:0,0:0:0:0:
162,7,27933,1,8,0:0:0:0:
185,254,28091,1,2,0:0:0:0:
78,178,28250,6,0,L|-32:178,1,85,6|0,0:0|0:0,0:0:0:0:
257,171,28567,1,8,0:0:0:0:
85,273,28726,2,0,P|170:302|240:254,1,170,4|0,0:0|0:0,0:0:0:0:
156,208,29202,1,8,0:0:0:0:
162,376,29361,1,0,0:0:0:0:
257,171,29520,6,0,L|259:86,1,85,4|0,0:0|0:0,0:0:0:0:
327,305,29837,1,8,0:0:0:0:
485,171,29996,2,0,P|433:154|341:216,1,170,4|8,0:0|0:0,0:0:0:0:
456,73,30472,5,8,0:0:0:0:
456,73,30552,1,8,0:0:0:0:
456,73,30631,1,8,0:0:0:0:
456,73,30710,1,8,0:0:0:0:
456,73,30790,6,0,L|348:62,1,85,4|0,0:0|0:0,0:0:0:0:
400,180,31107,2,0,L|484:171,1,85,8|0,0:0|0:0,0:0:0:0:
298,209,31425,5,0,0:0:0:0:
511,280,31583,1,0,0:0:0:0:
390,295,31742,2,0,L|305:303,1,85,8|0,0:0|0:0,0:0:0:0:
301,136,32060,5,0,0:0:0:0:
241,359,32218,1,0,0:0:0:0:
420,292,32377,1,8,0:0:0:0:
219,232,32536,1,0,0:0:0:0:
416,186,32694,1,0,0:0:0:0:
246,106,32853,1,0,0:0:0:0:
337,354,33012,1,8,0:0:0:0:
54,90,33329,6,0,L|43:198,1,85,4|0,0:0|0:0,0:0:0:0:
161,146,33647,2,0,L|152:62,1,85,8|0,0:0|0:0,0:0:0:0:
190,248,33964,5,0,0:0:0:0:
261,35,34123,1,0,0:0:0:0:
276,156,34282,2,0,L|284:241,1,85,8|0,0:0|0:0,0:0:0:0:
117,245,34599,5,0,0:0:0:0:
340,305,34758,1,0,0:0:0:0:
273,126,34917,1,8,0:0:0:0:
213,327,35075,1,0,0:0:0:0:
167,130,35234,1,0,0:0:0:0:
87,300,35393,1,0,0:0:0:0:
335,209,35552,1,8,0:0:0:0:
2,306,35869,6,0,L|116:297,1,85,4|0,0:0|0:0,0:0:0:0:
185,313,36187,1,8,0:0:0:0:
1,212,36345,2,0,L|207:228,1,170
262,256,36821,1,8,0:0:0:0:
143,321,36980,1,0,0:0:0:0:
215,65,37139,6,0,L|213:185,1,85,4|0,0:0|0:0,0:0:0:0:
350,226,37456,2,0,L|351:310,1,85,8|0,0:0|0:0,0:0:0:0:
307,100,37774,1,0,0:0:0:0:
245,249,37933,1,0,0:0:0:0:
438,190,38091,1,8,0:0:0:0:
387,15,38250,1,0,0:0:0:0:
196,104,38409,6,0,L|334:99,1,110.499994941712,4|0,0:0|0:0,0:0:0:0:
59,55,38726,1,8,0:0:0:0:
148,248,38885,1,0,0:0:0:0:
0,156,39044,1,8,0:0:0:0:
243,176,39202,5,0,0:0:0:0:
100,339,39361,1,8,0:0:0:0:
73,98,39520,1,0,0:0:0:0:
372,271,39679,5,4,0:0:0:0:
86,199,39837,1,8,0:0:0:0:
329,99,39996,1,8,0:0:0:0:
192,353,40155,1,12,0:0:0:0:
