osu file format v14

[General]
AudioFilename: audio.mp3
AudioLeadIn: 0
PreviewTime: 10393
Countdown: 0
SampleSet: Soft
StackLeniency: 0.6
Mode: 0
LetterboxInBreaks: 0
WidescreenStoryboard: 1

[Editor]
DistanceSpacing: 1.25
BeatDivisor: 4
GridSize: 8
TimelineZoom: 1.9

[Metadata]
Title:Shugyou no Thema
TitleUnicode:しゅぎょうのテーマ
Artist:TSUNKU
ArtistUnicode:つんく
Creator:Naotoshi
Version:stwi's Hard
Source:リズム天国ゴールド
Tags:diraimur diri antares- antares alexefer armin frostwich akitoshi corinn unko a_r_m_i_n alphabet nintendo rhythm heaven tengoku paradise gold munchy monk ds vgm
BeatmapID:1399826
BeatmapSetID:660914

[Difficulty]
HPDrainRate:5
CircleSize:3.3
OverallDifficulty:6
ApproachRate:7
SliderMultiplier:1.4
SliderTickRate:1

[Events]
//Background and Video events
0,0,"munchy_monk_by_driftermanifesto.jpg",0,0
//Break Periods
//Storyboard Layer 0 (Background)
//Storyboard Layer 1 (Fail)
//Storyboard Layer 2 (Pass)
//Storyboard Layer 3 (Foreground)
//Storyboard Sound Samples

[TimingPoints]
314,317.460317460317,4,2,1,50,1,0
20631,-100,4,2,1,50,0,0
30790,-100,4,2,1,65,0,1
35869,-100,4,2,1,65,0,0
38409,-100,4,2,1,75,0,1
40155,-100,4,2,1,75,0,0
40790,-100,4,2,1,5,0,0

[Colours]
Combo1 : 36,173,219
Combo2 : 250,205,69
Combo3 : 254,66,56
Combo4 : 51,215,146

[HitObjects]
128,111,314,5,0,0:0:0:0:
184,177,472,2,0,L|323:184,1,140,2|0,0:0|0:0,0:0:0:0:
383,119,948,2,0,P|412:175|367:263,1,140,2|0,0:0|0:0,0:0:0:0:
305,272,1425,2,0,L|166:265,1,140,2|0,0:0|0:0,0:0:0:0:
106,330,1901,2,0,P|77:274|122:186,1,140,2|0,0:0|0:0,0:0:0:0:
166,148,2377,1,2,0:0:0:0:
247,177,2536,2,0,L|341:181,1,70,2|2,0:0|0:0,0:0:0:0:
256,192,2853,12,0,3806,0:0:0:0:
128,111,4123,6,0,L|75:108,2,35,8|0|4,0:0|3:0|0:3,0:0:0:0:
185,44,4440,2,0,P|214:100|169:188,1,140,6|0,0:2|0:0,0:0:0:0:
116,216,4917,2,0,L|255:223,1,140,6|0,0:0|0:0,0:0:0:0:
325,276,5393,5,0,0:0:0:0:
394,222,5552,2,0,P|416:157|387:96,1,140,8|0,0:3|0:0,0:0:0:0:
329,162,6028,2,0,L|190:155,1,140,8|0,0:0|0:0,0:0:0:0:
160,72,6504,2,0,L|299:79,1,140,8|0,0:3|0:0,0:0:0:0:
386,95,6980,2,0,P|416:157|394:222,1,140,8|0,0:0|0:0,0:0:0:0:
325,277,7456,1,4,0:3:0:0:
386,338,7615,2,0,L|480:342,1,70,2|2,0:0|0:0,0:0:0:0:
325,277,7933,5,4,0:0:0:0:
263,338,8091,2,0,L|103:328,1,140,0|0,0:0|0:0,0:0:0:0:
61,268,8567,2,0,P|31:206|53:141,1,140,8|8,0:0|0:0,0:0:0:0:
118,201,9044,2,0,L|187:205,1,70,0|8,0:0|0:0,0:0:0:0:
206,118,9361,6,0,L|136:113,1,70,2|2,0:2|0:2,0:0:0:0:
272,177,9679,1,2,0:2:0:0:
272,177,10155,1,6,0:0:0:0:
272,177,10472,6,0,P|293:112|263:50,1,140,2|8,0:0|0:0,0:0:0:0:
206,118,10948,1,0,0:0:0:0:
272,177,11107,2,0,L|342:182,2,70,2|0|10,0:0|0:0|0:0,0:0:0:0:
206,118,11583,2,0,P|184:182|214:244,1,140,2|0,0:0|0:0,0:0:0:0:
299,261,12060,2,0,L|456:272,2,140,8|2|8,0:0|0:0|0:0,0:0:0:0:
206,118,13012,6,0,L|66:108,1,140,2|8,0:0|0:0,0:0:0:0:
1,48,13488,1,0,0:0:0:0:
85,21,13647,2,0,L|155:26,2,70,2|0|8,0:0|0:0|0:0,0:0:0:0:
1,48,14123,1,2,0:0:0:0:
66,108,14282,6,0,L|56:247,1,140,4|8,0:0|0:0,0:0:0:0:
58,335,14758,2,0,L|183:272,1,140,4|0,0:0|0:0,0:0:0:0:
258,228,15234,2,0,L|177:174,1,70,8|0,0:0|0:0,0:0:0:0:
257,314,15552,6,0,P|314:292|342:217,1,140,2|8,0:0|0:0,0:0:0:0:
258,228,16028,1,0,0:0:0:0:
183,271,16187,1,2,0:0:0:0:
183,271,16345,2,0,P|175:311|178:345,1,70,2|8,0:0|0:0,0:0:0:0:
92,366,16663,6,0,P|89:296|105:228,1,140,2|0,0:0|0:0,0:0:0:0:
181,181,17139,2,0,P|183:111|167:43,2,140,8|2|8,0:0|0:0|0:0,0:0:0:0:
68,315,18091,6,0,L|208:325,1,140,2|8,0:0|0:0,0:0:0:0:
273,383,18567,1,0,0:0:0:0:
331,317,18726,2,0,L|341:177,1,140,2|10,0:0|0:0,0:0:0:0:
418,20,19361,2,0,L|278:10,1,140,2|8,0:0|0:0,0:0:0:0:
203,55,19837,2,0,L|133:50,1,70,2|0,0:0|0:0,0:0:0:0:
56,7,20155,1,2,0:0:0:0:
15,83,20313,2,0,L|10:153,1,70,8|8,0:0|0:0,0:0:0:0:
98,157,20631,6,0,L|87:301,1,140,6|8,0:0|0:0,0:0:0:0:
49,375,21107,1,0,0:0:0:0:
1,301,21266,2,0,L|6:231,2,70,2|0|10,0:0|0:0|0:0,0:0:0:0:
49,375,21742,2,0,P|114:373|170:300,1,140,2|0,0:0|0:0,0:0:0:0:
217,252,22218,2,0,L|357:262,2,140,8|2|8,0:0|0:0|0:0,0:0:0:0:
218,76,23171,6,0,L|78:66,1,140,2|8,0:0|0:0,0:0:0:0:
5,115,23647,1,0,0:0:0:0:
87,147,23806,2,0,P|133:151|163:156,2,70,2|0|8,0:0|0:0|0:0,0:0:0:0:
5,115,24282,1,2,0:0:0:0:
17,201,24440,6,0,P|72:242|139:229,1,140,6|8,0:0|0:0,0:0:0:0:
216,205,24917,2,0,P|282:192|337:232,1,140,6|0,0:0|0:0,0:0:0:0:
273,349,25393,2,0,L|264:280,1,70,8|0,0:0|0:0,0:0:0:0:
216,205,25710,6,0,L|236:45,1,140,6|8,0:0|0:0,0:0:0:0:
163,13,26187,1,2,0:0:0:0:
320,89,26504,1,0,0:0:0:0:
392,40,26663,2,0,P|362:12|312:1,1,70,8|2,0:0|0:0,0:0:0:0:
399,127,26980,6,0,P|467:81|474:7,1,140,6|8,0:0|0:0,0:0:0:0:
392,40,27456,1,2,0:0:0:0:
327,176,27774,1,0,0:0:0:0:
355,258,27933,2,8,P|389:236|413:190,1,70,8|2,0:0|0:0,0:0:0:0:
269,241,28250,6,0,P|288:320|356:352,1,140,4|8,0:0|0:0,0:0:0:0:
480,250,28726,2,0,P|429:228|342:275,1,140,4|0,0:0|0:0,0:0:0:0:
424,321,29202,1,8,0:0:0:0:
424,321,29520,6,0,L|419:251,1,70,10|0,0:0|0:0,0:0:0:0:
482,175,29837,1,6,0:0:0:0:
400,46,29996,2,0,L|404:115,1,70,6|0,0:0|0:0,0:0:0:0:
339,175,30313,1,0,0:0:0:0:
258,130,30472,2,0,L|223:132,3,35,8|8|8|8,0:0|0:0|0:0|0:3,0:0:0:0:
264,215,30790,6,0,L|268:284,1,70,4|0,0:3|0:0,0:0:0:0:
180,276,31107,2,0,L|176:207,1,70,2|0,0:3|0:0,0:0:0:0:
224,132,31425,1,0,0:0:0:0:
224,132,31583,1,0,0:0:0:0:
145,93,31742,2,0,L|76:97,1,70,2|0,0:3|0:0,0:0:0:0:
15,161,32060,6,0,L|19:230,1,70,2|0,0:0|0:0,0:0:0:0:
98,194,32377,2,0,L|102:263,1,70,8|2,0:0|0:0,0:0:0:0:
107,351,32694,1,0,0:0:0:0:
180,303,32853,2,0,P|231:283|331:324,1,140,2|0,0:0|0:0,0:0:0:0:
391,338,33329,6,0,L|387:269,1,70,0|0,0:0|0:0,0:0:0:0:
306,234,33647,2,0,L|310:303,1,70,2|0,0:3|0:0,0:0:0:0:
257,374,33964,1,0,0:0:0:0:
257,374,34123,1,0,0:0:0:0:
185,322,34282,2,0,L|116:326,1,70,2|0,0:3|0:0,0:0:0:0:
48,268,34599,6,0,L|44:199,1,70,2|0,0:0|0:0,0:0:0:0:
130,214,34917,2,0,L|126:145,1,70,8|2,0:0|0:0,0:0:0:0:
166,66,35234,1,0,0:0:0:0:
234,120,35393,2,0,L|387:111,1,140,2|0,0:0|0:0,0:0:0:0:
452,149,35869,6,0,P|461:106|451:66,2,70,2|0|8,0:0|0:0|0:0,0:0:0:0:
380,200,36345,2,0,L|240:208,1,140,2|0,0:0|0:0,0:0:0:0:
236,120,36821,2,0,L|306:117,1,70,10|2,0:0|0:0,0:0:0:0:
155,82,37139,6,0,L|163:221,1,140,6|10,0:0|0:0,0:0:0:0:
62,365,37774,2,0,L|131:360,1,70,2|0,0:0|0:0,0:0:0:0:
202,308,38091,2,0,L|271:303,1,70,10|0,0:0|0:0,0:0:0:0:
346,255,38409,6,0,P|355:212|345:172,2,70,0|2|8,0:0|0:0|0:0,0:0:0:0:
271,302,38885,1,2,0:0:0:0:
350,344,39044,2,0,L|405:339,3,35,8|0|2|0,0:0|0:0|0:0|0:0,0:0:0:0:
424,324,39361,2,0,P|433:281|423:241,1,70,8|2,0:0|0:0,0:0:0:0:
355,118,39679,6,0,P|346:151|350:186,1,70,8|2,0:0|0:0,0:0:0:0:
432,160,39996,1,8,0:0:0:0:
278,76,40155,1,6,0:2:0:0:
