osu file format v14

[General]
AudioFilename: audio.mp3
AudioLeadIn: 0
PreviewTime: 10393
Countdown: 0
SampleSet: Soft
StackLeniency: 0.2
Mode: 0
LetterboxInBreaks: 0
WidescreenStoryboard: 1

[Editor]
DistanceSpacing: 1
BeatDivisor: 4
GridSize: 16
TimelineZoom: 1.9

[Metadata]
Title:Shugyou no Thema
TitleUnicode:しゅぎょうのテーマ
Artist:TSUNKU
ArtistUnicode:つんく
Creator:Naotoshi
Version:diraimur's Insane
Source:リズム天国ゴールド
Tags:diraimur diri antares- antares alexefer armin frostwich akitoshi corinn unko a_r_m_i_n alphabet nintendo rhythm heaven tengoku paradise gold munchy monk ds vgm
BeatmapID:1404118
BeatmapSetID:660914

[Difficulty]
HPDrainRate:5.5
CircleSize:3.5
OverallDifficulty:8
ApproachRate:8.8
SliderMultiplier:1.28000000596046
SliderTickRate:1

[Events]
//Background and Video events
0,0,"munchy_monk_by_driftermanifesto.jpg",0,0
//Break Periods
//Storyboard Layer 0 (Background)
//Storyboard Layer 1 (Fail)
//Storyboard Layer 2 (Pass)
//Storyboard Layer 3 (Foreground)
//Storyboard Sound Samples

[TimingPoints]
314,317.460317460317,4,2,1,50,1,0
30790,-100,4,2,1,50,0,1
35869,-100,4,2,1,50,0,0
38409,-100,4,2,1,50,0,1
40155,-100,4,2,1,50,0,0

[Colours]
Combo1 : 36,173,219
Combo2 : 250,205,69
Combo3 : 254,66,56
Combo4 : 51,215,146

[HitObjects]
256,64,314,5,4,3:0:0:0:
154,223,472,2,0,L|160:160,1,64.0000002980232,2|0,0:0|0:0,0:0:0:0:
256,48,790,5,0,0:0:0:0:
357,223,948,2,0,L|352:160,1,64.0000002980232,2|0,0:0|0:0,0:0:0:0:
256,32,1266,5,0,0:0:0:0:
256,256,1425,2,0,L|256:192,1,64.0000002980232,2|0,0:0|0:0,0:0:0:0:
256,48,1742,5,0,0:0:0:0:
184,280,1901,2,0,P|256:333|328:280,1,192.00000089407,2|2,0:0|0:0,0:0:0:0:
304,128,2536,1,0,0:0:0:0:
256,256,2694,1,2,0:0:0:0:
208,128,2853,5,0,0:0:0:0:
359,200,3012,2,0,L|423:205,1,64.0000002980232,2|0,0:0|0:0,0:0:0:0:
304,128,3329,5,0,0:0:0:0:
153,200,3488,2,0,L|89:205,1,64.0000002980232,2|0,0:0|0:0,0:0:0:0:
256,64,3806,5,0,0:0:0:0:
256,256,3964,2,0,L|256:320,1,64.0000002980232,2|8,0:0|0:0,0:0:0:0:
256,344,4202,1,8,0:0:0:0:
256,368,4282,1,8,0:0:0:0:
89,205,4440,6,0,P|135:162|155:102,1,128.000000596046,6|8,0:0|0:0,0:0:0:0:
357,102,4917,2,0,P|377:162|423:205,1,128.000000596046,6|0,0:0|0:0,0:0:0:0:
256,320,5393,5,0,0:0:0:0:
89,205,5552,2,0,L|152:210,1,64.0000002980232,10|0,0:0|0:0,0:0:0:0:
256,336,5869,5,0,0:0:0:0:
423,205,6028,2,0,L|360:210,1,64.0000002980232,10|0,0:0|0:0,0:0:0:0:
256,352,6345,5,0,0:0:0:0:
256,128,6504,2,0,L|256:192,1,64.0000002980232,10|0,0:0|0:0,0:0:0:0:
256,336,6821,5,0,0:0:0:0:
256,192,6980,2,0,L|256:64,1,128.000000596046,10|0,0:0|0:0,0:0:0:0:
145,256,7456,1,10,0:0:0:0:
367,256,7615,1,0,0:0:0:0:
256,192,7774,1,2,0:0:0:0:
296,56,7933,5,4,1:2:0:0:
336,184,8091,1,10,0:0:0:0:
216,56,8250,5,0,1:0:0:0:
176,184,8408,1,8,0:0:0:0:
312,32,8567,5,0,1:0:0:0:
402,140,8726,1,8,0:0:0:0:
200,32,8885,5,0,1:0:0:0:
110,140,9044,1,10,0:0:0:0:
256,192,9202,5,0,1:0:0:0:
144,256,9361,5,14,0:0:0:0:
368,256,9520,1,14,0:0:0:0:
256,64,9679,2,0,L|256:192,1,128.000000596046,14|0,0:0|3:0,0:0:0:0:
256,208,10075,1,0,3:0:0:0:
256,224,10155,1,8,0:0:0:0:
15,174,10472,5,6,0:0:0:0:
15,174,10790,1,10,0:0:0:0:
96,22,10948,1,0,0:0:0:0:
175,202,11107,1,2,0:0:0:0:
175,202,11266,1,2,0:0:0:0:
256,50,11425,1,8,0:0:0:0:
15,174,11583,6,0,L|3:301,1,128.000000596046,2|0,0:0|0:0,0:0:0:0:
170,138,12060,2,0,L|175:201,1,64.000000298023,10|0,0:0|0:0,0:0:0:0:
21,110,12377,2,0,L|15:173,1,64.000000298023,2|0,0:0|0:0,0:0:0:0:
165,74,12694,2,0,L|170:137,1,64.000000298023,10|0,0:0|0:0,0:0:0:0:
416,22,13012,5,2,0:0:0:0:
416,22,13330,1,10,0:0:0:0:
256,49,13488,1,0,0:0:0:0:
337,202,13647,1,2,0:0:0:0:
337,202,13806,1,2,0:0:0:0:
497,174,13964,1,8,0:0:0:0:
337,202,14123,1,2,0:0:0:0:
509,302,14282,6,0,L|497:174,1,128.000000596046,6|8,0:0|0:0,0:0:0:0:
326,329,14758,2,0,L|337:201,1,128.000000596046,4|0,0:0|0:0,0:0:0:0:
497,174,15234,1,10,0:0:0:0:
418,276,15393,1,0,0:0:0:0:
348,64,15552,5,6,0:0:0:0:
348,64,15869,1,10,0:0:0:0:
240,34,16028,1,0,0:0:0:0:
348,64,16187,1,2,0:0:0:0:
348,64,16345,2,0,L|355:143,1,64.000000298023,2|8,0:0|0:0,0:0:0:0:
228,161,16663,6,0,L|240:33,1,128.000000596046,2|0,0:0|0:0,0:0:0:0:
358,191,17139,2,0,L|353:127,1,64.000000298023,10|0,0:0|0:0,0:0:0:0:
222,224,17456,2,0,L|228:160,1,64.000000298023,2|0,0:0|0:0,0:0:0:0:
363,254,17774,2,0,L|358:190,1,64.000000298023,10|0,0:0|0:0,0:0:0:0:
211,351,18091,6,0,L|216:287,1,64.000000298023,2|0,0:0|0:0,0:0:0:0:
211,351,18409,1,10,0:0:0:0:
363,254,18567,1,0,0:0:0:0:
211,351,18726,2,0,L|216:287,1,64.000000298023,2|0,0:0|0:0,0:0:0:0:
371,380,19044,2,0,L|366:316,1,64.000000298023,10|0,0:0|0:0,0:0:0:0:
216,287,19361,6,0,L|228:159,1,128.000000596046,2|8,0:0|0:0,0:0:0:0:
348,64,19837,2,0,L|353:127,1,64.000000298023,2|0,0:0|0:0,0:0:0:0:
348,64,20155,1,2,0:0:0:0:
228,159,20313,1,8,0:0:0:0:
488,126,20472,1,2,0:0:0:0:
260,303,20631,5,6,0:0:0:0:
260,303,20948,1,10,0:0:0:0:
353,127,21107,1,0,0:0:0:0:
260,303,21266,1,2,0:0:0:0:
260,303,21425,1,2,0:0:0:0:
458,297,21583,1,8,0:0:0:0:
256,192,21742,6,0,L|128:180,1,128.000000596046,2|0,0:0|0:0,0:0:0:0:
353,127,22218,2,0,L|416:121,1,64.000000298023,10|0,0:0|0:0,0:0:0:0:
324,308,22536,2,0,L|260:302,1,64.000000298023,2|0,0:0|0:0,0:0:0:0:
128,180,22853,2,0,L|191:174,1,64.000000298023,10|0,0:0|0:0,0:0:0:0:
80,336,23171,5,2,0:0:0:0:
80,336,23488,1,10,0:0:0:0:
260,302,23647,1,0,0:0:0:0:
80,336,23806,1,2,0:0:0:0:
80,336,23964,1,2,0:0:0:0:
192,174,24123,1,8,0:0:0:0:
80,336,24282,1,2,0:0:0:0:
320,186,24440,6,0,L|192:174,1,128.000000596046,4|8,0:0|0:0,0:0:0:0:
360,320,24917,2,0,L|296:325,1,64.000000298023,4|0,0:0|0:0,0:0:0:0:
192,174,25234,1,2,0:0:0:0:
320,186,25393,1,8,0:0:0:0:
161,288,25552,1,2,0:0:0:0:
309,58,25710,6,0,L|320:185,1,128.000000596046,6|8,0:0|0:0,0:0:0:0:
198,110,26187,2,0,L|192:173,1,64.000000298023
309,58,26504,1,2,0:0:0:0:
320,186,26663,1,10,0:0:0:0:
216,8,26821,1,0,0:0:0:0:
24,128,26980,6,0,L|35:255,1,128.000000596046,6|8,0:0|0:0,0:0:0:0:
192,174,27456,2,0,L|186:237,1,64.000000298023
24,128,27774,1,2,0:0:0:0:
35,255,27933,1,8,0:0:0:0:
128,64,28091,1,2,0:0:0:0:
319,184,28250,6,0,L|330:311,1,128.000000596046,6|8,0:0|0:0,0:0:0:0:
448,128,28726,2,0,L|436:255,1,128.000000596046,4|0,0:0|0:0,0:0:0:0:
436,255,29202,1,8,0:0:0:0:
192,174,29520,6,0,L|203:301,1,128.000000596046,4|0,0:0|0:0,0:0:0:0:
324,120,29996,2,0,L|318:183,1,64.000000298023,4|0,0:0|0:0,0:0:0:0:
112,128,30313,1,8,0:0:0:0:
172,343,30472,1,10,0:0:0:0:
203,333,30552,1,10,0:0:0:0:
203,301,30631,1,10,0:0:0:0:
172,291,30710,1,10,0:0:0:0:
154,317,30790,5,10,0:0:0:0:
154,317,30948,1,2,0:0:0:0:
352,216,31107,2,0,L|358:152,1,64.000000298023,10|2,0:0|0:0,0:0:0:0:
358,317,31425,5,2,0:0:0:0:
358,317,31583,1,2,0:0:0:0:
160,216,31742,2,0,L|154:152,1,64.000000298023,10|2,0:0|0:0,0:0:0:0:
256,352,32060,5,0,0:0:0:0:
256,352,32218,1,0,0:0:0:0:
256,192,32377,1,10,0:0:0:0:
256,352,32536,1,0,0:0:0:0:
256,192,32694,1,2,0:0:0:0:
256,352,32853,2,0,L|256:288,1,64.000000298023,0|8,0:0|0:0,0:0:0:0:
160,48,33329,5,2,0:0:0:0:
160,48,33488,1,2,0:0:0:0:
358,152,33647,2,0,L|352:216,1,64.000000298023,10|2,0:0|0:0,0:0:0:0:
352,48,33964,5,2,0:0:0:0:
352,48,34123,1,2,0:0:0:0:
154,152,34282,2,0,L|160:216,1,64.000000298023,10|2,0:0|0:0,0:0:0:0:
256,32,34599,5,0,0:0:0:0:
256,32,34758,1,0,0:0:0:0:
256,192,34917,1,10,0:0:0:0:
256,32,35075,1,0,0:0:0:0:
256,192,35234,1,2,0:0:0:0:
256,32,35393,2,0,L|256:96,1,64.000000298023,0|8,0:0|0:0,0:0:0:0:
80,280,35869,5,4,0:0:0:0:
80,280,36028,1,2,0:0:0:0:
80,280,36187,1,8,0:0:0:0:
80,280,36345,2,0,L|16:285,1,64.000000298023,2|0,0:0|0:0,0:0:0:0:
80,280,36663,1,2,0:0:0:0:
167,176,36821,1,8,0:0:0:0:
184,368,36980,1,2,0:0:0:0:
432,280,37139,5,6,0:0:0:0:
432,280,37456,2,0,L|495:285,1,64.000000298023,10|0,0:0|0:0,0:0:0:0:
344,175,37774,1,2,0:0:0:0:
327,367,38091,1,10,0:0:0:0:
256,192,38409,5,6,0:0:0:0:
381,264,38567,1,2,0:0:0:0:
131,264,38726,1,8,0:0:0:0:
256,48,38885,1,2,0:0:0:0:
256,192,39044,5,8,0:0:0:0:
352,136,39202,1,2,0:0:0:0:
160,136,39361,1,8,0:0:0:0:
256,304,39520,1,2,0:0:0:0:
256,192,39679,5,6,0:0:0:0:
103,280,39837,1,2,0:0:0:0:
256,16,39997,1,10,0:0:0:0:
409,280,40155,1,6,0:0:0:0:
