osu file format v14

[General]
AudioFilename: audio.mp3
AudioLeadIn: 0
PreviewTime: 10393
Countdown: 0
SampleSet: Soft
StackLeniency: 0.6
Mode: 0
LetterboxInBreaks: 0
WidescreenStoryboard: 1

[Editor]
DistanceSpacing: 1
BeatDivisor: 4
GridSize: 8
TimelineZoom: 1.9

[Metadata]
Title:Shugyou no Thema
TitleUnicode:しゅぎょうのテーマ
Artist:TSUNKU
ArtistUnicode:つんく
Creator:Naotoshi
Version:Light Insane
Source:リズム天国ゴールド
Tags:diraimur diri antares- antares alexefer armin frostwich akitoshi corinn unko a_r_m_i_n alphabet nintendo rhythm heaven tengoku paradise gold munchy monk ds vgm
BeatmapID:1399888
BeatmapSetID:660914

[Difficulty]
HPDrainRate:5
CircleSize:3.5
OverallDifficulty:6.7
ApproachRate:8
SliderMultiplier:1.5
SliderTickRate:1

[Events]
//Background and Video events
0,0,"munchy_monk_by_driftermanifesto.jpg",0,0
//Break Periods
//Storyboard Layer 0 (Background)
//Storyboard Layer 1 (Fail)
//Storyboard Layer 2 (Pass)
//Storyboard Layer 3 (Foreground)
//Storyboard Sound Samples

[TimingPoints]
314,317.460317460317,4,2,1,50,1,0
20631,-100,4,2,1,50,0,0
30790,-100,4,2,1,65,0,1
35869,-100,4,2,1,65,0,0
38409,-100,4,2,1,75,0,1
40155,-100,4,2,1,75,0,0
40790,-100,4,2,1,5,0,0

[Colours]
Combo1 : 36,173,219
Combo2 : 250,205,69
Combo3 : 254,66,56
Combo4 : 51,215,146

[HitObjects]
192,80,314,5,0,0:0:0:0:
301,33,472,1,2,0:0:0:0:
170,177,790,5,0,0:0:0:0:
279,130,948,1,2,0:0:0:0:
148,274,1266,5,0,0:0:0:0:
257,227,1425,1,2,0:0:0:0:
170,177,1742,5,0,0:0:0:0:
279,130,1901,1,2,0:0:0:0:
279,130,2377,5,2,0:0:0:0:
388,83,2536,1,2,0:0:0:0:
374,200,2694,1,2,0:0:0:0:
279,130,2853,5,0,0:0:0:0:
170,177,3012,1,2,0:0:0:0:
257,227,3329,5,0,0:0:0:0:
148,274,3488,1,2,0:0:0:0:
235,324,3806,5,0,0:0:0:0:
126,371,3964,1,2,0:0:0:0:
157,281,4123,1,8,0:0:0:0:
157,281,4202,1,0,3:0:0:0:
157,281,4282,5,4,0:3:0:0:
257,227,4440,2,0,L|406:245,1,150,6|0,0:2|0:0,0:0:0:0:
500,130,4917,2,0,L|351:148,1,150,6|0,0:0|0:0,0:0:0:0:
236,123,5393,5,0,0:0:0:0:
127,76,5552,1,0,0:0:0:0:
258,220,5869,5,0,0:0:0:0:
149,173,6028,1,8,0:0:0:0:
280,317,6345,5,0,0:0:0:0:
171,270,6504,1,8,0:3:0:0:
258,220,6821,5,0,0:0:0:0:
149,173,6980,2,0,P|79:159|0:194,1,150,8|0,0:0|0:0,0:0:0:0:
90,275,7456,5,4,0:3:0:0:
217,272,7615,1,2,0:0:0:0:
149,173,7774,1,2,0:0:0:0:
266,94,7933,5,4,0:0:0:0:
361,167,8091,2,0,L|462:161,1,75,0|8,0:0|0:0,0:0:0:0:
268,193,8409,5,0,0:0:0:0:
363,266,8567,2,0,L|464:260,1,75,8|0,0:0|0:0,0:0:0:0:
271,291,8885,5,8,0:0:0:0:
366,364,9044,2,0,L|467:358,1,75,0|8,0:0|0:0,0:0:0:0:
270,384,9361,5,2,0:2:0:0:
170,301,9520,1,2,0:2:0:0:
75,378,9679,2,0,P|52:323|76:228,1,150,2|8,0:2|0:0,0:0:0:0:
83,222,10075,1,0,3:0:0:0:
101,213,10155,1,6,0:0:0:0:
235,75,10472,6,0,P|258:142|230:231,1,150,2|8,0:0|0:0,0:0:0:0:
325,281,10948,1,0,0:0:0:0:
384,202,11107,2,0,P|433:200|478:212,1,75,2|0,0:0|0:0,0:0:0:0:
507,298,11425,1,10,0:0:0:0:
403,346,11583,2,0,B|361:349|329:339|329:339|297:351|236:350,1,150,2|0,0:0|0:0,0:0:0:0:
165,272,12060,6,0,L|78:281,1,75,8|0,0:0|0:0,0:0:0:0:
44,185,12377,2,0,L|131:194,1,75,2|0,0:0|0:0,0:0:0:0:
172,95,12694,2,0,L|85:104,1,75,8|0,0:0|0:0,0:0:0:0:
221,4,13012,6,0,P|265:55|248:163,1,150,2|8,0:0|0:0,0:0:0:0:
212,226,13488,1,0,0:0:0:0:
311,275,13647,2,0,L|394:265,1,75,2|0,0:0|0:0,0:0:0:0:
465,183,13964,1,8,0:0:0:0:
354,154,14123,1,2,0:0:0:0:
477,96,14282,6,0,P|487:165|482:259,1,150,4|8,0:0|0:0,0:0:0:0:
312,235,14758,2,0,P|308:160|319:85,1,150,4|0,0:0|0:0,0:0:0:0:
401,178,15234,2,0,L|403:283,1,75,8|0,0:0|0:0,0:0:0:0:
305,323,15552,6,0,P|207:301|148:313,1,150,2|8,0:0|0:0,0:0:0:0:
71,354,16028,1,0,0:0:0:0:
71,252,16187,1,2,0:0:0:0:
153,192,16345,2,0,L|146:109,1,75,2|8,0:0|0:0,0:0:0:0:
235,48,16663,2,0,L|251:198,1,150,2|0,0:0|0:0,0:0:0:0:
335,288,17139,6,0,P|390:266|427:264,1,75,8|0,0:0|0:0,0:0:0:0:
361,115,17456,2,0,P|352:173|335:206,1,75,2|0,0:0|0:0,0:0:0:0:
497,224,17774,2,0,P|450:187|430:156,1,75,8|0,0:0|0:0,0:0:0:0:
417,28,18091,6,0,P|334:13|272:57,1,150,2|8,0:0|0:0,0:0:0:0:
213,138,18567,1,0,0:0:0:0:
128,66,18726,2,0,P|74:69|22:90,1,75,2|0,0:0|0:0,0:0:0:0:
47,206,19044,2,0,P|89:179|111:155,1,75,10|0,0:0|0:0,0:0:0:0:
213,166,19361,2,0,P|176:229|94:294,1,150,2|8,0:0|0:0,0:0:0:0:
180,350,19837,6,0,P|240:333|277:337,1,75,2|0,0:0|0:0,0:0:0:0:
388,318,20155,1,2,0:0:0:0:
320,235,20313,1,8,0:0:0:0:
284,338,20472,1,8,0:0:0:0:
435,383,20631,6,0,P|444:297|473:218,1,150,6|8,0:0|0:0,0:0:0:0:
374,164,21107,1,0,0:0:0:0:
462,94,21266,2,0,L|467:17,2,75,2|0|10,0:0|0:0|0:0,0:0:0:0:
348,45,21742,2,0,P|289:36|197:65,1,150,2|0,0:0|0:0,0:0:0:0:
142,168,22218,6,0,L|143:274,1,75,8|0,0:0|0:0,0:0:0:0:
50,231,22536,2,0,L|66:331,1,75,2|0,0:0|0:0,0:0:0:0:
225,307,22853,2,0,L|236:232,1,75,8|0,0:0|0:0,0:0:0:0:
335,114,23171,6,0,P|387:106|461:169,1,150,2|8,0:0|0:0,0:0:0:0:
449,285,23647,1,0,0:0:0:0:
309,233,23806,2,0,P|351:204|385:196,1,75,2|0,0:0|0:0,0:0:0:0:
307,325,24123,2,0,P|259:311|228:288,1,75,8|2,0:0|0:0,0:0:0:0:
140,189,24440,6,0,B|118:249|137:315|137:315|160:269,1,150,6|8,0:0|0:0,0:0:0:0:
231,190,24917,2,0,B|240:170|240:170|259:236|237:296,1,150,6|0,0:0|0:0,0:0:0:0:
316,370,25393,2,0,L|391:379,1,75,8|0,0:0|0:0,0:0:0:0:
482,283,25710,6,0,P|454:226|479:125,1,150,6|8,0:0|0:0,0:0:0:0:
398,60,26187,1,2,0:0:0:0:
268,146,26504,2,0,L|165:130,2,75,0|8|2,0:0|0:0|0:0,0:0:0:0:
309,253,26980,6,0,L|136:224,1,150,6|8,0:0|0:0,0:0:0:0:
84,153,27456,1,2,0:0:0:0:
172,336,27774,2,0,L|253:325,1,75,0|8,0:0|0:0,0:0:0:0:
363,363,28091,1,2,0:0:0:0:
483,281,28250,6,0,L|474:123,1,150,4|8,0:0|0:0,0:0:0:0:
369,32,28726,2,0,L|360:181,1,150,4|0,0:0|0:0,0:0:0:0:
274,263,29202,1,8,0:0:0:0:
130,107,29520,6,0,L|138:256,1,150,6|8,0:0|0:0,0:0:0:0:
244,356,29996,2,0,L|252:206,1,150,6|0,0:0|0:0,0:0:0:0:
337,123,30472,1,8,0:0:0:0:
337,123,30552,1,8,0:0:0:0:
337,123,30631,1,8,0:0:0:0:
340,214,30790,2,0,L|446:199,1,75,4|0,0:3|0:0,0:0:0:0:
457,266,31107,6,0,P|464:168|487:114,1,150,2|0,0:3|0:0,0:0:0:0:
330,281,31742,2,0,P|330:200|298:106,1,150,2|2,0:3|0:0,0:0:0:0:
204,286,32377,2,0,P|206:239|199:188,1,75,8|0,0:0|0:0,0:0:0:0:
185,100,32694,2,0,P|182:63|185:26,1,75,2|0,0:0|0:0,0:0:0:0:
293,56,33012,1,8,0:0:0:0:
89,124,33329,6,0,L|74:207,1,75,0|0,0:0|0:0,0:0:0:0:
32,49,33647,2,0,P|92:31|178:88,1,150,2|0,0:3|0:0,0:0:0:0:
318,189,34282,2,0,P|246:205|183:169,1,150,2|2,0:3|0:0,0:0:0:0:
401,108,34917,2,0,L|428:201,1,75,8|0,0:0|0:0,0:0:0:0:
263,116,35234,2,0,L|285:34,1,75,2|0,0:0|0:0,0:0:0:0:
141,114,35552,1,8,0:0:0:0:
155,319,35869,6,0,L|65:303,1,75,2|0,0:0|0:0,0:0:0:0:
187,225,36187,1,8,0:0:0:0:
237,365,36345,2,0,P|249:286|276:210,1,150,2|0,0:0|0:0,0:0:0:0:
352,316,36821,1,10,0:0:0:0:
410,225,36980,1,2,0:0:0:0:
319,129,37139,5,6,0:0:0:0:
510,238,37456,1,10,0:0:0:0:
273,252,37774,1,2,0:0:0:0:
464,143,38091,1,10,0:0:0:0:
313,56,38409,6,0,P|243:54|227:58,1,75,0|2,0:0|0:0,0:0:0:0:
148,136,38726,1,8,0:0:0:0:
48,41,38885,2,0,L|37:190,1,150,2|2,0:0|0:0,0:0:0:0:
110,294,39361,2,0,P|178:275|208:276,1,75,8|2,0:0|0:0,0:0:0:0:
303,353,39679,6,0,L|399:336,1,75,8|2,0:0|0:0,0:0:0:0:
471,264,39996,1,8,0:0:0:0:
349,205,40155,1,6,0:2:0:0:
