osu file format v14

[General]
AudioFilename: audio.mp3
AudioLeadIn: 0
PreviewTime: 10393
Countdown: 0
SampleSet: Soft
StackLeniency: 0.2
Mode: 0
LetterboxInBreaks: 0
WidescreenStoryboard: 1

[Editor]
Bookmarks: 20669,32732
DistanceSpacing: 1
BeatDivisor: 4
GridSize: 8
TimelineZoom: 1.9

[Metadata]
Title:Shugyou no Thema
TitleUnicode:しゅぎょうのテーマ
Artist:TSUNKU
ArtistUnicode:つんく
Creator:Naotoshi
Version:Antares' Insane
Source:リズム天国ゴールド
Tags:diraimur diri antares- antares alexefer armin frostwich akitoshi corinn unko a_r_m_i_n alphabet nintendo rhythm heaven tengoku paradise gold munchy monk ds vgm
BeatmapID:1401809
BeatmapSetID:660914

[Difficulty]
HPDrainRate:5.2
CircleSize:2
OverallDifficulty:8
ApproachRate:8.8
SliderMultiplier:0.400000005960464
SliderTickRate:1

[Events]
//Background and Video events
0,0,"munchy_monk_by_driftermanifesto.jpg",0,0
//Break Periods
//Storyboard Layer 0 (Background)
//Storyboard Layer 1 (Fail)
//Storyboard Layer 2 (Pass)
//Storyboard Layer 3 (Foreground)
//Storyboard Sound Samples

[TimingPoints]
314,317.460317460317,4,2,1,50,1,0
1742,-200,4,2,1,50,0,0
14996,-200,4,2,1,50,0,0
15075,-200,4,2,1,50,0,0
25155,-200,4,2,1,50,0,0
25234,-200,4,2,1,50,0,0
26425,-200,4,2,1,50,0,0
26504,-200,4,2,1,50,0,0
27694,-200,4,2,1,50,0,0
27774,-200,4,2,1,50,0,0
30234,-200,4,2,1,5,0,0
30313,-200,4,2,1,50,0,0
30790,-100,4,2,1,65,0,1
35869,-100,4,2,1,65,0,0
38409,-100,4,2,1,75,0,1
40155,-133.333333333333,4,2,1,75,0,0
40790,-133.333333333333,4,2,1,5,0,0

[Colours]
Combo1 : 36,173,219
Combo2 : 250,205,69
Combo3 : 254,66,56
Combo4 : 51,215,146

[HitObjects]
74,79,314,5,0,0:0:0:0:
74,79,472,1,2,0:0:0:0:
392,145,790,5,0,0:0:0:0:
392,145,948,1,2,0:0:0:0:
88,233,1266,5,0,0:0:0:0:
88,233,1425,1,2,0:0:0:0:
378,299,1742,5,0,0:0:0:0:
378,299,1901,1,2,0:0:0:0:
378,299,2377,5,2,0:0:0:0:
405,192,2536,1,2,0:0:0:0:
299,221,2694,1,2,0:0:0:0:
378,299,2853,5,0,0:0:0:0:
378,299,3012,1,2,0:0:0:0:
109,189,3329,5,0,0:0:0:0:
109,189,3488,1,2,0:0:0:0:
431,81,3806,5,0,0:0:0:0:
431,81,3964,1,2,0:0:0:0:
332,149,4123,1,8,0:0:0:0:
321,149,4202,1,0,3:0:0:0:
310,149,4282,1,4,0:3:0:0:
226,65,4440,6,0,L|222:43,1,20.0000002980232,6|0,0:2|0:0,0:0:0:0:
76,186,4917,2,0,L|72:205,1,20.0000002980232,6|0,0:0|0:0,0:0:0:0:
246,346,5393,5,0,0:0:0:0:
246,346,5552,1,8,0:3:0:0:
332,49,5869,5,0,0:0:0:0:
332,49,6028,1,8,0:0:0:0:
375,365,6345,5,0,0:0:0:0:
375,365,6504,1,8,0:3:0:0:
153,183,6821,5,0,0:0:0:0:
153,183,6980,1,8,0:0:0:0:
153,183,7456,5,4,0:3:0:0:
251,144,7615,1,2,0:0:0:0:
236,249,7774,1,2,0:0:0:0:
153,183,7933,5,12,0:0:0:0:
201,35,8091,1,2,0:0:0:0:
201,35,8250,1,0,0:0:0:0:
236,249,8409,5,0,0:0:0:0:
374,115,8567,1,2,0:0:0:0:
374,115,8726,1,0,0:0:0:0:
358,382,8885,5,8,0:0:0:0:
251,144,9044,1,2,0:0:0:0:
251,144,9202,1,0,0:0:0:0:
508,242,9361,5,8,0:2:0:0:
251,144,9520,1,10,0:2:0:0:
425,291,9679,2,0,L|394:280,1,30.0000004470348,2|0,0:2|0:0,0:0:0:0:
396,280,10472,5,2,0:0:0:0:
134,181,10790,1,8,0:0:0:0:
233,227,10948,1,0,0:0:0:0:
223,118,11107,1,2,0:0:0:0:
233,227,11266,1,0,0:0:0:0:
134,181,11425,1,10,0:0:0:0:
223,118,11583,6,0,L|244:115,1,20.0000002980232,2|0,0:0|0:0,0:0:0:0:
62,324,12060,5,8,0:0:0:0:
488,193,12377,1,2,0:0:0:0:
22,55,12694,1,8,0:0:0:0:
389,44,13012,5,2,0:0:0:0:
389,44,13329,1,8,0:0:0:0:
315,122,13488,1,0,0:0:0:0:
419,148,13647,1,2,0:0:0:0:
315,122,13806,1,0,0:0:0:0:
389,44,13964,1,8,0:0:0:0:
419,148,14123,1,2,0:0:0:0:
283,20,14282,6,0,L|262:25,1,20.0000002980232,4|8,0:0|0:0,0:0:0:0:
194,229,14758,2,0,L|212:232,1,15.0000002235174,4|0,0:0|0:0,0:0:0:0:
231,235,15075,1,2,0:0:0:0:
362,237,15234,1,8,0:0:0:0:
453,143,15393,1,0,0:0:0:0:
417,17,15552,5,2,0:0:0:0:
417,17,15869,1,8,0:0:0:0:
325,111,16028,1,0,0:0:0:0:
453,143,16187,1,2,0:0:0:0:
362,237,16345,1,2,0:0:0:0:
362,237,16663,5,2,0:0:0:0:
362,237,17139,1,8,0:0:0:0:
248,183,17456,1,2,0:0:0:0:
126,216,17774,1,8,0:0:0:0:
362,237,18091,5,2,0:0:0:0:
126,216,18409,1,8,0:0:0:0:
158,93,18567,1,0,0:0:0:0:
248,183,18726,1,2,0:0:0:0:
158,93,19044,1,10,0:0:0:0:
126,216,19361,6,0,L|104:219,1,20.0000002980232,2|8,0:0|0:0,0:0:0:0:
278,63,19837,2,0,L|268:64,1,10.0000001490116,2|0,0:0|0:0,0:0:0:0:
50,115,20155,1,2,0:0:0:0:
248,183,20313,1,8,0:0:0:0:
50,115,20472,1,8,0:0:0:0:
278,63,20631,5,6,0:0:0:0:
278,63,20948,1,8,0:0:0:0:
382,18,21107,1,0,0:0:0:0:
369,131,21266,1,2,0:0:0:0:
278,63,21425,1,0,0:0:0:0:
369,131,21583,1,10,0:0:0:0:
382,18,21742,6,0,L|403:22,1,20.0000002980232,2|0,0:0|0:0,0:0:0:0:
77,94,22218,5,8,0:0:0:0:
462,196,22536,1,2,0:0:0:0:
37,278,22853,1,8,0:0:0:0:
462,196,23171,5,2,0:0:0:0:
462,196,23488,1,8,0:0:0:0:
393,106,23647,1,0,0:0:0:0:
350,211,23806,1,2,0:0:0:0:
462,196,23964,1,0,0:0:0:0:
350,211,24123,1,8,0:0:0:0:
393,106,24282,1,2,0:0:0:0:
426,312,24440,6,0,L|421:290,1,20.0000002980232,6|8,0:0|0:0,0:0:0:0:
233,63,24917,2,0,L|229:80,1,15.0000002235174,6|0,0:0|0:0,0:0:0:0:
224,98,25234,1,2,0:0:0:0:
400,159,25393,1,8,0:0:0:0:
224,98,25552,1,0,0:0:0:0:
467,64,25710,6,0,L|445:68,1,20.0000002980232,6|8,0:0|0:0,0:0:0:0:
116,168,26187,2,0,L|130:170,1,15.0000002235174,2|0,0:0|0:0,0:0:0:0:
152,174,26504,1,2,0:0:0:0:
229,368,26663,1,8,0:0:0:0:
152,174,26821,1,2,0:0:0:0:
329,301,26980,6,0,L|308:298,1,20.0000002980232,6|8,0:0|0:0,0:0:0:0:
30,119,27456,2,0,L|46:117,1,15.0000002235174,2|0,0:0|0:0,0:0:0:0:
66,115,27774,1,2,0:0:0:0:
297,167,27933,1,8,0:0:0:0:
66,115,28091,1,2,0:0:0:0:
323,68,28250,6,0,L|344:65,1,20.0000002980232,4|8,0:0|0:0,0:0:0:0:
261,259,28726,2,0,L|242:264,1,20.0000002980232,4|0,0:0|0:0,0:0:0:0:
440,220,29202,1,8,0:0:0:0:
95,135,29520,6,0,L|114:130,1,20.0000002980232,6|8,0:0|0:0,0:0:0:0:
303,255,29996,2,0,L|288:259,1,15.0000002235174,6|0,0:0|0:0,0:0:0:0:
268,266,30313,1,2,0:0:0:0:
86,129,30472,1,8,0:0:0:0:
96,108,30552,1,8,0:0:0:0:
106,87,30631,1,8,0:0:0:0:
116,66,30710,1,8,0:3:0:0:
126,45,30790,5,0,0:0:0:0:
126,45,30948,1,0,0:0:0:0:
289,76,31107,1,2,0:3:0:0:
126,45,31266,1,0,0:0:0:0:
126,45,31425,1,0,0:0:0:0:
126,45,31583,1,0,0:0:0:0:
289,76,31742,1,2,0:3:0:0:
126,45,31901,1,0,0:0:0:0:
177,224,32060,5,2,0:0:0:0:
177,224,32218,1,0,0:0:0:0:
31,377,32377,5,8,0:0:0:0:
91,150,32536,1,2,0:0:0:0:
31,377,32694,5,8,0:0:0:0:
91,150,32853,1,2,0:0:0:0:
283,364,33012,5,12,0:0:0:0:
315,15,33329,5,0,0:0:0:0:
315,15,33488,1,0,0:0:0:0:
144,62,33647,1,2,0:3:0:0:
315,15,33806,1,0,0:0:0:0:
315,15,33964,1,0,0:0:0:0:
315,15,34123,1,0,0:0:0:0:
144,62,34282,1,2,0:3:0:0:
315,15,34440,1,0,0:0:0:0:
280,215,34599,5,2,0:0:0:0:
280,215,34758,1,0,0:0:0:0:
413,365,34917,5,8,0:0:0:0:
342,123,35075,1,2,0:0:0:0:
413,365,35234,5,8,0:0:0:0:
342,123,35393,1,2,0:0:0:0:
126,375,35552,5,12,0:0:0:0:
129,15,35869,5,2,0:0:0:0:
194,112,36028,1,0,0:0:0:0:
77,119,36187,1,0,0:0:0:0:
129,15,36345,1,0,0:0:0:0:
314,120,36663,5,2,0:0:0:0:
249,217,36821,1,0,0:0:0:0:
366,224,36980,1,2,0:0:0:0:
314,120,37139,5,2,0:0:0:0:
366,224,37456,1,10,0:0:0:0:
249,217,37774,1,2,0:0:0:0:
314,120,38091,1,10,0:0:0:0:
95,110,38409,5,0,0:0:0:0:
142,259,38567,1,2,0:0:0:0:
165,42,38726,1,8,0:0:0:0:
189,137,38885,1,2,0:0:0:0:
165,42,39044,1,8,0:0:0:0:
349,51,39202,5,2,0:0:0:0:
95,110,39361,1,8,0:0:0:0:
349,51,39520,1,2,0:0:0:0:
225,328,39679,1,8,0:0:0:0:
165,42,39837,1,2,0:0:0:0:
18,189,39996,1,8,0:0:0:0:
387,265,40155,6,0,P|352:270|326:265,1,60.0000031828882,6|0,0:2|0:2,0:0:0:0:
