osu file format v14

[General]
AudioFilename: audio.mp3
AudioLeadIn: 0
PreviewTime: 10393
Countdown: 0
SampleSet: Soft
StackLeniency: 0.4
Mode: 0
LetterboxInBreaks: 0
WidescreenStoryboard: 1

[Editor]
DistanceSpacing: 1
BeatDivisor: 4
GridSize: 8
TimelineZoom: 1.9

[Metadata]
Title:Shugyou no Thema
TitleUnicode:しゅぎょうのテーマ
Artist:TSUNKU
ArtistUnicode:つんく
Creator:Naotoshi
Version:A r M i N's Mastery of Mind and Body
Source:リズム天国ゴールド
Tags:diraimur diri antares- antares alexefer armin frostwich akitoshi corinn unko a_r_m_i_n alphabet nintendo rhythm heaven tengoku paradise gold munchy monk ds vgm
BeatmapID:1400195
BeatmapSetID:660914

[Difficulty]
HPDrainRate:6
CircleSize:5
OverallDifficulty:8.5
ApproachRate:9.2
SliderMultiplier:1.7
SliderTickRate:1

[Events]
//Background and Video events
0,0,"munchy_monk_by_driftermanifesto.jpg",0,0
//Break Periods
//Storyboard Layer 0 (Background)
//Storyboard Layer 1 (Fail)
//Storyboard Layer 2 (Pass)
//Storyboard Layer 3 (Foreground)
//Storyboard Sound Samples

[TimingPoints]
314,317.460317460317,4,2,1,50,1,0
20631,-90.9090909090909,4,2,1,50,0,0
30790,-100,4,2,1,65,0,1
35869,-100,4,2,1,65,0,0
38409,-76.9230769230769,4,2,1,75,0,1
40155,-500,4,2,1,75,0,0
40790,-200,4,2,1,5,0,0

[Colours]
Combo1 : 36,173,219
Combo2 : 250,205,69
Combo3 : 254,66,56
Combo4 : 51,215,146

[HitObjects]
354,84,314,5,0,0:0:0:0:
354,84,472,2,0,L|341:257,1,170,2|0,0:0|0:0,0:0:0:0:
275,64,948,2,0,P|310:14|411:25,1,170,2|0,0:0|0:0,0:0:0:0:
282,134,1425,6,0,B|196:162|196:98|116:130,1,170,2|0,0:0|0:0,0:0:0:0:
213,301,1901,2,0,L|200:131,1,170,2|0,0:0|0:0,0:0:0:0:
243,59,2377,1,2,0:0:0:0:
118,130,2536,1,2,0:0:0:0:
75,57,2694,1,2,0:0:0:0:
200,131,2853,5,0,0:0:0:0:
69,200,3012,2,0,P|33:127|75:57,1,170,2|0,0:0|0:0,0:0:0:0:
200,131,3488,2,0,B|285:159|285:95|365:127,1,170,2|0,0:0|0:0,0:0:0:0:
325,203,3964,1,2,0:0:0:0:
238,54,4123,5,8,0:0:0:0:
240,41,4202,1,0,3:0:0:0:
242,28,4282,1,4,0:3:0:0:
75,57,4440,2,0,L|88:227,1,170,6|0,0:2|0:0,0:0:0:0:
222,267,4917,2,0,P|187:217|86:228,1,170,6|0,0:0|0:0,0:0:0:0:
143,287,5394,5,0,0:0:0:0:
255,166,5552,2,0,L|248:80,1,85,8|0,0:3|0:0,0:0:0:0:
193,20,5869,1,0,0:0:0:0:
114,40,6028,2,0,P|149:90|250:79,1,170,8|0,0:0|0:0,0:0:0:0:
369,6,6504,6,0,B|397:91|333:91|365:171,1,170,8|0,0:3|0:0,0:0:0:0:
499,211,6980,2,0,P|464:161|363:172,1,170,8|0,0:0|0:0,0:0:0:0:
365,292,7456,5,2,0:0:0:0:
420,231,7615,1,4,0:3:0:0:
365,170,7774,1,2,0:0:0:0:
219,325,7933,5,4,0:0:0:0:
300,119,8091,1,0,0:0:0:0:
302,356,8250,5,8,0:0:0:0:
221,150,8408,1,0,0:0:0:0:
420,231,8567,5,8,0:0:0:0:
219,325,8725,1,0,0:0:0:0:
503,317,8885,5,8,0:0:0:0:
292,218,9043,1,0,0:0:0:0:
378,310,9202,1,8,0:0:0:0:
320,89,9361,5,2,0:2:0:0:
420,231,9520,1,2,0:2:0:0:
219,325,9679,2,0,B|211:265|211:265|227:217|227:217|219:157,1,170,2|8,0:2|0:0,0:0:0:0:
219,158,10075,1,0,3:0:0:0:
219,158,10155,1,6,0:0:0:0:
371,279,10472,6,0,L|287:272,1,85,2|0,0:0|0:0,0:0:0:0:
219,325,10790,1,8,0:0:0:0:
297,178,10948,1,0,0:0:0:0:
371,279,11107,2,0,L|455:272,1,85,2|0,0:0|0:0,0:0:0:0:
504,201,11425,1,10,0:0:0:0:
459,127,11583,6,0,P|419:198|456:272,1,170,2|0,0:0|0:0,0:0:0:0:
364,364,12060,2,0,L|371:280,1,85,8|0,0:0|0:0,0:0:0:0:
290,93,12377,2,0,L|297:177,1,85,2|0,0:0|0:0,0:0:0:0:
219,325,12694,2,0,L|226:241,1,85,8|0,0:0|0:0,0:0:0:0:
382,171,13012,6,0,L|298:178,1,85,2|0,0:0|0:0,0:0:0:0:
220,142,13329,1,8,0:0:0:0:
346,248,13488,1,0,0:0:0:0:
391,86,13647,1,2,0:0:0:0:
297,178,13806,1,0,0:0:0:0:
454,258,13964,1,8,0:0:0:0:
382,171,14123,1,2,0:0:0:0:
219,325,14282,6,0,B|134:353|134:289|54:321,1,170,4|8,0:0|0:0,0:0:0:0:
125,154,14758,2,0,L|138:324,1,170,4|0,0:0|0:0,0:0:0:0:
198,263,15234,1,8,0:0:0:0:
65,214,15393,1,0,0:0:0:0:
210,161,15552,6,0,L|126:154,1,85,2|0,0:0|0:0,0:0:0:0:
61,97,15869,1,8,0:0:0:0:
129,245,16028,1,0,0:0:0:0:
210,161,16187,1,2,0:0:0:0:
278,309,16345,2,0,L|362:302,1,85,2|8,0:0|0:0,0:0:0:0:
411,166,16663,6,0,P|351:221|363:302,1,170,2|0,0:0|0:0,0:0:0:0:
494,189,17139,2,0,P|495:150|475:107,1,85,8|0,0:0|0:0,0:0:0:0:
314,87,17456,2,0,L|398:80,1,85,2|0,0:0|0:0,0:0:0:0:
280,234,17774,2,0,L|196:227,1,85,8|0,0:0|0:0,0:0:0:0:
147,91,18091,6,0,P|207:146|195:227,1,170,2|8,0:0|0:0,0:0:0:0:
127,176,18567,1,0,0:0:0:0:
314,87,18726,2,0,L|398:94,1,85,2|0,0:0|0:0,0:0:0:0:
279,220,19044,2,0,L|195:227,1,85,10|0,0:0|0:0,0:0:0:0:
313,301,19361,6,0,P|364:236|339:158,1,170,2|8,0:0|0:0,0:0:0:0:
194,227,19837,2,0,L|278:220,1,85,2|0,0:0|0:0,0:0:0:0:
339,158,20155,1,2,0:0:0:0:
234,305,20313,1,8,0:0:0:0:
119,109,20472,1,8,0:0:0:0:
11,256,20631,6,0,L|103:248,1,93.5000028533936,6|0,0:0|0:0,0:0:0:0:
194,227,20948,1,8,0:0:0:0:
84,347,21107,1,0,0:0:0:0:
20,171,21266,2,0,L|28:77,1,93.5000028533936,2|0,0:0|0:0,0:0:0:0:
101,20,21583,1,10,0:0:0:0:
231,157,21742,6,0,B|325:188|325:124|413:156,1,187.000005706787,2|0,0:0|0:0,0:0:0:0:
378,324,22218,2,0,L|370:230,1,93.5000028533936,8|0,0:0|0:0,0:0:0:0:
231,157,22536,2,0,L|223:251,1,93.5000028533936,2|0,0:0|0:0,0:0:0:0:
84,347,22853,2,0,L|76:253,1,93.5000028533936,8|0,0:0|0:0,0:0:0:0:
269,321,23171,6,0,L|175:329,1,93.5000028533936,2|0,0:0|0:0,0:0:0:0:
84,347,23488,1,8,0:0:0:0:
143,188,23647,1,0,0:0:0:0:
269,321,23806,1,2,0:0:0:0:
328,162,23965,1,0,0:0:0:0:
199,262,24123,1,8,0:0:0:0:
397,321,24282,1,2,0:0:0:0:
335,99,24440,6,0,B|303:187|367:187|335:281,1,187.000005706787,6|8,0:0|0:0,0:0:0:0:
427,86,24917,2,0,P|382:18|283:21,1,187.000005706787,6|0,0:0|0:0,0:0:0:0:
327,192,25393,1,8,0:0:0:0:
334,98,25552,1,0,0:0:0:0:
144,192,25710,6,0,B|232:224|232:160|326:191,1,187.000005706787,6|8,0:0|0:0,0:0:0:0:
251,378,26187,2,0,L|235:190,1,187.000005706787,2|0,0:0|0:0,0:0:0:0:
151,98,26663,1,8,0:0:0:0:
143,191,26821,1,0,0:0:0:0:
89,27,26980,6,0,P|176:6|240:69,1,187.000005706787,6|8,0:0|0:0,0:0:0:0:
135,284,27456,2,0,L|150:96,1,187.000005706787,2|0,0:0|0:0,0:0:0:0:
328,182,27933,1,8,0:0:0:0:
234,189,28091,1,2,0:0:0:0:
345,89,28250,6,0,P|414:145|404:237,1,187.000005706787,4|8,0:0|0:0,0:0:0:0:
234,372,28726,2,0,B|202:277|266:277|234:189,1,187.000005706787,4|0,0:0|0:0,0:0:0:0:
63,226,29202,2,0,L|157:234,1,93.5000028533936,8|0,0:0|0:0,0:0:0:0:
232,62,29520,6,0,L|45:77,1,187.000005706787,6|8,0:0|0:0,0:0:0:0:
260,152,29996,2,0,P|323:88|303:1,1,187.000005706787,6|0,0:0|0:0,0:0:0:0:
167,140,30472,1,8,0:0:0:0:
168,172,30551,1,8,0:0:0:0:
181,202,30630,1,8,0:0:0:0:
203,226,30710,1,8,0:3:0:0:
232,241,30789,5,4,0:3:0:0:
326,72,30948,1,0,0:0:0:0:
332,302,31107,5,2,0:3:0:0:
238,133,31266,1,0,0:0:0:0:
232,363,31425,5,0,0:0:0:0:
326,194,31584,1,0,0:0:0:0:
142,259,31742,5,2,0:3:0:0:
332,302,31901,1,0,0:0:0:0:
81,307,32060,5,2,0:0:0:0:
81,307,32218,1,0,0:0:0:0:
210,141,32377,2,0,L|203:225,1,85,8|2,0:0|0:0,0:0:0:0:
429,307,32694,2,0,L|422:223,1,85,0|2,0:0|0:0,0:0:0:0:
232,363,33012,1,8,0:0:0:0:
332,220,33329,5,0,0:0:0:0:
139,140,33488,1,0,0:0:0:0:
345,115,33647,5,2,0:3:0:0:
170,230,33806,1,0,0:0:0:0:
137,61,33964,5,0,0:0:0:0:
252,236,34123,1,0,0:0:0:0:
253,44,34282,5,2,0:3:0:0:
91,208,34441,1,0,0:0:0:0:
38,37,34599,5,2,0:0:0:0:
38,37,34758,1,0,0:0:0:0:
170,230,34917,2,0,L|163:146,1,85,8|2,0:0|0:0,0:0:0:0:
341,146,35234,2,0,L|334:230,1,85,0|2,0:0|0:0,0:0:0:0:
473,339,35552,1,8,0:0:0:0:
267,283,35869,6,0,L|274:367,1,85,2|0,0:0|0:0,0:0:0:0:
333,230,36187,1,8,0:0:0:0:
333,230,36345,2,0,P|266:198|189:251,1,170,2|0,0:0|0:0,0:0:0:0:
274,367,36821,1,10,0:0:0:0:
267,283,36980,1,2,0:0:0:0:
113,215,37139,6,0,L|106:299,1,85,6|0,0:0|0:0,0:0:0:0:
258,199,37456,2,0,L|251:115,1,85,10|0,0:0|0:0,0:0:0:0:
191,245,37774,2,0,L|184:329,1,85,2|0,0:0|0:0,0:0:0:0:
336,229,38091,2,0,L|329:145,1,85,10|0,0:0|0:0,0:0:0:0:
393,1,38409,5,0,0:0:0:0:
251,114,38567,1,2,0:0:0:0:
470,129,38726,5,8,0:0:0:0:
296,24,38884,1,2,0:0:0:0:
336,229,39044,5,8,0:0:0:0:
393,1,39202,1,2,0:0:0:0:
442,232,39361,5,8,0:0:0:0:
251,114,39520,1,2,0:0:0:0:
470,129,39679,5,8,0:0:0:0:
161,222,39837,1,2,0:0:0:0:
393,153,39996,5,8,0:0:0:0:
84,246,40155,2,0,L|89:314,1,68,6|0,0:2|0:2,0:0:0:0:
