osu file format v14

[General]
AudioFilename: audio.mp3
AudioLeadIn: 0
PreviewTime: 10393
Countdown: 0
SampleSet: Normal
StackLeniency: 0.4
Mode: 1
LetterboxInBreaks: 0
WidescreenStoryboard: 1

[Editor]
DistanceSpacing: 1
BeatDivisor: 4
GridSize: 16
TimelineZoom: 1.9

[Metadata]
Title:Shugyou no Thema
TitleUnicode:しゅぎょうのテーマ
Artist:TSUNKU
ArtistUnicode:つんく
Creator:Naotoshi
Version:Oni
Source:リズム天国ゴールド
Tags:diraimur diri antares- antares alexefer armin frostwich akitoshi corinn unko a_r_m_i_n alphabet nintendo rhythm heaven tengoku paradise gold munchy monk ds vgm
BeatmapID:1437400
BeatmapSetID:660914

[Difficulty]
HPDrainRate:7
CircleSize:2
OverallDifficulty:5
ApproachRate:4
SliderMultiplier:1.4
SliderTickRate:1

[Events]
//Background and Video events
0,0,"munchy_monk_by_driftermanifesto.jpg",0,0
//Break Periods
//Storyboard Layer 0 (Background)
//Storyboard Layer 1 (Fail)
//Storyboard Layer 2 (Pass)
//Storyboard Layer 3 (Foreground)
//Storyboard Sound Samples

[TimingPoints]
314,317.460317460317,4,1,0,50,1,0
10472,-111.111111111111,4,1,0,50,0,0
20631,-111.111111111111,4,1,0,50,0,0
29996,-108.695652173913,4,1,0,50,0,0
30313,-106.382978723404,4,1,0,50,0,0
30472,-104.166666666667,4,1,0,50,0,0
30552,-103.092783505155,4,1,0,50,0,0
30631,-102.040816326531,4,1,0,50,0,0
30710,-101.010101010101,4,1,0,50,0,0
30790,-100,4,1,0,65,0,1
35869,-100,4,1,0,65,0,0
38409,-90.9090909090909,4,1,0,75,0,1
39996,-90.9090909090909,4,1,0,75,0,1
40155,-90.9090909090909,4,1,0,75,0,0
40790,-200,4,1,0,5,0,0

[Colours]
Combo1 : 36,173,219
Combo2 : 250,205,69
Combo3 : 254,66,56
Combo4 : 51,215,146

[HitObjects]
271,182,314,5,8,0:0:0:0:
271,182,472,1,0,0:0:0:0:
271,182,790,1,8,0:0:0:0:
271,182,948,1,0,0:0:0:0:
271,182,1266,1,0,0:0:0:0:
271,182,1425,1,8,0:0:0:0:
271,182,1742,1,8,0:0:0:0:
271,182,1901,1,0,0:0:0:0:
271,182,2377,1,8,0:0:0:0:
271,182,2536,1,0,0:0:0:0:
271,182,2694,1,0,0:0:0:0:
271,182,2853,1,8,0:0:0:0:
271,182,3012,1,0,0:0:0:0:
271,182,3329,1,8,0:0:0:0:
271,182,3488,1,0,0:0:0:0:
271,182,3806,1,0,0:0:0:0:
271,182,3965,1,8,0:0:0:0:
271,182,4123,1,0,0:0:0:0:
271,182,4202,1,0,0:0:0:0:
271,182,4282,1,0,0:0:0:0:
271,182,4440,1,12,0:0:0:0:
271,182,4758,1,0,0:0:0:0:
271,182,4917,1,12,0:0:0:0:
271,182,5393,1,8,0:0:0:0:
271,182,5552,1,0,0:0:0:0:
271,182,5869,1,0,0:0:0:0:
271,182,6028,1,8,0:0:0:0:
271,182,6345,1,8,0:0:0:0:
271,182,6504,1,4,0:0:0:0:
271,182,6821,1,0,0:0:0:0:
271,182,6980,1,8,0:0:0:0:
271,182,7298,1,0,0:0:0:0:
271,182,7456,1,0,0:0:0:0:
271,182,7615,1,8,0:0:0:0:
271,182,7774,1,8,0:0:0:0:
271,182,7933,1,4,0:0:0:0:
271,182,8091,1,0,0:0:0:0:
271,182,8250,1,8,0:0:0:0:
271,182,8409,1,0,0:0:0:0:
271,182,8567,1,8,0:0:0:0:
271,182,8726,1,0,0:0:0:0:
271,182,8885,1,8,0:0:0:0:
271,182,9044,1,8,0:0:0:0:
271,182,9123,1,8,0:0:0:0:
271,182,9202,1,0,0:0:0:0:
271,182,9361,1,4,0:0:0:0:
271,182,9520,1,0,0:0:0:0:
271,182,9679,1,12,0:0:0:0:
270,180,9996,1,0,0:0:0:0:
270,180,10075,1,0,0:0:0:0:
270,180,10155,1,8,0:0:0:0:
120,161,10472,5,4,0:0:0:0:
118,160,10790,1,8,0:0:0:0:
118,160,10948,1,0,0:0:0:0:
118,160,11107,1,8,0:0:0:0:
118,160,11266,1,8,0:0:0:0:
118,160,11425,1,0,0:0:0:0:
118,160,11583,1,8,0:0:0:0:
118,160,11742,1,0,0:0:0:0:
119,159,12060,1,8,0:0:0:0:
118,158,12377,1,0,0:0:0:0:
118,158,12536,1,0,0:0:0:0:
118,158,12694,1,8,0:0:0:0:
118,158,13012,1,0,0:0:0:0:
118,158,13329,1,8,0:0:0:0:
118,158,13488,1,8,0:0:0:0:
128,163,13647,1,0,0:0:0:0:
128,163,13806,1,0,0:0:0:0:
129,161,13885,1,0,0:0:0:0:
128,163,13964,1,8,0:0:0:0:
128,163,14123,1,0,0:0:0:0:
128,163,14282,5,12,0:0:0:0:
130,163,14599,1,0,0:0:0:0:
128,163,14758,1,12,0:0:0:0:
123,156,15075,1,0,0:0:0:0:
123,156,15234,1,8,0:0:0:0:
123,156,15393,1,0,0:0:0:0:
123,156,15552,1,12,0:0:0:0:
122,154,15869,1,8,0:0:0:0:
122,154,16028,1,0,0:0:0:0:
122,154,16187,1,8,0:0:0:0:
122,154,16345,1,0,0:0:0:0:
122,154,16663,1,8,0:0:0:0:
122,154,16742,1,8,0:0:0:0:
122,154,16821,1,0,0:0:0:0:
143,165,17139,1,8,0:0:0:0:
143,165,17456,1,8,0:0:0:0:
143,165,17615,1,8,0:0:0:0:
143,165,17774,1,0,0:0:0:0:
143,165,18091,1,8,0:0:0:0:
146,163,18409,1,8,0:0:0:0:
146,163,18567,1,0,0:0:0:0:
146,163,18647,1,0,0:0:0:0:
146,163,18726,1,8,0:0:0:0:
146,163,18885,1,8,0:0:0:0:
146,163,19044,1,0,0:0:0:0:
146,163,19202,1,0,0:0:0:0:
146,163,19361,1,8,0:0:0:0:
146,163,19679,1,0,0:0:0:0:
146,163,19837,1,8,0:0:0:0:
146,163,20155,1,8,0:0:0:0:
146,163,20313,1,4,0:0:0:0:
146,163,20472,1,4,0:0:0:0:
312,154,20631,1,12,0:0:0:0:
284,183,20948,1,8,0:0:0:0:
284,183,21107,1,0,0:0:0:0:
284,183,21266,1,8,0:0:0:0:
284,183,21425,1,8,0:0:0:0:
284,183,21583,1,0,0:0:0:0:
284,183,21742,1,8,0:0:0:0:
284,183,21821,1,8,0:0:0:0:
284,183,21901,1,0,0:0:0:0:
284,183,22218,1,8,0:0:0:0:
284,183,22377,1,0,0:0:0:0:
284,183,22536,1,8,0:0:0:0:
284,183,22694,1,0,0:0:0:0:
284,183,22853,1,8,0:0:0:0:
284,183,23012,1,0,0:0:0:0:
284,183,23091,1,0,0:0:0:0:
284,183,23171,1,8,0:0:0:0:
286,185,23488,1,8,0:0:0:0:
286,185,23647,1,0,0:0:0:0:
286,185,23806,1,8,0:0:0:0:
286,185,23964,1,8,0:0:0:0:
286,185,24044,1,0,0:0:0:0:
286,185,24123,1,8,0:0:0:0:
286,185,24282,1,8,0:0:0:0:
286,185,24440,1,4,0:0:0:0:
285,183,24758,1,8,0:0:0:0:
285,183,24917,1,4,0:0:0:0:
285,183,25234,1,8,0:0:0:0:
285,183,25393,1,0,0:0:0:0:
285,183,25552,1,0,0:0:0:0:
285,183,25631,1,0,0:0:0:0:
285,183,25710,1,8,0:0:0:0:
282,189,25869,1,0,0:0:0:0:
282,189,25948,1,0,0:0:0:0:
284,187,26028,1,0,0:0:0:0:
284,187,26187,1,8,0:0:0:0:
282,189,26504,1,0,0:0:0:0:
282,189,26663,1,0,0:0:0:0:
364,143,26821,1,8,0:0:0:0:
364,143,26901,1,8,0:0:0:0:
364,143,26980,1,0,0:0:0:0:
233,103,27139,1,0,0:0:0:0:
233,103,27218,1,0,0:0:0:0:
233,103,27298,1,0,0:0:0:0:
128,151,27456,1,8,0:0:0:0:
287,141,27774,1,0,0:0:0:0:
180,162,27933,1,8,0:0:0:0:
180,162,28012,1,8,0:0:0:0:
180,162,28091,1,0,0:0:0:0:
180,162,28171,1,0,0:0:0:0:
183,166,28250,1,8,0:0:0:0:
243,251,28567,1,0,0:0:0:0:
243,251,28726,1,12,0:0:0:0:
314,230,29044,1,0,0:0:0:0:
314,230,29202,1,8,0:0:0:0:
314,230,29361,1,8,0:0:0:0:
259,153,29520,1,4,0:0:0:0:
255,154,29837,1,0,0:0:0:0:
255,154,29996,1,12,0:0:0:0:
256,153,30313,1,0,0:0:0:0:
407,110,30472,1,8,0:0:0:0:
407,110,30552,1,8,0:0:0:0:
407,110,30631,1,0,0:0:0:0:
407,110,30710,1,8,0:0:0:0:
407,110,30790,5,0,0:0:0:0:
308,148,30948,1,0,0:0:0:0:
215,113,31107,1,12,0:0:0:0:
143,169,31266,1,0,0:0:0:0:
215,232,31345,1,0,0:0:0:0:
215,232,31425,1,0,0:0:0:0:
215,232,31583,1,0,0:0:0:0:
215,232,31742,1,12,0:0:0:0:
215,232,31901,1,0,0:0:0:0:
100,200,32060,1,0,0:0:0:0:
100,200,32218,1,8,0:0:0:0:
100,200,32298,1,0,0:0:0:0:
100,200,32377,1,8,0:0:0:0:
199,228,32536,1,0,0:0:0:0:
199,228,32615,1,0,0:0:0:0:
104,271,32694,1,8,0:0:0:0:
189,314,32853,1,0,0:0:0:0:
189,314,33012,1,4,0:0:0:0:
407,110,33330,5,8,0:0:0:0:
308,148,33488,1,8,0:0:0:0:
215,113,33646,1,4,0:0:0:0:
143,169,33807,1,8,0:0:0:0:
215,232,33885,1,8,0:0:0:0:
215,232,33964,1,0,0:0:0:0:
215,232,34122,1,0,0:0:0:0:
215,232,34281,1,12,0:0:0:0:
215,232,34440,1,8,0:0:0:0:
100,200,34599,1,0,0:0:0:0:
100,200,34758,1,8,0:0:0:0:
100,200,34837,1,0,0:0:0:0:
100,200,34916,1,8,0:0:0:0:
199,228,35075,1,0,0:0:0:0:
199,228,35154,1,0,0:0:0:0:
104,271,35233,1,8,0:0:0:0:
189,314,35393,1,8,0:0:0:0:
189,314,35551,1,4,0:0:0:0:
238,184,35869,5,8,0:0:0:0:
238,184,36028,1,0,0:0:0:0:
238,184,36107,1,0,0:0:0:0:
238,184,36187,1,0,0:0:0:0:
238,184,36345,1,8,0:0:0:0:
306,164,36663,1,0,0:0:0:0:
369,122,36821,1,8,0:0:0:0:
421,184,36980,1,8,0:0:0:0:
421,184,37060,1,0,0:0:0:0:
421,184,37139,1,8,0:0:0:0:
309,213,37298,1,0,0:0:0:0:
389,304,37456,1,8,0:0:0:0:
252,317,37615,1,0,0:0:0:0:
252,317,37694,1,0,0:0:0:0:
252,317,37774,1,8,0:0:0:0:
160,245,37933,1,8,0:0:0:0:
160,245,38012,1,8,0:0:0:0:
160,245,38091,1,0,0:0:0:0:
224,175,38250,1,0,0:0:0:0:
114,156,38409,5,12,0:0:0:0:
187,101,38567,1,0,0:0:0:0:
187,101,38647,1,0,0:0:0:0:
187,101,38726,1,8,0:0:0:0:
297,111,38885,1,8,0:0:0:0:
379,188,39044,1,0,0:0:0:0:
379,188,39123,1,0,0:0:0:0:
379,188,39202,1,8,0:0:0:0:
379,188,39282,1,0,0:0:0:0:
379,188,39361,1,8,0:0:0:0:
436,108,39520,1,8,0:0:0:0:
316,103,39679,1,4,0:0:0:0:
250,162,39837,1,0,0:0:0:0:
250,162,39917,1,0,0:0:0:0:
250,162,39996,1,8,0:0:0:0:
102,216,40155,1,12,0:0:0:0:
