osu file format v14

[General]
AudioFilename: audio.mp3
AudioLeadIn: 0
PreviewTime: 10393
Countdown: 0
SampleSet: Soft
StackLeniency: 0.2
Mode: 0
LetterboxInBreaks: 0
WidescreenStoryboard: 1

[Editor]
DistanceSpacing: 1
BeatDivisor: 4
GridSize: 4
TimelineZoom: 1.9

[Metadata]
Title:Shugyou no Thema
TitleUnicode:しゅぎょうのテーマ
Artist:TSUNKU
ArtistUnicode:つんく
Creator:Naotoshi
Version:Insane
Source:リズム天国ゴールド
Tags:diraimur diri antares- antares alexefer armin frostwich akitoshi corinn unko a_r_m_i_n alphabet nintendo rhythm heaven tengoku paradise gold munchy monk ds vgm
BeatmapID:1399324
BeatmapSetID:660914

[Difficulty]
HPDrainRate:6.5
CircleSize:4
OverallDifficulty:7.5
ApproachRate:8.8
SliderMultiplier:1.7
SliderTickRate:1

[Events]
//Background and Video events
0,0,"munchy_monk_by_driftermanifesto.jpg",0,0
//Break Periods
//Storyboard Layer 0 (Background)
//Storyboard Layer 1 (Fail)
//Storyboard Layer 2 (Pass)
//Storyboard Layer 3 (Foreground)
//Storyboard Sound Samples

[TimingPoints]
314,317.460317460317,4,2,1,50,1,0
20631,-90.9090909090909,4,2,1,50,0,0
30790,-100,4,2,1,65,0,1
35869,-100,4,2,1,65,0,0
38409,-76.9230769230769,4,2,1,75,0,1
40155,-71.4285714285714,4,2,1,75,0,0
40790,-71.4285714285714,4,2,1,5,0,0

[Colours]
Combo1 : 36,173,219
Combo2 : 250,205,69
Combo3 : 254,66,56
Combo4 : 51,215,146

[HitObjects]
147,140,314,5,0,0:0:0:0:
284,199,472,2,0,L|292:319,1,85,2|0,0:0|0:0,0:0:0:0:
147,140,790,1,0,0:0:0:0:
307,219,948,2,0,L|313:304,1,85,2|0,0:0|0:0,0:0:0:0:
147,140,1266,1,0,0:0:0:0:
330,239,1425,2,0,L|336:324,1,85,2|0,0:0|0:0,0:0:0:0:
147,140,1742,1,0,0:0:0:0:
300,182,1901,2,0,L|314:351,1,170,2|0,0:0|0:0,0:0:0:0:
211,303,2377,5,2,0:0:0:0:
404,292,2536,1,2,0:0:0:0:
300,182,2694,1,2,0:0:0:0:
437,123,2853,5,0,0:0:0:0:
294,266,3012,2,0,L|300:182,1,85,2|0,0:0|0:0,0:0:0:0:
437,123,3329,1,0,0:0:0:0:
271,287,3488,2,0,L|277:202,1,85,2|0,0:0|0:0,0:0:0:0:
437,123,3805,1,0,0:0:0:0:
248,307,3964,2,0,L|254:222,1,85,2|8,0:0|0:0,0:0:0:0:
258,186,4202,1,0,3:0:0:0:
261,149,4282,1,4,0:3:0:0:
69,239,4440,6,0,P|102:275|218:242,1,170,6|0,0:2|0:0,0:0:0:0:
27,165,4917,2,0,L|34:358,1,170,6|0,0:0|0:0,0:0:0:0:
148,196,5393,5,0,0:0:0:0:
279,306,5553,2,0,L|399:314,1,85,8|0,0:3|0:0,0:0:0:0:
148,196,5869,1,0,0:0:0:0:
299,329,6028,2,0,L|384:335,1,85,8|0,0:0|0:0,0:0:0:0:
148,196,6345,1,0,0:0:0:0:
319,352,6504,2,0,L|404:358,1,85,8|0,0:3|0:0,0:0:0:0:
148,196,6821,1,0,0:0:0:0:
279,325,6980,2,0,L|448:339,1,170,8|0,0:0|0:0,0:0:0:0:
353,226,7456,5,4,0:3:0:0:
338,371,7615,1,2,0:0:0:0:
224,318,7774,1,2,0:0:0:0:
431,336,7933,5,4,0:0:0:0:
286,193,8091,2,0,L|371:199,1,85,0|8,0:0|0:0,0:0:0:0:
431,336,8409,1,0,0:0:0:0:
267,170,8567,2,0,L|352:176,1,85,8|0,0:0|0:0,0:0:0:0:
431,336,8885,1,8,0:0:0:0:
247,147,9044,2,0,L|332:153,1,85,0|8,0:0|0:0,0:0:0:0:
431,336,9361,5,2,0:2:0:0:
443,110,9520,1,2,0:2:0:0:
299,287,9679,2,0,L|119:303,1,170,2|8,0:2|0:0,0:0:0:0:
91,305,10075,1,0,3:0:0:0:
37,310,10155,1,6,0:0:0:0:
37,310,10472,6,0,P|23:245|46:200,1,85,2|0,0:0|0:0,0:0:0:0:
119,182,10790,1,8,0:0:0:0:
34,141,10948,1,0,0:0:0:0:
111,262,11107,1,2,0:0:0:0:
111,262,11266,1,0,0:0:0:0:
198,135,11425,1,10,0:0:0:0:
279,256,11583,2,0,P|227:251|104:263,1,170,2|0,0:0|0:0,0:0:0:0:
95,86,12060,6,0,L|75:178,1,85,8|0,0:0|0:0,0:0:0:0:
190,115,12377,2,0,L|177:32,1,85,2|0,0:0|0:0,0:0:0:0:
294,78,12694,2,0,L|280:181,1,85,8|0,0:0|0:0,0:0:0:0:
388,313,13012,6,0,P|372:267|376:228,1,85,2|0,0:0|0:0,0:0:0:0:
442,162,13329,1,8,0:0:0:0:
462,261,13488,1,0,0:0:0:0:
346,134,13647,1,2,0:0:0:0:
346,134,13806,1,0,0:0:0:0:
279,281,13964,1,8,0:0:0:0:
217,148,14123,1,2,0:0:0:0:
217,148,14282,6,0,L|118:295,1,170,4|8,0:0|0:0,0:0:0:0:
120,147,14758,2,0,L|219:294,1,170,4|0,0:0|0:0,0:0:0:0:
62,218,15234,1,8,0:0:0:0:
23,307,15393,1,0,0:0:0:0:
214,288,15552,6,0,P|266:289|318:322,1,85,2|0,0:0|0:0,0:0:0:0:
244,367,15869,1,8,0:0:0:0:
202,203,16028,1,0,0:0:0:0:
363,241,16187,1,2,0:0:0:0:
363,241,16345,2,0,L|450:227,1,85,2|8,0:0|0:0,0:0:0:0:
301,151,16663,2,0,L|492:123,1,170,2|0,0:0|0:0,0:0:0:0:
255,65,17139,6,0,L|354:50,1,85,8|0,0:0|0:0,0:0:0:0:
202,147,17456,2,0,L|139:68,1,85,2|0,0:0|0:0,0:0:0:0:
300,152,17774,2,0,L|263:245,1,85,8|0,0:0|0:0,0:0:0:0:
16,187,18091,2,8,L|100:174,1,85,2|0,0:0|0:0,0:0:0:0:
300,152,18409,1,8,0:0:0:0:
255,65,18567,1,0,0:0:0:0:
268,230,18726,2,0,L|238:310,1,85,2|0,0:0|0:0,0:0:0:0:
79,260,19044,2,8,L|164:248,1,85,10|0,0:0|0:0,0:0:0:0:
405,283,19361,2,0,L|229:310,1,170,2|8,0:0|0:0,0:0:0:0:
482,327,19837,6,0,P|493:277|478:229,1,85,2|0,0:0|0:0,0:0:0:0:
416,193,20155,1,2,0:0:0:0:
237,309,20313,1,8,0:0:0:0:
412,279,20472,1,8,0:0:0:0:
274,121,20631,6,0,L|276:245,1,93.5000028533936,6|0,0:0|0:0,0:0:0:0:
182,82,20948,1,8,0:0:0:0:
318,36,21107,1,0,0:0:0:0:
178,177,21266,1,2,0:0:0:0:
178,177,21425,1,0,0:0:0:0:
234,5,21583,1,10,0:0:0:0:
376,176,21742,2,0,P|447:145|408:57,1,187.000005706787,2|0,0:0|0:0,0:0:0:0:
287,173,22218,6,0,L|295:274,1,93.5000028533936,8|0,0:0|0:0,0:0:0:0:
195,340,22536,2,0,L|203:247,1,93.5000028533936,2|0,0:0|0:0,0:0:0:0:
100,172,22853,2,0,L|107:265,1,93.5000028533936,8|0,0:0|0:0,0:0:0:0:
51,95,23171,6,0,P|114:82|154:93,1,93.5000028533936,2|0,0:0|0:0,0:0:0:0:
220,190,23488,1,8,0:0:0:0:
100,172,23647,1,0,0:0:0:0:
257,83,23806,1,2,0:0:0:0:
257,83,23964,1,0,0:0:0:0:
139,266,24123,1,8,0:0:0:0:
313,182,24282,1,2,0:0:0:0:
188,359,24440,6,0,L|181:171,1,187.000005706787,6|8,0:0|0:0,0:0:0:0:
385,275,24917,2,0,P|285:295|212:241,1,187.000005706787,6|0,0:0|0:0,0:0:0:0:
255,89,25393,1,8,0:0:0:0:
313,182,25552,1,0,0:0:0:0:
445,101,25710,6,0,P|399:91|353:92,2,93.5000028533936,6|0|8,0:0|0:0|0:0,0:0:0:0:
315,275,26187,2,0,L|313:182,1,93.5000028533936,2|0,0:0|0:0,0:0:0:0:
243,342,26504,5,0,0:0:0:0:
243,342,26663,1,8,0:0:0:0:
174,275,26821,1,2,0:0:0:0:
7,351,26980,6,0,P|54:357|100:349,2,93.5000028533936,6|0|8,0:0|0:0|0:0,0:0:0:0:
58,172,27456,2,0,L|58:279,1,93.5000028533936,2|0,0:0|0:0,0:0:0:0:
153,158,27774,5,0,0:0:0:0:
90,83,27933,1,8,0:0:0:0:
58,172,28091,1,2,0:0:0:0:
250,140,28250,6,0,P|366:151|423:219,1,187.000005706787,4|8,0:0|0:0,0:0:0:0:
204,244,28726,2,0,L|209:33,1,187.000005706787,4|0,0:0|0:0,0:0:0:0:
411,104,29202,2,0,L|412:225,1,93.5000028533936,8|0,0:0|0:0,0:0:0:0:
204,244,29520,6,0,P|88:233|31:165,1,187.000005706787,6|8,0:0|0:0,0:0:0:0:
250,140,29996,2,0,L|245:351,1,187.000005706787,6|0,0:0|0:0,0:0:0:0:
129,230,30472,1,8,0:0:0:0:
151,222,30552,1,8,0:0:0:0:
174,219,30631,1,8,0:0:0:0:
197,221,30710,1,8,0:3:0:0:
219,227,30790,5,4,0:3:0:0:
161,312,30948,1,0,0:0:0:0:
305,298,31107,2,0,L|421:288,1,85,2|0,0:3|0:0,0:0:0:0:
435,126,31425,5,0,0:0:0:0:
493,210,31583,1,0,0:0:0:0:
353,193,31742,2,0,L|237:183,1,85,2|0,0:3|0:0,0:0:0:0:
188,102,32060,5,2,0:0:0:0:
188,102,32218,1,0,0:0:0:0:
33,219,32377,1,8,0:0:0:0:
92,139,32536,1,2,0:0:0:0:
33,219,32694,1,0,0:0:0:0:
92,139,32853,1,2,0:0:0:0:
14,24,33012,2,0,L|12:127,1,85,8|0,0:0|0:0,0:0:0:0:
152,63,33329,5,0,0:0:0:0:
152,63,33488,1,0,0:0:0:0:
233,173,33647,2,0,L|243:260,1,85,2|0,0:3|0:0,0:0:0:0:
323,147,33964,5,0,0:0:0:0:
323,147,34123,1,0,0:0:0:0:
242,257,34282,2,0,L|232:344,1,85,2|0,0:3|0:0,0:0:0:0:
342,279,34599,5,2,0:0:0:0:
342,279,34758,1,0,0:0:0:0:
389,356,34917,1,8,0:0:0:0:
434,267,35075,1,2,0:0:0:0:
389,356,35234,1,0,0:0:0:0:
434,267,35393,1,2,0:0:0:0:
383,108,35552,2,0,L|373:220,1,85,8|0,0:0|0:0,0:0:0:0:
303,59,35869,5,2,0:0:0:0:
214,117,36028,1,0,0:0:0:0:
214,26,36187,1,8,0:0:0:0:
298,153,36345,2,0,P|299:211|288:265,1,85,2|0,0:0|0:0,0:0:0:0:
216,304,36663,1,0,0:0:0:0:
200,214,36821,1,10,0:0:0:0:
313,334,36980,1,2,0:0:0:0:
123,277,37139,6,0,P|65:278|9:303,1,85,6|0,0:0|0:0,0:0:0:0:
71,180,37456,2,0,P|99:129|105:68,1,85,10|0,0:0|0:0,0:0:0:0:
181,183,37774,2,0,P|210:232|260:268,1,85,2|0,0:0|0:0,0:0:0:0:
322,188,38091,2,0,P|292:138|242:102,1,85,10|0,0:0|0:0,0:0:0:0:
183,78,38409,5,0,0:0:0:0:
337,60,38567,1,2,0:0:0:0:
220,204,38726,1,8,0:0:0:0:
407,249,38885,2,0,L|516:235,1,110.499994941712,2|8,0:0|0:0,0:0:0:0:
356,347,39202,5,2,0:0:0:0:
324,182,39361,1,8,0:0:0:0:
464,278,39520,1,2,0:0:0:0:
279,276,39679,5,8,0:0:0:0:
449,159,39837,1,2,0:0:0:0:
269,87,39996,1,8,0:0:0:0:
383,243,40155,6,4,B|347:276|339:301|339:301|288:270|288:246|288:246|263:212|241:211|241:211|192:178|169:188|169:188|125:183|86:202|86:202|43:239|40:291|-6:268|-6:268,1,475.999985473633,6|0,0:2|0:2,0:2:0:0:
