osu file format v14

[General]
AudioFilename: audio.mp3
AudioLeadIn: 0
PreviewTime: 10393
Countdown: 0
SampleSet: None
StackLeniency: 0.7
Mode: 2
LetterboxInBreaks: 0
WidescreenStoryboard: 1

[Editor]
DistanceSpacing: 1
BeatDivisor: 4
GridSize: 32
TimelineZoom: 1

[Metadata]
Title:Shugyou no Thema
TitleUnicode:しゅぎょうのテーマ
Artist:TSUNKU
ArtistUnicode:つんく
Creator:Ascendance
Version:Salad
Source:リズム天国ゴールド
Tags:nintendo rhythm heaven tengoku paradise gold munchy monk ds vgm nao tomori naotoshi
BeatmapID:1963786
BeatmapSetID:940261

[Difficulty]
HPDrainRate:4
CircleSize:3
OverallDifficulty:7
ApproachRate:7
SliderMultiplier:1.6
SliderTickRate:1

[Events]
//Background and Video events
0,0,"munchy_monk_by_driftermanifesto.jpg",0,0
//Break Periods
//Storyboard Layer 0 (Background)
//Storyboard Layer 1 (Fail)
//Storyboard Layer 2 (Pass)
//Storyboard Layer 3 (Foreground)
//Storyboard Sound Samples

[TimingPoints]
314,317.460317460317,4,2,1,50,1,0
20631,-100,4,2,1,50,0,0
30790,-100,4,2,1,65,0,1
35869,-100,4,2,1,65,0,0
38409,-100,4,2,1,75,0,1
40155,-100,4,2,1,75,0,0
40790,-100,4,2,1,5,0,0

[Colours]
Combo1 : 21,98,255
Combo2 : 251,0,125
Combo3 : 63,63,63
Combo4 : 255,255,117

[HitObjects]
73,340,314,6,0,L|61:252,1,80,0|2,0:0|0:0,0:0:0:0:
226,207,790,2,0,L|244:126,1,80,0|2,0:0|0:0,0:0:0:0:
400,101,1266,2,0,L|385:14,1,80,0|2,0:0|0:0,0:0:0:0:
217,111,1742,2,0,L|202:24,1,80,0|2,0:0|0:0,0:0:0:0:
403,185,2377,2,0,L|485:172,2,80,2|2|2,0:0|0:0|0:0,0:0:0:0:
222,306,2853,6,0,P|159:244|185:155,1,160,0|0,0:0|0:0,0:0:0:0:
319,90,3488,2,0,L|154:71,1,160,2|0,0:0|0:0,0:0:0:0:
306,250,4123,2,0,L|309:155,1,80,8|4,0:0|0:3,0:0:0:0:
107,335,4440,2,0,P|45:278|135:158,1,240,6|6,0:2|0:0,0:0:0:0:
342,210,5393,6,0,L|359:120,1,80,0|8,0:0|0:3,0:0:0:0:
198,352,5869,2,0,L|182:266,1,80,0|8,0:0|0:0,0:0:0:0:
16,208,6345,2,0,L|39:123,1,80,0|8,0:0|0:3,0:0:0:0:
202,119,6821,2,0,L|220:37,1,80,0|8,0:0|0:0,0:0:0:0:
397,78,7456,2,0,L|480:96,2,80,2|4|2,0:0|0:3|0:0,0:0:0:0:
205,248,7933,6,0,P|166:201|197:107,1,160,4|8,0:0|0:0,0:0:0:0:
355,365,8567,2,0,P|394:318|363:224,1,160,8|8,0:0|0:0,0:0:0:0:
224,218,9202,1,8,0:0:0:0:
121,272,9361,2,0,L|121:167,1,80,2|2,0:2|0:2,0:0:0:0:
332,122,9679,5,2,0:2:0:0:
175,30,10472,6,0,L|2:30,1,160,2|8,0:0|0:0,0:0:0:0:
194,164,11107,2,0,L|201:84,2,80,2|0|10,0:0|0:0|0:0,0:0:0:0:
31,251,11742,2,0,L|189:226,1,160,0|8,0:0|0:0,0:0:0:0:
347,325,12377,2,0,P|389:295|381:183,1,160,2|8,0:0|0:0,0:0:0:0:
235,97,13012,6,0,L|403:86,1,160,2|8,0:0|0:0,0:0:0:0:
259,231,13647,2,0,L|251:141,1,80,2|0,0:0|0:0,0:0:0:0:
357,223,13964,2,0,L|365:322,1,80,8|2,0:0|0:0,0:0:0:0:
176,342,14282,6,0,P|109:259|195:171,1,240,4|4,0:0|0:0,0:0:0:0:
329,170,15075,2,0,L|414:181,2,80,0|8|0,0:0|0:0|0:0,0:0:0:0:
168,264,15552,6,0,P|123:234|152:117,1,160,2|8,0:0|0:0,0:0:0:0:
205,102,16028,2,0,L|296:114,2,80,0|2|2,0:0|0:0|0:0,0:0:0:0:
55,246,16663,2,0,L|302:211,1,240,2|8,0:0|0:0,0:0:0:0:
163,346,17456,2,0,P|118:281|179:208,1,160,2|8,0:0|0:0,0:0:0:0:
434,247,18091,6,0,P|496:190|465:100,1,160,2|8,0:0|0:0,0:0:0:0:
402,88,18567,1,0,0:0:0:0:
316,70,18726,1,2,0:0:0:0:
463,17,19044,1,10,0:0:0:0:
294,94,19361,6,0,L|300:265,1,160,2|8,0:0|0:0,0:0:0:0:
386,269,19837,1,2,0:0:0:0:
205,220,20155,2,0,L|114:236,2,80,2|8|8,0:0|0:0|0:0,0:0:0:0:
406,265,20631,6,0,P|454:202|382:136,1,160,6|8,0:0|0:0,0:0:0:0:
279,115,21266,1,2,0:0:0:0:
215,115,21424,1,0,0:0:0:0:
151,115,21583,1,10,0:0:0:0:
10,119,21901,2,0,L|177:116,1,160,0|8,0:0|0:0,0:0:0:0:
7,187,22536,2,0,L|166:187,1,160,2|8,0:0|0:0,0:0:0:0:
347,278,23171,6,0,P|394:226|339:150,1,160,2|8,0:0|0:0,0:0:0:0:
201,151,23806,2,0,L|109:151,2,80,2|0|8,0:0|0:0|0:0,0:0:0:0:
482,45,24440,6,0,P|499:150|363:211,1,240,6|6,0:0|0:0,0:0:0:0:
260,272,25234,2,0,L|344:272,2,80,0|8|0,0:0|0:0|0:0,0:0:0:0:
83,337,25710,6,0,P|70:260|200:171,1,240,6|2,0:0|0:0,0:0:0:0:
322,197,26504,2,0,L|206:198,1,80,0|8,0:0|0:0,0:0:0:0:
214,97,26821,1,0,0:0:0:0:
388,258,26980,6,0,P|450:211|383:70,1,240,6|2,0:0|0:0,0:0:0:0:
272,64,27774,2,0,L|183:63,2,80,0|8|2,0:0|0:0|0:0,0:0:0:0:
443,225,28250,6,0,P|508:160|423:53,1,240,4|4,0:0|0:0,0:0:0:0:
259,68,29044,2,0,L|347:68,1,80,0|8,0:0|0:0,0:0:0:0:
372,69,29361,1,0,0:0:0:0:
184,37,29520,6,0,P|112:37|17:176,2,240,6|6|8,0:0|0:0|0:0,0:0:0:0:
300,80,30631,1,8,0:0:0:0:
217,185,30790,6,0,L|214:90,1,80,4|0,0:3|0:0,0:0:0:0:
396,267,31107,1,2,0:3:0:0:
291,312,31425,2,0,L|292:196,1,80,0|0,0:0|0:0,0:0:0:0:
447,184,31742,1,2,0:3:0:0:
300,193,32060,6,0,L|299:10,1,160,2|8,0:0|0:0,0:0:0:0:
406,50,32694,2,0,L|404:226,1,160,0|8,0:0|0:0,0:0:0:0:
256,160,33329,6,0,L|259:65,1,80,0|0,0:0|0:0,0:0:0:0:
75,234,33646,1,2,0:3:0:0:
213,330,33964,2,0,L|212:214,1,80,0|0,0:0|0:0,0:0:0:0:
29,234,34281,1,2,0:3:0:0:
149,149,34599,6,0,L|309:173,1,160,2|8,0:0|0:0,0:0:0:0:
206,56,35234,2,0,L|367:84,1,160,0|8,0:0|0:0,0:0:0:0:
74,326,35869,6,0,P|69:249|208:156,1,240,2|2,0:0|0:0,0:0:0:0:
314,197,36663,2,0,L|324:111,1,80,0|10,0:0|0:0,0:0:0:0:
66,63,37139,2,0,L|226:37,1,160,6|10,0:0|0:0,0:0:0:0:
362,229,37774,2,0,L|369:45,1,160,2|10,0:0|0:0,0:0:0:0:
61,360,38409,6,0,P|16:291|109:172,1,240,0|0,0:0|0:0,0:0:0:0:
270,209,39202,2,0,L|269:121,1,80,2|8,0:0|0:0,0:0:0:0:
113,78,39679,6,0,L|19:78,2,80,8|2|8,0:0|0:0|0:0,0:0:0:0:
286,74,40155,1,6,0:2:0:0:
