osu file format v14

[General]
AudioFilename: audio.mp3
AudioLeadIn: 0
PreviewTime: 10393
Countdown: 0
SampleSet: None
StackLeniency: 0.7
Mode: 2
LetterboxInBreaks: 0
WidescreenStoryboard: 1

[Editor]
DistanceSpacing: 1
BeatDivisor: 4
GridSize: 32
TimelineZoom: 1

[Metadata]
Title:Shugyou no Thema
TitleUnicode:しゅぎょうのテーマ
Artist:TSUNKU
ArtistUnicode:つんく
Creator:Ascendance
Version:Cup
Source:リズム天国ゴールド
Tags:nintendo rhythm heaven tengoku paradise gold munchy monk ds vgm nao tomori naotoshi
BeatmapID:1963782
BeatmapSetID:940261

[Difficulty]
HPDrainRate:3
CircleSize:2.5
OverallDifficulty:6
ApproachRate:6
SliderMultiplier:1.4
SliderTickRate:1

[Events]
//Background and Video events
0,0,"munchy_monk_by_driftermanifesto.jpg",0,0
//Break Periods
//Storyboard Layer 0 (Background)
//Storyboard Layer 1 (Fail)
//Storyboard Layer 2 (Pass)
//Storyboard Layer 3 (Foreground)
//Storyboard Sound Samples

[TimingPoints]
314,317.460317460317,4,2,1,50,1,0
20631,-100,4,2,1,50,0,0
30790,-100,4,2,1,65,0,1
35869,-100,4,2,1,65,0,0
38409,-100,4,2,1,75,0,1
40155,-100,4,2,1,75,0,0
40790,-100,4,2,1,5,0,0

[Colours]
Combo1 : 21,98,255
Combo2 : 251,0,125
Combo3 : 63,63,63
Combo4 : 255,255,117

[HitObjects]
64,190,314,5,0,0:0:0:0:
224,191,948,1,2,0:0:0:0:
43,190,1425,1,2,0:0:0:0:
261,186,1901,1,2,0:0:0:0:
449,196,2853,5,0,0:0:0:0:
243,196,3487,1,2,0:0:0:0:
440,195,3964,1,2,0:0:0:0:
373,123,4123,2,0,L|213:140,1,140,8|6,0:0|0:2,0:0:0:0:
440,38,4917,1,6,0:0:0:0:
226,38,5393,5,0,0:0:0:0:
48,41,6028,1,8,0:0:0:0:
271,42,6504,1,8,0:3:0:0:
433,42,6980,1,8,0:0:0:0:
210,46,7456,1,2,0:0:0:0:
39,80,7933,6,0,L|46:236,1,140,4|8,0:0|0:0,0:0:0:0:
170,174,8567,2,0,L|176:316,1,140,8|8,0:0|0:0,0:0:0:0:
319,243,9202,1,8,0:0:0:0:
389,166,9361,2,0,L|230:153,1,140,2|2,0:2|0:2,0:0:0:0:
122,76,10155,1,0,0:0:0:0:
122,76,10472,6,0,L|287:54,1,140,2|8,0:0|0:0,0:0:0:0:
411,209,11107,2,0,L|192:178,1,210,2|2,0:0|0:0,0:0:0:0:
361,147,12060,2,0,P|413:142|464:71,2,140,8|2|8,0:0|0:0|0:0,0:0:0:0:
215,46,13012,6,0,L|205:193,1,140,2|8,0:0|0:0,0:0:0:0:
334,121,13647,2,0,L|323:264,1,140,2|8,0:0|0:0,0:0:0:0:
195,332,14282,2,0,B|283:303|283:303|411:344,2,210,4|4|8,0:0|0:0|0:0,0:0:0:0:
60,286,15552,6,0,P|34:245|67:161,1,140,2|8,0:0|0:0,0:0:0:0:
186,182,16187,2,0,P|245:131|170:33,1,210,2|2,0:0|0:0,0:0:0:0:
68,193,17139,2,0,L|218:193,1,140,8|2,0:0|0:0,0:0:0:0:
332,259,17774,1,8,0:0:0:0:
163,202,18091,6,0,B|122:195|122:195|27:224,2,140,2|8|2,0:0|0:0|0:0,0:0:0:0:
332,259,19044,1,10,0:0:0:0:
207,177,19361,2,0,L|420:177,1,210,2|2,0:0|0:0,0:0:0:0:
290,184,20155,2,0,L|193:204,2,70,2|8|8,0:0|0:0|0:0,0:0:0:0:
381,167,20631,6,0,P|416:137|404:35,1,140,6|8,0:0|0:0,0:0:0:0:
270,28,21266,2,0,L|49:13,1,210,2|2,0:0|0:0,0:0:0:0:
213,139,22218,2,0,L|354:123,2,140,8|2|8,0:0|0:0|0:0,0:0:0:0:
78,232,23171,6,0,L|62:90,1,140,2|8,0:0|0:0,0:0:0:0:
171,141,23806,2,0,P|228:152|320:122,1,140,2|8,0:0|0:0,0:0:0:0:
423,47,24440,2,0,P|336:88|349:205,1,210,6|6,0:0|0:0,0:0:0:0:
466,223,25393,1,8,0:0:0:0:
305,197,25710,6,0,L|82:186,2,210,6|2|8,0:0|0:0|0:0,0:0:0:0:
425,106,26980,2,0,L|202:95,2,210,6|2|8,0:0|0:0|0:0,0:0:0:0:
307,49,28250,6,0,L|91:36,1,210,4|4,0:0|0:0,0:0:0:0:
215,53,29202,1,8,0:0:0:0:
359,99,29520,2,0,P|393:187|306:276,1,210,6|6,0:0|0:0,0:0:0:0:
193,301,30313,2,0,L|109:297,1,70,0|8,0:0|0:0,0:0:0:0:
262,209,30790,5,4,0:3:0:0:
411,191,31107,1,2,0:3:0:0:
262,209,31425,1,0,0:0:0:0:
411,191,31742,1,2,0:3:0:0:
262,209,32060,6,0,P|198:184|121:178,1,140,2|8,0:0|0:0,0:0:0:0:
18,139,32694,2,0,P|77:131|170:90,1,140,0|8,0:0|0:0,0:0:0:0:
284,41,33329,5,0,0:0:0:0:
433,23,33646,1,2,0:3:0:0:
284,41,33964,1,0,0:0:0:0:
433,23,34281,1,2,0:3:0:0:
263,52,34599,6,0,P|232:98|277:181,1,140,2|8,0:0|0:0,0:0:0:0:
400,265,35234,2,0,L|401:122,1,140,0|8,0:0|0:0,0:0:0:0:
256,243,35869,6,0,B|202:278|202:278|48:248,2,210,2|2|10,0:0|0:0|0:0,0:0:0:0:
379,297,37139,2,0,P|403:229|357:152,1,140,6|10,0:0|0:0,0:0:0:0:
225,102,37774,2,0,L|390:74,1,140,2|10,0:0|0:0,0:0:0:0:
248,219,38409,6,0,P|181:217|126:138,1,140,0|8,0:0|0:0,0:0:0:0:
128,108,38885,1,0,0:0:0:0:
245,51,39202,2,0,L|322:41,1,70,2|8,0:0|0:0,0:0:0:0:
166,158,39679,6,0,L|84:149,2,70,8|2|8,0:0|0:0|0:0,0:0:0:0:
271,176,40155,1,6,0:2:0:0:
