osu file format v14

[General]
AudioFilename: audio.mp3
AudioLeadIn: 0
PreviewTime: 42789
Countdown: 0
SampleSet: Normal
StackLeniency: 0.7
Mode: 1
LetterboxInBreaks: 0
WidescreenStoryboard: 1

[Editor]
Bookmarks: 10408,18678,22806,32141,38345,43516,52511,65358,67840,76307,78457
DistanceSpacing: 1
BeatDivisor: 2
GridSize: 32
TimelineZoom: 0.6999999

[Metadata]
Title:Shugyou Ska
TitleUnicode:しゅぎょうスカ
Artist:TSUNKU
ArtistUnicode:つんく
Creator:Weber
Version:Jon's Kantan
Source:Rhythm Heaven
Tags:Munchy Monk 2 Ayyri Jonawaga Nintendo Music VGM DS Tengoku リズム天国ゴールド
BeatmapID:1359407
BeatmapSetID:524808

[Difficulty]
HPDrainRate:8
CircleSize:2
OverallDifficulty:3
ApproachRate:5
SliderMultiplier:1.4
SliderTickRate:1

[Events]
//Background and Video events
0,0,"30809-rhythm_heaven_fever_wallpaper (1).jpg",0,0
//Break Periods
//Storyboard Layer 0 (Background)
//Storyboard Layer 1 (Fail)
//Storyboard Layer 2 (Pass)
//Storyboard Layer 3 (Foreground)
//Storyboard Sound Samples

[TimingPoints]
250,317.460317460317,4,1,0,75,1,0
30726,-100,4,1,0,75,0,1
38345,-100,4,1,0,75,0,0
63742,-100,4,1,0,75,0,1
81519,-100,4,1,0,75,0,0

[HitObjects]
256,192,567,5,0,0:0:0:0:
256,192,1837,1,0,0:0:0:0:
256,192,3107,1,0,0:0:0:0:
256,192,4376,1,0,0:0:0:0:
256,192,5646,1,0,0:0:0:0:
256,192,6281,1,8,0:0:0:0:
256,192,6916,1,0,0:0:0:0:
256,192,7551,1,0,0:0:0:0:
256,192,8186,1,8,0:0:0:0:
256,192,8821,1,0,0:0:0:0:
256,192,9138,1,12,0:0:0:0:
256,192,9773,1,8,0:0:0:0:
256,192,10091,1,8,0:0:0:0:
256,192,10408,5,4,0:0:0:0:
256,192,11043,1,0,0:0:0:0:
256,192,11678,1,8,0:0:0:0:
256,192,12948,1,0,0:0:0:0:
256,192,13583,1,8,0:0:0:0:
256,192,14218,1,0,0:0:0:0:
256,192,15488,1,8,0:0:0:0:
256,192,16123,1,8,0:0:0:0:
256,192,16757,1,0,0:0:0:0:
256,192,18027,1,8,0:0:0:0:
256,192,18662,1,8,0:0:0:0:
256,192,18980,1,8,0:0:0:0:
256,192,19297,1,4,0:0:0:0:
256,192,19932,1,0,0:0:0:0:
256,192,20567,5,4,0:0:0:0:
256,192,21202,1,0,0:0:0:0:
256,192,21837,1,8,0:0:0:0:
256,192,23107,1,0,0:0:0:0:
256,192,23742,1,8,0:0:0:0:
256,192,24376,1,0,0:0:0:0:
256,192,25646,1,4,0:0:0:0:
256,192,26916,1,4,0:0:0:0:
256,192,28186,1,12,0:0:0:0:
256,192,29456,1,0,0:0:0:0:
256,192,30091,1,0,0:0:0:0:
256,192,30726,1,12,0:0:0:0:
256,192,31996,1,0,0:0:0:0:
256,192,32313,1,0,0:0:0:0:
256,192,32630,1,0,0:0:0:0:
256,192,33265,1,8,0:0:0:0:
256,192,34535,1,0,0:0:0:0:
256,192,34853,1,0,0:0:0:0:
256,192,35170,1,0,0:0:0:0:
256,192,35805,1,8,0:0:0:0:
256,192,36757,1,8,0:0:0:0:
256,192,37075,1,0,0:0:0:0:
256,192,37710,1,8,0:0:0:0:
256,192,38345,1,4,0:0:0:0:
256,192,39932,1,8,0:0:0:0:
256,192,40567,1,0,0:0:0:0:
256,192,41202,1,8,0:0:0:0:
256,192,41837,1,0,0:0:0:0:
256,192,42154,1,12,0:0:0:0:
256,192,42789,1,8,0:0:0:0:
256,192,43107,1,8,0:0:0:0:
256,192,43424,5,4,0:0:0:0:
256,192,44059,1,0,0:0:0:0:
256,192,44694,1,8,0:0:0:0:
256,192,45329,1,0,0:0:0:0:
256,192,45964,1,0,0:0:0:0:
256,192,46599,1,8,0:0:0:0:
256,192,47234,1,0,0:0:0:0:
256,192,48504,1,8,0:0:0:0:
256,192,49138,1,8,0:0:0:0:
256,192,49773,1,0,0:0:0:0:
256,192,51043,1,8,0:0:0:0:
256,192,51678,1,8,0:0:0:0:
256,192,51996,1,8,0:0:0:0:
256,192,52313,1,4,0:0:0:0:
256,192,52948,1,0,0:0:0:0:
256,192,53583,5,4,0:0:0:0:
256,192,54218,1,0,0:0:0:0:
256,192,54853,1,8,0:0:0:0:
256,192,56123,1,0,0:0:0:0:
256,192,56757,1,8,0:0:0:0:
256,192,57392,1,0,0:0:0:0:
256,192,58345,1,0,0:0:0:0:
256,192,58662,1,12,0:0:0:0:
256,192,59615,1,0,0:0:0:0:
256,192,59932,1,12,0:0:0:0:
256,192,60884,1,0,0:0:0:0:
256,192,61202,1,12,0:0:0:0:
256,192,62472,1,0,0:0:0:0:
256,192,62789,1,0,0:0:0:0:
256,192,63107,5,0,0:0:0:0:
256,192,63742,1,12,0:0:0:0:
256,192,64376,1,8,0:0:0:0:
256,192,65012,1,0,0:0:0:0:
256,192,65329,1,0,0:0:0:0:
256,192,65646,1,0,0:0:0:0:
256,192,66281,1,8,0:0:0:0:
256,192,67551,1,0,0:0:0:0:
256,192,67869,1,0,0:0:0:0:
256,192,68186,1,0,0:0:0:0:
256,192,68821,1,0,0:0:0:0:
256,192,69773,1,8,0:0:0:0:
256,192,70091,1,0,0:0:0:0:
256,192,70726,1,8,0:0:0:0:
256,192,71361,1,0,0:0:0:0:
256,192,72630,1,0,0:0:0:0:
256,192,73265,1,0,0:0:0:0:
256,192,73900,1,12,0:0:0:0:
256,192,74535,1,8,0:0:0:0:
256,192,75170,1,0,0:0:0:0:
256,192,75488,1,0,0:0:0:0:
256,192,75805,1,0,0:0:0:0:
256,192,76439,1,8,0:0:0:0:
256,192,77709,1,0,0:0:0:0:
256,192,78027,1,0,0:0:0:0:
256,192,78345,1,0,0:0:0:0:
256,192,78979,1,0,0:0:0:0:
256,192,79932,1,8,0:0:0:0:
256,192,80249,1,0,0:0:0:0:
256,192,80884,1,8,0:0:0:0:
256,192,81519,1,4,0:0:0:0:
256,192,82788,1,8,0:0:0:0:
256,192,83424,1,8,0:0:0:0:
256,192,83742,1,8,0:0:0:0:
256,192,84059,1,4,0:0:0:0:
