osu file format v14

[General]
AudioFilename: audio.mp3
AudioLeadIn: 0
PreviewTime: 42789
Countdown: 0
SampleSet: None
StackLeniency: 0.7
Mode: 1
LetterboxInBreaks: 0
WidescreenStoryboard: 1

[Editor]
Bookmarks: 250,10408,20567,30726,38345,43424,53583,63742,81519,84059
DistanceSpacing: 1
BeatDivisor: 4
GridSize: 32
TimelineZoom: 2.3

[Metadata]
Title:Shugyou Ska
TitleUnicode:しゅぎょうスカ
Artist:TSUNKU
ArtistUnicode:つんく
Creator:Weber
Version:Ayyri's Inner Oni
Source:Rhythm Heaven
Tags:Munchy Monk 2 Ayyri Jonawaga Nintendo Music VGM DS Tengoku リズム天国ゴールド
BeatmapID:1350399
BeatmapSetID:524808

[Difficulty]
HPDrainRate:6
CircleSize:2
OverallDifficulty:6
ApproachRate:10
SliderMultiplier:1.4
SliderTickRate:1

[Events]
//Background and Video events
0,0,"30809-rhythm_heaven_fever_wallpaper (1).jpg",0,0
//Break Periods
//Storyboard Layer 0 (Background)
//Storyboard Layer 1 (Fail)
//Storyboard Layer 2 (Pass)
//Storyboard Layer 3 (Foreground)
//Storyboard Sound Samples

[TimingPoints]
250,317.460317460317,4,1,0,75,1,0
30726,-100,4,1,0,100,0,1
38345,-100,4,1,0,100,0,0
63742,-100,4,1,0,100,0,1
81519,-100,4,1,0,100,0,0

[HitObjects]
256,192,250,5,0,0:0:0:0:
256,192,567,1,8,0:0:0:0:
256,192,726,1,0,0:0:0:0:
256,192,1043,1,0,0:0:0:0:
256,192,1202,1,8,0:0:0:0:
256,192,1519,1,0,0:0:0:0:
256,192,1837,1,8,0:0:0:0:
256,192,2154,1,0,0:0:0:0:
256,192,2313,1,0,0:0:0:0:
256,192,2472,1,8,0:0:0:0:
256,192,2630,1,8,0:0:0:0:
256,192,2789,1,0,0:0:0:0:
256,192,3107,1,8,0:0:0:0:
256,192,3266,1,0,0:0:0:0:
256,192,3583,1,0,0:0:0:0:
256,192,3742,1,8,0:0:0:0:
256,192,4059,1,0,0:0:0:0:
256,192,4377,1,8,0:0:0:0:
256,192,4694,1,0,0:0:0:0:
256,192,4853,1,0,0:0:0:0:
256,192,5012,1,8,0:0:0:0:
256,192,5170,1,8,0:0:0:0:
256,192,5329,1,0,0:0:0:0:
256,192,5646,1,8,0:0:0:0:
256,192,5805,1,0,0:0:0:0:
256,192,6122,1,0,0:0:0:0:
256,192,6281,1,8,0:0:0:0:
256,192,6598,1,0,0:0:0:0:
256,192,6916,1,8,0:0:0:0:
256,192,7233,1,0,0:0:0:0:
256,192,7392,1,0,0:0:0:0:
256,192,7551,1,8,0:0:0:0:
256,192,7709,1,8,0:0:0:0:
256,192,7868,1,0,0:0:0:0:
256,192,8186,1,8,0:0:0:0:
256,192,8345,1,0,0:0:0:0:
256,192,8503,1,8,0:0:0:0:
256,192,8662,1,0,0:0:0:0:
256,192,8821,1,8,0:0:0:0:
256,192,8900,1,8,0:0:0:0:
256,192,8980,1,0,0:0:0:0:
256,192,9138,1,12,0:0:0:0:
256,192,9456,1,8,0:0:0:0:
256,192,9615,1,8,0:0:0:0:
256,192,9773,1,4,0:0:0:0:
256,192,10091,1,12,0:0:0:0:
256,192,10408,1,4,0:0:0:0:
256,192,10567,1,0,0:0:0:0:
256,192,10726,1,8,0:0:0:0:
256,192,10884,1,0,0:0:0:0:
256,192,10964,1,0,0:0:0:0:
256,192,11043,1,8,0:0:0:0:
256,192,11202,1,0,0:0:0:0:
256,192,11361,1,8,0:0:0:0:
256,192,11519,1,8,0:0:0:0:
256,192,11837,1,0,0:0:0:0:
256,192,11996,1,8,0:0:0:0:
256,192,12154,1,0,0:0:0:0:
256,192,12313,1,8,0:0:0:0:
256,192,12392,1,0,0:0:0:0:
256,192,12472,1,0,0:0:0:0:
256,192,12630,1,8,0:0:0:0:
256,192,12789,1,0,0:0:0:0:
256,192,12948,1,8,0:0:0:0:
256,192,13265,1,8,0:0:0:0:
256,192,13423,1,8,0:0:0:0:
256,192,13503,1,8,0:0:0:0:
256,192,13582,1,0,0:0:0:0:
256,192,13741,1,0,0:0:0:0:
256,192,13900,1,8,0:0:0:0:
256,192,14058,1,0,0:0:0:0:
256,192,14376,1,0,0:0:0:0:
256,192,14535,1,8,0:0:0:0:
256,192,14694,1,8,0:0:0:0:
256,192,14853,1,0,0:0:0:0:
256,192,15011,1,8,0:0:0:0:
256,192,15170,1,0,0:0:0:0:
256,192,15329,1,0,0:0:0:0:
256,192,15488,1,12,0:0:0:0:
256,192,15805,1,8,0:0:0:0:
256,192,15963,1,8,0:0:0:0:
256,192,16043,1,0,0:0:0:0:
256,192,16122,1,8,0:0:0:0:
256,192,16281,1,0,0:0:0:0:
256,192,16440,1,0,0:0:0:0:
256,192,16598,1,8,0:0:0:0:
256,192,16916,1,0,0:0:0:0:
256,192,17075,1,8,0:0:0:0:
256,192,17233,1,0,0:0:0:0:
256,192,17392,1,8,0:0:0:0:
256,192,17472,1,8,0:0:0:0:
256,192,17551,1,0,0:0:0:0:
256,192,17709,1,8,0:0:0:0:
256,192,17868,1,0,0:0:0:0:
256,192,18027,1,8,0:0:0:0:
256,192,18345,1,8,0:0:0:0:
256,192,18503,1,0,0:0:0:0:
256,192,18583,1,0,0:0:0:0:
256,192,18662,1,8,0:0:0:0:
256,192,18821,1,8,0:0:0:0:
256,192,18980,1,8,0:0:0:0:
256,192,19138,1,0,0:0:0:0:
256,192,19297,1,12,0:0:0:0:
256,192,19456,1,0,0:0:0:0:
256,192,19535,1,0,0:0:0:0:
256,192,19615,1,0,0:0:0:0:
256,192,19773,1,0,0:0:0:0:
256,192,19932,1,12,0:0:0:0:
256,192,20091,1,0,0:0:0:0:
256,192,20170,1,0,0:0:0:0:
256,192,20249,1,8,0:0:0:0:
256,192,20408,1,0,0:0:0:0:
256,192,20567,1,12,0:0:0:0:
256,192,20726,1,0,0:0:0:0:
256,192,20805,1,0,0:0:0:0:
256,192,20884,1,8,0:0:0:0:
256,192,21043,1,8,0:0:0:0:
256,192,21202,1,0,0:0:0:0:
256,192,21361,1,8,0:0:0:0:
256,192,21519,1,0,0:0:0:0:
256,192,21678,1,8,0:0:0:0:
256,192,21996,1,0,0:0:0:0:
256,192,22154,1,8,0:0:0:0:
256,192,22313,1,8,0:0:0:0:
256,192,22472,1,0,0:0:0:0:
256,192,22630,1,0,0:0:0:0:
256,192,22789,1,8,0:0:0:0:
256,192,22947,1,0,0:0:0:0:
256,192,23107,1,8,0:0:0:0:
256,192,23424,1,8,0:0:0:0:
256,192,23583,1,0,0:0:0:0:
256,192,23742,1,8,0:0:0:0:
256,192,23900,1,8,0:0:0:0:
256,192,24059,1,8,0:0:0:0:
256,192,24138,1,8,0:0:0:0:
256,192,24218,1,0,0:0:0:0:
256,192,24535,1,0,0:0:0:0:
256,192,24694,1,8,0:0:0:0:
256,192,24853,1,8,0:0:0:0:
256,192,25011,1,0,0:0:0:0:
256,192,25170,1,0,0:0:0:0:
256,192,25329,1,8,0:0:0:0:
256,192,25488,1,0,0:0:0:0:
256,192,25646,1,12,0:0:0:0:
256,192,25805,1,4,0:0:0:0:
256,192,25964,1,4,0:0:0:0:
256,192,26123,1,4,0:0:0:0:
256,192,26281,1,12,0:0:0:0:
256,192,26599,1,8,0:0:0:0:
256,192,26916,1,12,0:0:0:0:
256,192,27075,1,4,0:0:0:0:
256,192,27234,1,4,0:0:0:0:
256,192,27393,1,4,0:0:0:0:
256,192,27551,1,12,0:0:0:0:
256,192,27710,1,0,0:0:0:0:
256,192,27789,1,0,0:0:0:0:
256,192,27869,1,8,0:0:0:0:
256,192,28027,1,0,0:0:0:0:
256,192,28186,1,12,0:0:0:0:
256,192,28503,1,8,0:0:0:0:
256,192,28662,1,8,0:0:0:0:
256,192,28821,1,0,0:0:0:0:
256,192,28980,1,0,0:0:0:0:
256,192,29138,1,8,0:0:0:0:
256,192,29297,1,0,0:0:0:0:
256,192,29456,1,12,0:0:0:0:
256,192,29773,1,4,0:0:0:0:
256,192,30091,1,8,0:0:0:0:
256,192,30170,1,0,0:0:0:0:
256,192,30249,1,8,0:0:0:0:
256,192,30329,1,0,0:0:0:0:
256,192,30408,1,8,0:0:0:0:
256,192,30488,1,8,0:0:0:0:
256,192,30567,1,0,0:0:0:0:
256,192,30726,1,12,0:0:0:0:
256,192,30884,1,8,0:0:0:0:
256,192,31043,1,8,0:0:0:0:
256,192,31202,1,8,0:0:0:0:
256,192,31361,1,0,0:0:0:0:
256,192,31519,1,8,0:0:0:0:
256,192,31678,1,0,0:0:0:0:
256,192,31757,1,0,0:0:0:0:
256,192,31837,1,8,0:0:0:0:
256,192,31996,1,4,0:0:0:0:
256,192,32154,1,8,0:0:0:0:
256,192,32313,1,4,0:0:0:0:
256,192,32472,1,8,0:0:0:0:
256,192,32631,1,4,0:0:0:0:
256,192,32789,1,0,0:0:0:0:
256,192,32948,1,8,0:0:0:0:
256,192,33265,1,12,0:0:0:0:
256,192,33423,1,8,0:0:0:0:
256,192,33582,1,8,0:0:0:0:
256,192,33741,1,8,0:0:0:0:
256,192,33900,1,0,0:0:0:0:
256,192,34058,1,8,0:0:0:0:
256,192,34217,1,0,0:0:0:0:
256,192,34296,1,0,0:0:0:0:
256,192,34376,1,8,0:0:0:0:
256,192,34535,1,4,0:0:0:0:
256,192,34693,1,8,0:0:0:0:
256,192,34852,1,4,0:0:0:0:
256,192,35011,1,8,0:0:0:0:
256,192,35170,1,4,0:0:0:0:
256,192,35328,1,0,0:0:0:0:
256,192,35487,1,8,0:0:0:0:
256,192,35805,1,0,0:0:0:0:
256,192,35964,1,0,0:0:0:0:
256,192,36123,1,12,0:0:0:0:
256,192,36281,1,0,0:0:0:0:
256,192,36599,1,0,0:0:0:0:
256,192,36757,1,12,0:0:0:0:
256,192,36916,1,8,0:0:0:0:
256,192,37075,1,4,0:0:0:0:
256,192,37392,1,4,0:0:0:0:
256,192,37710,1,12,0:0:0:0:
256,192,38027,1,12,0:0:0:0:
256,192,38345,1,4,0:0:0:0:
256,192,38662,1,8,0:0:0:0:
256,192,38821,1,0,0:0:0:0:
256,192,39138,1,0,0:0:0:0:
256,192,39297,1,8,0:0:0:0:
256,192,39614,1,0,0:0:0:0:
256,192,39932,1,8,0:0:0:0:
256,192,40249,1,0,0:0:0:0:
256,192,40408,1,0,0:0:0:0:
256,192,40567,1,8,0:0:0:0:
256,192,40725,1,8,0:0:0:0:
256,192,40884,1,0,0:0:0:0:
256,192,41202,1,8,0:0:0:0:
256,192,41361,1,0,0:0:0:0:
256,192,41519,1,8,0:0:0:0:
256,192,41678,1,0,0:0:0:0:
256,192,41837,1,8,0:0:0:0:
256,192,41916,1,8,0:0:0:0:
256,192,41996,1,0,0:0:0:0:
256,192,42154,1,12,0:0:0:0:
256,192,42472,1,8,0:0:0:0:
256,192,42631,1,8,0:0:0:0:
256,192,42789,1,4,0:0:0:0:
256,192,43107,1,12,0:0:0:0:
256,192,43424,1,4,0:0:0:0:
256,192,43583,1,0,0:0:0:0:
256,192,43742,1,8,0:0:0:0:
256,192,43900,1,0,0:0:0:0:
256,192,43980,1,8,0:0:0:0:
256,192,44059,1,8,0:0:0:0:
256,192,44218,1,0,0:0:0:0:
256,192,44377,1,8,0:0:0:0:
256,192,44535,1,8,0:0:0:0:
256,192,44853,1,0,0:0:0:0:
256,192,45012,1,8,0:0:0:0:
256,192,45170,1,0,0:0:0:0:
256,192,45329,1,8,0:0:0:0:
256,192,45408,1,8,0:0:0:0:
256,192,45488,1,0,0:0:0:0:
256,192,45646,1,0,0:0:0:0:
256,192,45805,1,0,0:0:0:0:
256,192,45964,1,8,0:0:0:0:
256,192,46281,1,8,0:0:0:0:
256,192,46439,1,0,0:0:0:0:
256,192,46519,1,0,0:0:0:0:
256,192,46598,1,8,0:0:0:0:
256,192,46757,1,8,0:0:0:0:
256,192,46916,1,0,0:0:0:0:
256,192,47074,1,0,0:0:0:0:
256,192,47392,1,0,0:0:0:0:
256,192,47551,1,8,0:0:0:0:
256,192,47710,1,8,0:0:0:0:
256,192,47869,1,0,0:0:0:0:
256,192,48027,1,8,0:0:0:0:
256,192,48186,1,8,0:0:0:0:
256,192,48345,1,0,0:0:0:0:
256,192,48504,1,12,0:0:0:0:
256,192,48821,1,8,0:0:0:0:
256,192,48979,1,8,0:0:0:0:
256,192,49059,1,0,0:0:0:0:
256,192,49138,1,0,0:0:0:0:
256,192,49297,1,0,0:0:0:0:
256,192,49456,1,0,0:0:0:0:
256,192,49614,1,8,0:0:0:0:
256,192,49932,1,0,0:0:0:0:
256,192,50091,1,8,0:0:0:0:
256,192,50249,1,0,0:0:0:0:
256,192,50408,1,8,0:0:0:0:
256,192,50488,1,8,0:0:0:0:
256,192,50567,1,0,0:0:0:0:
256,192,50725,1,8,0:0:0:0:
256,192,50884,1,0,0:0:0:0:
256,192,51043,1,8,0:0:0:0:
256,192,51361,1,8,0:0:0:0:
256,192,51519,1,8,0:0:0:0:
256,192,51599,1,0,0:0:0:0:
256,192,51678,1,8,0:0:0:0:
256,192,51837,1,0,0:0:0:0:
256,192,51996,1,8,0:0:0:0:
256,192,52154,1,0,0:0:0:0:
256,192,52313,1,12,0:0:0:0:
256,192,52472,1,0,0:0:0:0:
256,192,52551,1,0,0:0:0:0:
256,192,52631,1,0,0:0:0:0:
256,192,52789,1,0,0:0:0:0:
256,192,52948,1,12,0:0:0:0:
256,192,53107,1,0,0:0:0:0:
256,192,53186,1,0,0:0:0:0:
256,192,53265,1,8,0:0:0:0:
256,192,53424,1,0,0:0:0:0:
256,192,53583,1,12,0:0:0:0:
256,192,53742,1,0,0:0:0:0:
256,192,53821,1,8,0:0:0:0:
256,192,53900,1,8,0:0:0:0:
256,192,54059,1,0,0:0:0:0:
256,192,54218,1,8,0:0:0:0:
256,192,54377,1,8,0:0:0:0:
256,192,54535,1,0,0:0:0:0:
256,192,54694,1,8,0:0:0:0:
256,192,55012,1,0,0:0:0:0:
256,192,55170,1,8,0:0:0:0:
256,192,55329,1,8,0:0:0:0:
256,192,55488,1,0,0:0:0:0:
256,192,55646,1,0,0:0:0:0:
256,192,55805,1,8,0:0:0:0:
256,192,55963,1,0,0:0:0:0:
256,192,56123,1,8,0:0:0:0:
256,192,56440,1,8,0:0:0:0:
256,192,56599,1,8,0:0:0:0:
256,192,56758,1,0,0:0:0:0:
256,192,56916,1,0,0:0:0:0:
256,192,57075,1,8,0:0:0:0:
256,192,57154,1,8,0:0:0:0:
256,192,57234,1,0,0:0:0:0:
256,192,57551,1,0,0:0:0:0:
256,192,57710,1,8,0:0:0:0:
256,192,57869,1,8,0:0:0:0:
256,192,58027,1,0,0:0:0:0:
256,192,58186,1,0,0:0:0:0:
256,192,58345,1,8,0:0:0:0:
256,192,58504,1,0,0:0:0:0:
256,192,58662,1,12,0:0:0:0:
256,192,58821,1,4,0:0:0:0:
256,192,58980,1,4,0:0:0:0:
256,192,59139,1,4,0:0:0:0:
256,192,59297,1,12,0:0:0:0:
256,192,59615,1,8,0:0:0:0:
256,192,59932,1,12,0:0:0:0:
256,192,60091,1,4,0:0:0:0:
256,192,60250,1,4,0:0:0:0:
256,192,60409,1,4,0:0:0:0:
256,192,60567,1,12,0:0:0:0:
256,192,60726,1,0,0:0:0:0:
256,192,60805,1,0,0:0:0:0:
256,192,60885,1,8,0:0:0:0:
256,192,61043,1,0,0:0:0:0:
256,192,61202,1,12,0:0:0:0:
256,192,61519,1,8,0:0:0:0:
256,192,61678,1,8,0:0:0:0:
256,192,61837,1,0,0:0:0:0:
256,192,61996,1,0,0:0:0:0:
256,192,62154,1,8,0:0:0:0:
256,192,62313,1,0,0:0:0:0:
256,192,62472,1,12,0:0:0:0:
256,192,62789,1,4,0:0:0:0:
256,192,63107,1,8,0:0:0:0:
256,192,63186,1,0,0:0:0:0:
256,192,63265,1,8,0:0:0:0:
256,192,63345,1,0,0:0:0:0:
256,192,63424,1,8,0:0:0:0:
256,192,63504,1,8,0:0:0:0:
256,192,63583,1,0,0:0:0:0:
256,192,63742,1,12,0:0:0:0:
256,192,63900,1,8,0:0:0:0:
256,192,64059,1,8,0:0:0:0:
256,192,64218,1,0,0:0:0:0:
256,192,64377,1,8,0:0:0:0:
256,192,64535,1,0,0:0:0:0:
256,192,64694,1,8,0:0:0:0:
256,192,64773,1,0,0:0:0:0:
256,192,64853,1,0,0:0:0:0:
256,192,65012,1,4,0:0:0:0:
256,192,65170,1,8,0:0:0:0:
256,192,65329,1,4,0:0:0:0:
256,192,65488,1,8,0:0:0:0:
256,192,65647,1,4,0:0:0:0:
256,192,65805,1,0,0:0:0:0:
256,192,65964,1,8,0:0:0:0:
256,192,66281,1,12,0:0:0:0:
256,192,66439,1,8,0:0:0:0:
256,192,66598,1,8,0:0:0:0:
256,192,66757,1,0,0:0:0:0:
256,192,66916,1,8,0:0:0:0:
256,192,67074,1,0,0:0:0:0:
256,192,67233,1,8,0:0:0:0:
256,192,67312,1,0,0:0:0:0:
256,192,67392,1,0,0:0:0:0:
256,192,67551,1,4,0:0:0:0:
256,192,67709,1,8,0:0:0:0:
256,192,67868,1,4,0:0:0:0:
256,192,68027,1,8,0:0:0:0:
256,192,68186,1,4,0:0:0:0:
256,192,68344,1,0,0:0:0:0:
256,192,68503,1,8,0:0:0:0:
256,192,68821,1,12,0:0:0:0:
256,192,68980,1,0,0:0:0:0:
256,192,69139,1,0,0:0:0:0:
256,192,69297,1,8,0:0:0:0:
256,192,69615,1,0,0:0:0:0:
256,192,69773,1,8,0:0:0:0:
256,192,69932,1,0,0:0:0:0:
256,192,70091,1,12,0:0:0:0:
256,192,70408,1,4,0:0:0:0:
256,192,70726,1,12,0:0:0:0:
256,192,71043,1,12,0:0:0:0:
256,192,71361,1,4,0:0:0:0:
256,192,71678,1,8,0:0:0:0:
256,192,71837,1,0,0:0:0:0:
256,192,72154,1,0,0:0:0:0:
256,192,72313,1,8,0:0:0:0:
256,192,72392,1,8,0:0:0:0:
256,192,72472,1,0,0:0:0:0:
256,192,72630,1,12,0:0:0:0:
256,192,72789,1,0,0:0:0:0:
256,192,72868,1,0,0:0:0:0:
256,192,72948,1,0,0:0:0:0:
256,192,73106,1,0,0:0:0:0:
256,192,73265,1,12,0:0:0:0:
256,192,73424,1,0,0:0:0:0:
256,192,73583,1,12,0:0:0:0:
256,192,73741,1,0,0:0:0:0:
256,192,73900,1,12,0:0:0:0:
256,192,74058,1,8,0:0:0:0:
256,192,74217,1,8,0:0:0:0:
256,192,74376,1,8,0:0:0:0:
256,192,74535,1,0,0:0:0:0:
256,192,74693,1,0,0:0:0:0:
256,192,74852,1,0,0:0:0:0:
256,192,74931,1,8,0:0:0:0:
256,192,75011,1,8,0:0:0:0:
256,192,75170,1,4,0:0:0:0:
256,192,75328,1,8,0:0:0:0:
256,192,75487,1,4,0:0:0:0:
256,192,75646,1,8,0:0:0:0:
256,192,75805,1,4,0:0:0:0:
256,192,75963,1,0,0:0:0:0:
256,192,76122,1,8,0:0:0:0:
256,192,76440,1,12,0:0:0:0:
256,192,76599,1,8,0:0:0:0:
256,192,76757,1,8,0:0:0:0:
256,192,76916,1,8,0:0:0:0:
256,192,77075,1,0,0:0:0:0:
256,192,77234,1,0,0:0:0:0:
256,192,77392,1,0,0:0:0:0:
256,192,77472,1,8,0:0:0:0:
256,192,77551,1,8,0:0:0:0:
256,192,77710,1,4,0:0:0:0:
256,192,77869,1,8,0:0:0:0:
256,192,78027,1,4,0:0:0:0:
256,192,78186,1,8,0:0:0:0:
256,192,78345,1,4,0:0:0:0:
256,192,78503,1,0,0:0:0:0:
256,192,78662,1,8,0:0:0:0:
256,192,78979,1,0,0:0:0:0:
256,192,79138,1,0,0:0:0:0:
256,192,79297,1,12,0:0:0:0:
256,192,79455,1,0,0:0:0:0:
256,192,79773,1,0,0:0:0:0:
256,192,79931,1,12,0:0:0:0:
256,192,80090,1,8,0:0:0:0:
256,192,80249,1,4,0:0:0:0:
256,192,80566,1,4,0:0:0:0:
256,192,80884,1,12,0:0:0:0:
256,192,81201,1,12,0:0:0:0:
256,192,81519,1,4,0:0:0:0:
256,192,81837,1,8,0:0:0:0:
256,192,81996,1,0,0:0:0:0:
256,192,82313,1,0,0:0:0:0:
256,192,82472,1,8,0:0:0:0:
256,192,82551,1,8,0:0:0:0:
256,192,82630,1,0,0:0:0:0:
256,192,82789,1,12,0:0:0:0:
256,192,82948,1,0,0:0:0:0:
256,192,83027,1,0,0:0:0:0:
256,192,83107,1,0,0:0:0:0:
256,192,83265,1,0,0:0:0:0:
256,192,83424,1,12,0:0:0:0:
256,192,83583,1,0,0:0:0:0:
256,192,83662,1,0,0:0:0:0:
256,192,83741,1,8,0:0:0:0:
256,192,83900,1,0,0:0:0:0:
256,192,84059,1,12,0:0:0:0:
