osu file format v14

[General]
AudioFilename: audio.mp3
AudioLeadIn: 0
PreviewTime: 42789
Countdown: 0
SampleSet: Normal
StackLeniency: 0.7
Mode: 1
LetterboxInBreaks: 0
WidescreenStoryboard: 0

[Editor]
Bookmarks: 18678,22806,32141,43516,52511,65358,67840,76307,78457
DistanceSpacing: 1
BeatDivisor: 4
GridSize: 8
TimelineZoom: 1.7

[Metadata]
Title:Shugyou Ska
TitleUnicode:しゅぎょうスカ
Artist:TSUNKU
ArtistUnicode:つんく
Creator:Weber
Version:Muzukashii
Source:Rhythm Heaven
Tags:Munchy Monk 2 Ayyri Jonawaga Nintendo Music VGM DS Tengoku リズム天国ゴールド
BeatmapID:1114337
BeatmapSetID:524808

[Difficulty]
HPDrainRate:6
CircleSize:2
OverallDifficulty:5
ApproachRate:5
SliderMultiplier:1.4
SliderTickRate:1

[Events]
//Background and Video events
0,0,"30809-rhythm_heaven_fever_wallpaper (1).jpg",0,0
//Break Periods
//Storyboard Layer 0 (Background)
//Storyboard Layer 1 (Fail)
//Storyboard Layer 2 (Pass)
//Storyboard Layer 3 (Foreground)
//Storyboard Sound Samples

[TimingPoints]
250,317.460317460317,4,1,0,75,1,0
30726,-100,4,1,0,75,0,1
38345,-100,4,1,0,75,0,0
63742,-100,4,1,0,75,0,1
81519,-100,4,1,0,75,0,0

[HitObjects]
256,192,250,5,0,0:0:0:0:
256,192,567,1,2,0:0:0:0:
256,192,726,1,0,0:0:0:0:
256,192,1043,1,0,0:0:0:0:
256,192,1202,1,2,0:0:0:0:
256,192,1519,1,0,0:0:0:0:
256,192,1837,1,2,0:0:0:0:
256,192,2154,1,0,0:0:0:0:
256,192,2313,1,0,0:0:0:0:
256,192,2472,1,2,0:0:0:0:
256,192,2789,1,0,0:0:0:0:
256,192,3107,1,2,0:0:0:0:
256,192,3265,1,0,0:0:0:0:
256,192,3583,1,0,0:0:0:0:
256,192,3742,1,2,0:0:0:0:
256,192,4059,1,0,0:0:0:0:
256,192,4376,5,2,0:0:0:0:
264,192,4694,1,0,0:0:0:0:
264,192,4853,1,0,0:0:0:0:
264,192,5011,1,2,0:0:0:0:
256,192,5329,1,0,0:0:0:0:
256,192,5647,1,2,0:0:0:0:
256,192,5805,1,0,0:0:0:0:
256,192,6123,1,0,0:0:0:0:
256,192,6282,1,2,0:0:0:0:
256,192,6599,1,0,0:0:0:0:
256,192,6916,5,2,0:0:0:0:
264,192,7234,1,0,0:0:0:0:
264,192,7392,1,0,0:0:0:0:
264,192,7551,1,2,0:0:0:0:
264,192,7869,1,0,0:0:0:0:
264,192,8186,1,2,0:0:0:0:
264,192,8503,1,2,0:0:0:0:
272,192,8821,1,0,0:0:0:0:
272,192,9138,1,6,0:0:0:0:
272,192,9456,1,0,0:0:0:0:
272,192,9615,1,0,0:0:0:0:
272,192,9773,1,6,0:0:0:0:
272,192,10091,1,6,0:0:0:0:
272,192,10408,1,4,0:0:0:0:
272,192,11043,1,0,0:0:0:0:
272,192,11361,1,0,0:0:0:0:
272,192,11519,1,8,0:0:0:0:
272,192,11996,1,2,0:0:0:0:
272,192,12313,1,0,0:0:0:0:
272,192,12630,1,2,0:0:0:0:
272,192,12948,1,0,0:0:0:0:
272,192,13265,1,2,0:0:0:0:
272,192,13424,1,0,0:0:0:0:
272,192,13583,1,0,0:0:0:0:
272,192,13900,1,2,0:0:0:0:
272,192,14059,1,0,0:0:0:0:
272,192,14535,1,8,0:0:0:0:
272,192,14853,1,0,0:0:0:0:
272,192,15170,1,0,0:0:0:0:
272,192,15488,1,12,0:0:0:0:
272,192,15805,1,8,0:0:0:0:
272,192,15964,1,0,0:0:0:0:
272,192,16123,1,2,0:0:0:0:
272,192,16281,1,2,0:0:0:0:
272,192,16599,1,0,0:0:0:0:
272,192,17075,1,0,0:0:0:0:
272,192,17392,1,0,0:0:0:0:
272,192,17710,1,2,0:0:0:0:
272,192,18027,1,2,0:0:0:0:
272,192,18345,1,0,0:0:0:0:
272,192,18503,1,0,0:0:0:0:
272,192,18662,1,2,0:0:0:0:
272,192,18980,1,2,0:0:0:0:
272,192,19297,1,4,0:0:0:0:
272,192,19615,1,0,0:0:0:0:
272,192,19773,1,0,0:0:0:0:
272,192,19932,1,6,0:0:0:0:
272,192,20249,1,0,0:0:0:0:
272,192,20567,1,12,0:0:0:0:
272,192,20885,1,2,0:0:0:0:
272,192,21202,1,0,0:0:0:0:
272,192,21520,1,0,0:0:0:0:
272,192,21678,1,2,0:0:0:0:
272,192,22155,1,2,0:0:0:0:
272,192,22472,1,0,0:0:0:0:
272,192,22789,1,2,0:0:0:0:
272,192,23107,1,0,0:0:0:0:
272,192,23424,1,2,0:0:0:0:
272,192,23583,1,0,0:0:0:0:
272,192,23742,1,0,0:0:0:0:
272,192,24059,1,2,0:0:0:0:
272,192,24218,1,0,0:0:0:0:
272,192,24694,1,8,0:0:0:0:
272,192,24853,1,0,0:0:0:0:
272,192,25170,1,0,0:0:0:0:
272,192,25329,1,8,0:0:0:0:
272,192,25646,1,4,0:0:0:0:
272,192,25964,1,8,0:0:0:0:
272,192,26123,1,8,0:0:0:0:
272,192,26281,1,8,0:0:0:0:
272,192,26599,1,8,0:0:0:0:
272,192,26916,1,4,0:0:0:0:
272,192,27234,1,8,0:0:0:0:
272,192,27392,1,8,0:0:0:0:
272,192,27551,1,8,0:0:0:0:
272,192,27869,1,8,0:0:0:0:
272,192,28186,1,4,0:0:0:0:
272,192,28503,1,2,0:0:0:0:
272,192,28662,1,0,0:0:0:0:
256,192,29138,1,8,0:0:0:0:
256,192,29456,1,0,0:0:0:0:
256,192,29773,1,2,0:0:0:0:
256,192,30091,1,8,0:0:0:0:
256,192,30249,1,8,0:0:0:0:
256,192,30408,1,8,0:0:0:0:
256,192,30726,1,4,0:0:0:0:
256,192,31043,1,8,0:0:0:0:
256,192,31678,1,8,0:0:0:0:
256,192,31996,1,0,0:0:0:0:
256,192,32313,1,2,0:0:0:0:
256,192,32630,1,0,0:0:0:0:
256,192,32789,1,0,0:0:0:0:
256,192,32948,1,8,0:0:0:0:
248,192,33265,1,6,0:0:0:0:
248,192,33583,1,8,0:0:0:0:
248,192,34218,1,8,0:0:0:0:
256,192,34535,1,0,0:0:0:0:
256,192,34852,1,2,0:0:0:0:
256,192,35169,1,0,0:0:0:0:
256,192,35328,1,0,0:0:0:0:
256,192,35487,1,8,0:0:0:0:
256,192,35805,1,0,0:0:0:0:
256,192,36123,1,2,0:0:0:0:
256,192,36281,1,0,0:0:0:0:
256,192,36599,1,0,0:0:0:0:
256,192,36757,1,2,0:0:0:0:
256,192,36916,1,0,0:0:0:0:
256,192,37075,1,4,0:0:0:0:
256,192,37392,1,0,0:0:0:0:
256,192,37710,1,6,0:0:0:0:
256,192,38027,1,0,0:0:0:0:
256,192,38345,1,12,0:0:0:0:
256,192,38820,1,0,0:0:0:0:
256,192,39138,1,0,0:0:0:0:
256,192,39297,1,2,0:0:0:0:
256,192,39614,1,0,0:0:0:0:
256,192,39931,5,2,0:0:0:0:
264,192,40249,1,0,0:0:0:0:
264,192,40408,1,0,0:0:0:0:
264,192,40566,1,2,0:0:0:0:
264,192,40884,1,0,0:0:0:0:
264,192,41201,1,2,0:0:0:0:
264,192,41518,1,2,0:0:0:0:
272,192,41836,1,0,0:0:0:0:
272,192,41995,1,0,0:0:0:0:
272,192,42153,1,6,0:0:0:0:
272,192,42471,1,8,0:0:0:0:
272,192,42630,1,0,0:0:0:0:
272,192,42788,1,6,0:0:0:0:
272,192,43106,1,2,0:0:0:0:
272,192,43423,1,4,0:0:0:0:
272,192,44059,1,0,0:0:0:0:
272,192,44377,1,0,0:0:0:0:
272,192,44535,1,8,0:0:0:0:
272,192,45012,1,2,0:0:0:0:
272,192,45329,1,0,0:0:0:0:
272,192,45646,1,8,0:0:0:0:
272,192,45964,1,0,0:0:0:0:
272,192,46281,1,2,0:0:0:0:
272,192,46440,1,0,0:0:0:0:
272,192,46599,1,0,0:0:0:0:
272,192,46916,1,2,0:0:0:0:
272,192,47075,1,0,0:0:0:0:
272,192,47551,1,8,0:0:0:0:
272,192,47869,1,8,0:0:0:0:
272,192,48186,1,0,0:0:0:0:
272,192,48504,1,8,0:0:0:0:
272,192,48821,1,8,0:0:0:0:
272,192,48980,1,0,0:0:0:0:
272,192,49139,1,8,0:0:0:0:
272,192,49297,1,0,0:0:0:0:
272,192,49615,1,0,0:0:0:0:
272,192,50091,1,0,0:0:0:0:
272,192,50408,1,0,0:0:0:0:
272,192,50726,1,2,0:0:0:0:
272,192,51043,1,2,0:0:0:0:
272,192,51361,1,2,0:0:0:0:
272,192,51519,1,0,0:0:0:0:
272,192,51678,1,2,0:0:0:0:
272,192,51996,1,2,0:0:0:0:
272,192,52313,1,6,0:0:0:0:
272,192,52631,1,8,0:0:0:0:
272,192,52789,1,0,0:0:0:0:
272,192,52948,1,6,0:0:0:0:
272,192,53265,1,0,0:0:0:0:
272,192,53583,1,12,0:0:0:0:
272,192,53901,1,2,0:0:0:0:
272,192,54059,1,8,0:0:0:0:
272,192,54218,1,0,0:0:0:0:
272,192,54536,1,0,0:0:0:0:
272,192,54694,1,2,0:0:0:0:
272,192,55171,1,2,0:0:0:0:
272,192,55488,1,0,0:0:0:0:
272,192,55805,1,2,0:0:0:0:
272,192,56123,1,0,0:0:0:0:
272,192,56440,1,2,0:0:0:0:
272,192,56599,1,8,0:0:0:0:
272,192,56758,1,0,0:0:0:0:
272,192,57075,1,2,0:0:0:0:
272,192,57234,1,0,0:0:0:0:
272,192,57710,1,8,0:0:0:0:
272,192,57869,1,0,0:0:0:0:
272,192,58345,1,8,0:0:0:0:
272,192,58662,1,4,0:0:0:0:
272,192,58980,1,8,0:0:0:0:
272,192,59138,1,0,0:0:0:0:
272,192,59297,1,0,0:0:0:0:
272,192,59615,1,8,0:0:0:0:
272,192,59932,1,4,0:0:0:0:
272,192,60250,1,8,0:0:0:0:
272,192,60408,1,0,0:0:0:0:
272,192,60567,1,8,0:0:0:0:
272,192,60885,1,8,0:0:0:0:
272,192,61202,1,4,0:0:0:0:
272,192,61519,1,2,0:0:0:0:
272,192,61678,1,0,0:0:0:0:
256,192,62154,1,8,0:0:0:0:
256,192,62472,1,0,0:0:0:0:
256,192,62789,1,2,0:0:0:0:
256,192,63107,1,8,0:0:0:0:
256,192,63265,1,8,0:0:0:0:
256,192,63424,1,8,0:0:0:0:
256,192,63742,1,4,0:0:0:0:
256,192,64060,1,2,0:0:0:0:
256,192,64376,1,0,0:0:0:0:
256,192,64695,1,8,0:0:0:0:
256,192,65012,1,0,0:0:0:0:
256,192,65171,1,0,0:0:0:0:
256,192,65330,1,8,0:0:0:0:
256,192,65647,1,8,0:0:0:0:
256,192,65806,1,0,0:0:0:0:
256,192,65965,1,0,0:0:0:0:
256,192,66282,1,4,0:0:0:0:
256,192,66600,1,2,0:0:0:0:
256,192,66917,1,2,0:0:0:0:
256,192,67235,1,0,0:0:0:0:
256,192,67552,1,0,0:0:0:0:
256,192,67711,1,0,0:0:0:0:
256,192,67870,1,2,0:0:0:0:
256,192,68187,1,2,0:0:0:0:
256,192,68344,1,0,0:0:0:0:
256,192,68503,1,0,0:0:0:0:
256,192,68821,1,0,0:0:0:0:
256,192,69139,1,2,0:0:0:0:
256,192,69297,1,0,0:0:0:0:
256,192,69615,1,0,0:0:0:0:
256,192,69773,1,2,0:0:0:0:
256,192,70091,1,0,0:0:0:0:
256,192,70408,1,0,0:0:0:0:
256,192,70726,5,6,0:0:0:0:
256,192,71043,1,0,0:0:0:0:
256,192,71361,1,12,0:0:0:0:
256,192,71678,1,2,0:0:0:0:
256,192,71837,1,0,0:0:0:0:
256,192,72154,1,0,0:0:0:0:
256,192,72313,1,8,0:0:0:0:
256,192,72630,1,12,0:0:0:0:
264,192,73265,1,12,0:0:0:0:
256,192,73583,1,0,0:0:0:0:
256,192,73900,1,12,0:0:0:0:
256,192,74218,1,2,0:0:0:0:
256,192,74535,1,8,0:0:0:0:
256,192,74853,1,0,0:0:0:0:
256,192,75170,1,8,0:0:0:0:
256,192,75329,1,0,0:0:0:0:
256,192,75488,1,8,0:0:0:0:
256,192,75805,1,8,0:0:0:0:
256,192,75964,1,0,0:0:0:0:
256,192,76123,1,0,0:0:0:0:
256,192,76440,1,12,0:0:0:0:
256,192,76758,1,2,0:0:0:0:
256,192,77075,1,2,0:0:0:0:
256,192,77393,1,0,0:0:0:0:
256,192,77710,1,8,0:0:0:0:
256,192,77869,1,0,0:0:0:0:
256,192,78028,1,2,0:0:0:0:
256,192,78345,1,2,0:0:0:0:
256,192,78503,1,8,0:0:0:0:
256,192,78663,1,0,0:0:0:0:
256,192,78980,1,0,0:0:0:0:
256,192,79297,1,2,0:0:0:0:
256,192,79456,1,0,0:0:0:0:
256,192,79773,1,0,0:0:0:0:
256,192,79932,1,2,0:0:0:0:
256,192,80249,1,4,0:0:0:0:
256,192,80567,1,0,0:0:0:0:
256,192,80884,1,6,0:0:0:0:
256,192,81202,1,0,0:0:0:0:
256,192,81519,1,6,0:0:0:0:
256,192,81837,1,2,0:0:0:0:
256,192,81996,1,0,0:0:0:0:
256,192,82313,1,0,0:0:0:0:
256,192,82472,1,8,0:0:0:0:
256,192,82630,1,8,0:0:0:0:
256,192,82789,1,4,0:0:0:0:
256,192,83107,1,2,0:0:0:0:
256,192,83265,1,0,0:0:0:0:
256,192,83425,1,12,0:0:0:0:
256,192,83742,1,12,0:0:0:0:
256,192,84060,1,4,0:0:0:0:
