osu file format v14

[General]
AudioFilename: audio.mp3
AudioLeadIn: 0
PreviewTime: 42789
Countdown: 0
SampleSet: Normal
StackLeniency: 0.7
Mode: 1
LetterboxInBreaks: 0
WidescreenStoryboard: 0

[Editor]
Bookmarks: 18678,22806,32141,43516,52511,65358,67840,76307,78457
DistanceSpacing: 1
BeatDivisor: 4
GridSize: 8
TimelineZoom: 1.6

[Metadata]
Title:Shugyou Ska
TitleUnicode:しゅぎょうスカ
Artist:TSUNKU
ArtistUnicode:つんく
Creator:Weber
Version:Futsuu
Source:Rhythm Heaven
Tags:Munchy Monk 2 Ayyri Jonawaga Nintendo Music VGM DS Tengoku リズム天国ゴールド
BeatmapID:1114336
BeatmapSetID:524808

[Difficulty]
HPDrainRate:7
CircleSize:2
OverallDifficulty:4
ApproachRate:5
SliderMultiplier:1.4
SliderTickRate:1

[Events]
//Background and Video events
0,0,"30809-rhythm_heaven_fever_wallpaper (1).jpg",0,0
//Break Periods
//Storyboard Layer 0 (Background)
//Storyboard Layer 1 (Fail)
//Storyboard Layer 2 (Pass)
//Storyboard Layer 3 (Foreground)
//Storyboard Sound Samples

[TimingPoints]
250,317.460317460317,4,1,0,75,1,0
30726,-100,4,1,0,75,0,1
38345,-100,4,1,0,75,0,0
63742,-100,4,1,0,75,0,1
81519,-100,4,1,0,75,0,0

[HitObjects]
256,192,250,5,0,0:0:0:0:
256,192,567,5,8,0:0:0:0:
256,192,1202,1,2,0:0:0:0:
256,192,1837,1,2,0:0:0:0:
256,192,2472,1,2,0:0:0:0:
256,192,2789,1,0,0:0:0:0:
256,192,3107,1,8,0:0:0:0:
256,192,3742,1,2,0:0:0:0:
256,192,4376,5,2,0:0:0:0:
264,192,5011,1,2,0:0:0:0:
256,192,5329,1,0,0:0:0:0:
256,192,5646,5,8,0:0:0:0:
256,192,6282,1,2,0:0:0:0:
256,192,6916,5,2,0:0:0:0:
264,192,7551,1,2,0:0:0:0:
256,192,7869,5,0,0:0:0:0:
264,192,8186,1,2,0:0:0:0:
256,192,8503,1,8,0:0:0:0:
256,192,8662,1,0,0:0:0:0:
256,192,8821,5,8,0:0:0:0:
272,192,9138,1,6,0:0:0:0:
272,192,9773,1,6,0:0:0:0:
272,192,10091,1,2,0:0:0:0:
272,192,10408,1,4,0:0:0:0:
272,192,10726,1,8,0:0:0:0:
272,192,11361,1,8,0:0:0:0:
272,192,11996,1,0,0:0:0:0:
256,192,12313,5,0,0:0:0:0:
272,192,12630,1,2,0:0:0:0:
256,192,12948,5,0,0:0:0:0:
272,192,13265,1,8,0:0:0:0:
272,192,13900,1,2,0:0:0:0:
272,192,14535,1,2,0:0:0:0:
256,192,14853,5,0,0:0:0:0:
256,192,15170,1,8,0:0:0:0:
272,192,15488,5,4,0:0:0:0:
272,192,15805,1,8,0:0:0:0:
272,192,16440,1,2,0:0:0:0:
272,192,17075,5,0,0:0:0:0:
272,192,17392,1,8,0:0:0:0:
272,192,17710,1,0,0:0:0:0:
272,192,18027,1,8,0:0:0:0:
272,192,18345,1,2,0:0:0:0:
272,192,18980,1,0,0:0:0:0:
272,192,19297,1,6,0:0:0:0:
272,192,19615,1,0,0:0:0:0:
272,192,19773,1,0,0:0:0:0:
272,192,19932,1,6,0:0:0:0:
272,192,20567,1,12,0:0:0:0:
272,192,20884,1,0,0:0:0:0:
272,192,21520,1,2,0:0:0:0:
272,192,22155,1,2,0:0:0:0:
272,192,22472,1,0,0:0:0:0:
272,192,22789,1,2,0:0:0:0:
272,192,23107,1,0,0:0:0:0:
272,192,23424,1,2,0:0:0:0:
272,192,24059,1,2,0:0:0:0:
272,192,24694,1,8,0:0:0:0:
272,192,25329,1,8,0:0:0:0:
272,192,25646,1,4,0:0:0:0:
272,192,25964,1,8,0:0:0:0:
272,192,26123,1,8,0:0:0:0:
272,192,26281,1,8,0:0:0:0:
272,192,26916,1,4,0:0:0:0:
272,192,27234,1,8,0:0:0:0:
272,192,27392,1,8,0:0:0:0:
272,192,27551,1,8,0:0:0:0:
272,192,27869,1,0,0:0:0:0:
272,192,28186,1,6,0:0:0:0:
256,192,29456,1,0,0:0:0:0:
256,192,29773,1,2,0:0:0:0:
256,192,30091,1,0,0:0:0:0:
256,192,30408,1,2,0:0:0:0:
256,192,30726,1,4,0:0:0:0:
256,192,31361,1,0,0:0:0:0:
256,192,31996,1,0,0:0:0:0:
256,192,32313,1,2,0:0:0:0:
256,192,32630,1,2,0:0:0:0:
256,192,32948,1,0,0:0:0:0:
248,192,33265,1,12,0:0:0:0:
256,192,33900,1,0,0:0:0:0:
256,192,34535,1,0,0:0:0:0:
256,192,34852,1,2,0:0:0:0:
256,192,35170,1,2,0:0:0:0:
256,192,35487,1,0,0:0:0:0:
256,192,35805,1,0,0:0:0:0:
256,192,35964,1,0,0:0:0:0:
256,192,36123,1,8,0:0:0:0:
256,192,36757,1,2,0:0:0:0:
256,192,37075,1,4,0:0:0:0:
256,192,37392,1,0,0:0:0:0:
256,192,37710,1,6,0:0:0:0:
256,192,38027,1,0,0:0:0:0:
256,192,38345,1,6,0:0:0:0:
256,192,38662,5,8,0:0:0:0:
256,192,39298,1,2,0:0:0:0:
256,192,39932,5,2,0:0:0:0:
256,192,40250,5,0,0:0:0:0:
264,192,40567,1,2,0:0:0:0:
256,192,40885,5,8,0:0:0:0:
264,192,41202,1,0,0:0:0:0:
272,192,41519,1,8,0:0:0:0:
272,192,41678,1,0,0:0:0:0:
256,192,41837,5,0,0:0:0:0:
272,192,42154,1,6,0:0:0:0:
272,192,42789,1,6,0:0:0:0:
272,192,43107,1,2,0:0:0:0:
272,192,43424,1,4,0:0:0:0:
272,192,43742,1,8,0:0:0:0:
272,192,44377,1,8,0:0:0:0:
272,192,45012,1,0,0:0:0:0:
256,192,45329,5,8,0:0:0:0:
272,192,45646,1,0,0:0:0:0:
256,192,45964,5,0,0:0:0:0:
272,192,46281,1,8,0:0:0:0:
272,192,46916,1,2,0:0:0:0:
272,192,47551,1,0,0:0:0:0:
256,192,47869,5,8,0:0:0:0:
256,192,48186,1,0,0:0:0:0:
272,192,48504,5,0,0:0:0:0:
272,192,48821,1,8,0:0:0:0:
272,192,49456,1,2,0:0:0:0:
272,192,50091,5,0,0:0:0:0:
272,192,50408,1,8,0:0:0:0:
272,192,50726,1,0,0:0:0:0:
272,192,51043,1,8,0:0:0:0:
272,192,51361,1,2,0:0:0:0:
272,192,51996,1,0,0:0:0:0:
272,192,52313,1,6,0:0:0:0:
272,192,52630,1,0,0:0:0:0:
272,192,52789,1,0,0:0:0:0:
272,192,52948,1,6,0:0:0:0:
272,192,53583,1,6,0:0:0:0:
272,192,53900,1,0,0:0:0:0:
272,192,54536,1,2,0:0:0:0:
272,192,55171,1,0,0:0:0:0:
272,192,55488,1,8,0:0:0:0:
272,192,55805,1,2,0:0:0:0:
272,192,56123,1,0,0:0:0:0:
272,192,56440,1,2,0:0:0:0:
272,192,57075,1,2,0:0:0:0:
272,192,57710,1,2,0:0:0:0:
272,192,58345,1,8,0:0:0:0:
272,192,58662,1,4,0:0:0:0:
272,192,58980,1,8,0:0:0:0:
272,192,59138,1,8,0:0:0:0:
272,192,59297,1,8,0:0:0:0:
272,192,59932,1,4,0:0:0:0:
272,192,60250,1,8,0:0:0:0:
272,192,60408,1,8,0:0:0:0:
272,192,60567,1,8,0:0:0:0:
272,192,60885,1,0,0:0:0:0:
272,192,61202,1,6,0:0:0:0:
256,192,62472,1,0,0:0:0:0:
256,192,62789,1,2,0:0:0:0:
256,192,63107,1,12,0:0:0:0:
256,192,63424,1,0,0:0:0:0:
256,192,63742,1,12,0:0:0:0:
256,192,64376,1,0,0:0:0:0:
256,192,65012,1,0,0:0:0:0:
256,192,65329,1,2,0:0:0:0:
256,192,65646,1,0,0:0:0:0:
256,192,65964,1,0,0:0:0:0:
248,192,66281,1,12,0:0:0:0:
256,192,66916,1,0,0:0:0:0:
256,192,67551,1,0,0:0:0:0:
256,192,67868,1,2,0:0:0:0:
256,192,68186,1,2,0:0:0:0:
256,192,68503,1,0,0:0:0:0:
256,192,68821,1,0,0:0:0:0:
256,192,68980,1,0,0:0:0:0:
256,192,69139,1,8,0:0:0:0:
256,192,69773,1,2,0:0:0:0:
256,192,70091,1,8,0:0:0:0:
256,192,70408,1,0,0:0:0:0:
256,192,70726,1,0,0:0:0:0:
256,192,71043,5,8,0:0:0:0:
256,192,71361,1,2,0:0:0:0:
256,192,71678,5,8,0:0:0:0:
272,192,72313,1,0,0:0:0:0:
274,194,72630,1,12,0:0:0:0:
272,192,73266,1,6,0:0:0:0:
272,192,73583,1,0,0:0:0:0:
272,192,73901,1,6,0:0:0:0:
264,192,74535,1,0,0:0:0:0:
256,192,75170,1,0,0:0:0:0:
256,192,75487,1,2,0:0:0:0:
256,192,75804,1,0,0:0:0:0:
256,192,76122,1,0,0:0:0:0:
248,192,76439,1,6,0:0:0:0:
256,192,77075,1,0,0:0:0:0:
256,192,77709,1,0,0:0:0:0:
256,192,78026,1,2,0:0:0:0:
256,192,78345,1,2,0:0:0:0:
256,192,78661,1,0,0:0:0:0:
256,192,78979,1,0,0:0:0:0:
256,192,79138,1,0,0:0:0:0:
256,192,79297,1,8,0:0:0:0:
256,192,79931,1,2,0:0:0:0:
256,192,80249,1,4,0:0:0:0:
256,192,80566,1,0,0:0:0:0:
256,192,80884,1,6,0:0:0:0:
256,192,81201,1,0,0:0:0:0:
256,192,81519,1,6,0:0:0:0:
256,192,81837,1,0,0:0:0:0:
272,192,82472,1,0,0:0:0:0:
272,192,82789,1,6,0:0:0:0:
272,192,83107,1,0,0:0:0:0:
272,192,83265,1,0,0:0:0:0:
272,192,83424,1,6,0:0:0:0:
272,192,83742,1,2,0:0:0:0:
272,192,84059,1,4,0:0:0:0:
