osu file format v14

[General]
AudioFilename: audio.mp3
AudioLeadIn: 0
PreviewTime: -1
Countdown: 0
SampleSet: None
StackLeniency: 0.7
Mode: 3
LetterboxInBreaks: 0
SpecialStyle: 0
WidescreenStoryboard: 0

[Editor]
DistanceSpacing: 1
BeatDivisor: 4
GridSize: 8
TimelineZoom: 2.1

[Metadata]
Title:Shugyou Ska
TitleUnicode:しゅぎょうスカ
Artist:TSUNKU
ArtistUnicode:つんく
Creator:Ensou
Version:Rythm Heaven
Source:
Tags:
BeatmapID:1939729
BeatmapSetID:928688

[Difficulty]
HPDrainRate:8
CircleSize:4
OverallDifficulty:8
ApproachRate:5
SliderMultiplier:1.4
SliderTickRate:1

[Events]
//Background and Video events
0,0,"30809-rhythm_heaven_fever_wallpaper-(1).png",0,0
//Break Periods
//Storyboard Layer 0 (Background)
//Storyboard Layer 1 (Fail)
//Storyboard Layer 2 (Pass)
//Storyboard Layer 3 (Foreground)
//Storyboard Sound Samples

[TimingPoints]
250,317.460317460317,4,2,0,0,1,0
29456,-100,4,2,0,0,0,1
32948,-100,4,2,0,0,0,0
33265,-100,4,2,0,0,0,1
35488,-100,4,2,0,0,0,0
63742,-100,4,2,0,0,0,1
65964,-100,4,2,0,0,0,0
66281,-100,4,2,0,0,0,1
68503,-100,4,2,0,0,0,0
73900,-100,4,2,0,0,0,1
78662,-100,4,2,0,0,0,0

[HitObjects]
448,192,250,5,0,0:0:0:0:
192,192,250,1,0,0:0:0:0:
320,192,408,1,0,0:0:0:0:
64,192,567,1,0,0:0:0:0:
448,192,567,1,0,0:0:0:0:
192,192,726,1,0,0:0:0:0:
320,192,1043,1,0,0:0:0:0:
64,192,1202,1,0,0:0:0:0:
448,192,1202,1,0,0:0:0:0:
192,192,1361,1,0,0:0:0:0:
448,192,1519,1,0,0:0:0:0:
320,192,1678,1,0,0:0:0:0:
64,192,1678,1,0,0:0:0:0:
192,192,1837,1,0,0:0:0:0:
64,192,2154,1,0,0:0:0:0:
320,192,2154,1,0,0:0:0:0:
192,192,2313,1,0,0:0:0:0:
64,192,2472,1,0,0:0:0:0:
448,192,2472,1,0,0:0:0:0:
192,192,2630,1,0,0:0:0:0:
320,192,2789,1,0,0:0:0:0:
192,192,3107,1,0,0:0:0:0:
64,192,3107,1,0,0:0:0:0:
192,192,3265,1,0,0:0:0:0:
448,192,3265,1,0,0:0:0:0:
320,192,3583,1,0,0:0:0:0:
64,192,3583,1,0,0:0:0:0:
320,192,3742,1,0,0:0:0:0:
448,192,3742,1,0,0:0:0:0:
448,192,4059,1,0,0:0:0:0:
320,192,4218,1,0,0:0:0:0:
64,192,4218,1,0,0:0:0:0:
192,192,4376,1,0,0:0:0:0:
320,192,4694,1,0,0:0:0:0:
64,192,4694,1,0,0:0:0:0:
192,192,4853,1,0,0:0:0:0:
64,192,5011,1,0,0:0:0:0:
448,192,5011,1,0,0:0:0:0:
192,192,5170,1,0,0:0:0:0:
320,192,5329,1,0,0:0:0:0:
64,192,5646,1,0,0:0:0:0:
448,192,5646,1,0,0:0:0:0:
192,192,5805,1,0,0:0:0:0:
448,192,5805,1,0,0:0:0:0:
192,192,6123,1,0,0:0:0:0:
448,192,6123,1,0,0:0:0:0:
64,192,6281,1,0,0:0:0:0:
448,192,6281,1,0,0:0:0:0:
192,192,6599,1,0,0:0:0:0:
320,192,6599,1,0,0:0:0:0:
320,192,6916,1,0,0:0:0:0:
192,192,6916,1,0,0:0:0:0:
64,192,7234,1,0,0:0:0:0:
448,192,7234,1,0,0:0:0:0:
192,192,7392,1,0,0:0:0:0:
64,192,7551,1,0,0:0:0:0:
320,192,7551,1,0,0:0:0:0:
192,192,7710,1,0,0:0:0:0:
320,192,7869,1,0,0:0:0:0:
192,192,8186,1,0,0:0:0:0:
320,192,8345,1,0,0:0:0:0:
448,192,8345,1,0,0:0:0:0:
320,192,8503,1,0,0:0:0:0:
192,192,8662,1,0,0:0:0:0:
64,192,8662,1,0,0:0:0:0:
448,192,8821,1,0,0:0:0:0:
320,192,8821,1,0,0:0:0:0:
192,192,8900,1,0,0:0:0:0:
64,192,8900,1,0,0:0:0:0:
320,192,8980,1,0,0:0:0:0:
448,192,8980,1,0,0:0:0:0:
192,192,9059,1,0,0:0:0:0:
64,192,9059,1,0,0:0:0:0:
320,192,9138,1,0,0:0:0:0:
448,192,9138,1,0,0:0:0:0:
320,192,9456,1,0,0:0:0:0:
64,192,9615,1,0,0:0:0:0:
448,192,9615,1,0,0:0:0:0:
192,192,9773,1,0,0:0:0:0:
64,192,10091,1,0,0:0:0:0:
448,192,10091,1,0,0:0:0:0:
320,192,10091,1,0,0:0:0:0:
64,192,10408,1,0,0:0:0:0:
320,192,10408,1,0,0:0:0:0:
192,192,10567,1,0,0:0:0:0:
320,192,10726,1,0,0:0:0:0:
64,192,10884,1,0,0:0:0:0:
448,192,10884,1,0,0:0:0:0:
192,192,11043,1,0,0:0:0:0:
320,192,11202,1,0,0:0:0:0:
64,192,11361,1,0,0:0:0:0:
448,192,11361,1,0,0:0:0:0:
192,192,11519,1,0,0:0:0:0:
320,192,11678,1,0,0:0:0:0:
64,192,11837,1,0,0:0:0:0:
192,192,11996,1,0,0:0:0:0:
64,192,12154,1,0,0:0:0:0:
448,192,12154,1,0,0:0:0:0:
320,192,12313,1,0,0:0:0:0:
64,192,12472,1,0,0:0:0:0:
448,192,12472,1,0,0:0:0:0:
192,192,12630,1,0,0:0:0:0:
64,192,12789,1,0,0:0:0:0:
448,192,12789,1,0,0:0:0:0:
320,192,12948,1,0,0:0:0:0:
192,192,12948,1,0,0:0:0:0:
64,192,13107,1,0,0:0:0:0:
448,192,13107,1,0,0:0:0:0:
192,192,13265,1,0,0:0:0:0:
448,192,13424,1,0,0:0:0:0:
64,192,13424,1,0,0:0:0:0:
320,192,13583,1,0,0:0:0:0:
192,192,13742,1,0,0:0:0:0:
448,192,13900,1,0,0:0:0:0:
64,192,13900,1,0,0:0:0:0:
320,192,14059,1,0,0:0:0:0:
192,192,14218,1,0,0:0:0:0:
64,192,14376,1,0,0:0:0:0:
448,192,14376,1,0,0:0:0:0:
320,192,14535,1,0,0:0:0:0:
192,192,14694,1,0,0:0:0:0:
448,192,14694,1,0,0:0:0:0:
64,192,14853,1,0,0:0:0:0:
320,192,14853,1,0,0:0:0:0:
192,192,15011,1,0,0:0:0:0:
320,192,15170,1,0,0:0:0:0:
192,192,15329,1,0,0:0:0:0:
448,192,15329,1,0,0:0:0:0:
320,192,15488,1,0,0:0:0:0:
192,192,15646,1,0,0:0:0:0:
448,192,15805,1,0,0:0:0:0:
64,192,15805,1,0,0:0:0:0:
320,192,15964,1,0,0:0:0:0:
448,192,16123,1,0,0:0:0:0:
192,192,16123,1,0,0:0:0:0:
320,192,16281,1,0,0:0:0:0:
64,192,16440,1,0,0:0:0:0:
448,192,16440,1,0,0:0:0:0:
192,192,16599,1,0,0:0:0:0:
448,192,16599,1,0,0:0:0:0:
64,192,16757,1,0,0:0:0:0:
448,192,16757,1,0,0:0:0:0:
448,192,16916,1,0,0:0:0:0:
192,192,16916,1,0,0:0:0:0:
448,192,17075,1,0,0:0:0:0:
64,192,17075,1,0,0:0:0:0:
320,192,17234,1,0,0:0:0:0:
192,192,17234,1,0,0:0:0:0:
448,192,17392,1,0,0:0:0:0:
192,192,17392,1,0,0:0:0:0:
64,192,17392,1,0,0:0:0:0:
64,192,17551,1,0,0:0:0:0:
320,192,17551,1,0,0:0:0:0:
448,192,17710,1,0,0:0:0:0:
192,192,17710,1,0,0:0:0:0:
320,192,17869,1,0,0:0:0:0:
64,192,17869,1,0,0:0:0:0:
448,192,18027,1,0,0:0:0:0:
320,192,18186,1,0,0:0:0:0:
64,192,18186,1,0,0:0:0:0:
448,192,18345,1,0,0:0:0:0:
192,192,18345,1,0,0:0:0:0:
320,192,18503,1,0,0:0:0:0:
64,192,18503,1,0,0:0:0:0:
448,192,18662,1,0,0:0:0:0:
192,192,18662,1,0,0:0:0:0:
192,192,18821,1,0,0:0:0:0:
448,192,18821,1,0,0:0:0:0:
64,192,18980,1,0,0:0:0:0:
320,192,18980,1,0,0:0:0:0:
192,192,19138,1,0,0:0:0:0:
448,192,19138,1,0,0:0:0:0:
320,192,19297,1,0,0:0:0:0:
64,192,19297,1,0,0:0:0:0:
448,192,19456,1,0,0:0:0:0:
320,192,19535,1,0,0:0:0:0:
192,192,19615,1,0,0:0:0:0:
448,192,19694,1,0,0:0:0:0:
64,192,19694,1,0,0:0:0:0:
320,192,19773,1,0,0:0:0:0:
192,192,19853,1,0,0:0:0:0:
320,192,19932,1,0,0:0:0:0:
448,192,20011,1,0,0:0:0:0:
64,192,20011,1,0,0:0:0:0:
192,192,20091,1,0,0:0:0:0:
320,192,20170,1,0,0:0:0:0:
448,192,20249,1,0,0:0:0:0:
192,192,20408,128,0,20567:0:0:0:0:
448,192,20567,1,0,0:0:0:0:
320,192,20726,1,0,0:0:0:0:
64,192,20726,1,0,0:0:0:0:
192,192,20884,1,0,0:0:0:0:
320,192,20884,1,0,0:0:0:0:
448,192,21043,1,0,0:0:0:0:
192,192,21043,1,0,0:0:0:0:
192,192,21202,1,0,0:0:0:0:
320,192,21202,1,0,0:0:0:0:
320,192,21361,1,0,0:0:0:0:
64,192,21361,1,0,0:0:0:0:
192,192,21519,1,0,0:0:0:0:
448,192,21519,1,0,0:0:0:0:
64,192,21678,1,0,0:0:0:0:
320,192,21678,1,0,0:0:0:0:
192,192,21837,1,0,0:0:0:0:
448,192,21837,1,0,0:0:0:0:
320,192,21996,1,0,0:0:0:0:
64,192,21996,1,0,0:0:0:0:
192,192,22154,1,0,0:0:0:0:
448,192,22154,1,0,0:0:0:0:
320,192,22313,1,0,0:0:0:0:
448,192,22472,1,0,0:0:0:0:
192,192,22472,1,0,0:0:0:0:
320,192,22630,1,0,0:0:0:0:
192,192,22789,1,0,0:0:0:0:
448,192,22789,1,0,0:0:0:0:
320,192,22948,1,0,0:0:0:0:
64,192,22948,1,0,0:0:0:0:
448,192,23107,1,0,0:0:0:0:
192,192,23107,1,0,0:0:0:0:
320,192,23265,1,0,0:0:0:0:
448,192,23424,1,0,0:0:0:0:
192,192,23424,1,0,0:0:0:0:
64,192,23583,1,0,0:0:0:0:
320,192,23583,1,0,0:0:0:0:
448,192,23742,1,0,0:0:0:0:
64,192,23900,1,0,0:0:0:0:
320,192,23900,1,0,0:0:0:0:
64,192,24059,1,0,0:0:0:0:
192,192,24218,1,0,0:0:0:0:
448,192,24218,1,0,0:0:0:0:
192,192,24376,1,0,0:0:0:0:
320,192,24376,1,0,0:0:0:0:
64,192,24535,1,0,0:0:0:0:
320,192,24535,1,0,0:0:0:0:
192,192,24694,1,0,0:0:0:0:
320,192,24853,1,0,0:0:0:0:
192,192,24853,1,0,0:0:0:0:
64,192,25011,1,0,0:0:0:0:
320,192,25170,1,0,0:0:0:0:
192,192,25170,1,0,0:0:0:0:
448,192,25329,1,0,0:0:0:0:
64,192,25329,1,0,0:0:0:0:
192,192,25329,1,0,0:0:0:0:
320,192,25488,1,0,0:0:0:0:
448,192,25488,1,0,0:0:0:0:
448,192,25646,1,0,0:0:0:0:
192,192,25646,1,0,0:0:0:0:
192,192,25805,1,0,0:0:0:0:
320,192,25805,1,0,0:0:0:0:
192,192,25964,1,0,0:0:0:0:
448,192,25964,1,0,0:0:0:0:
448,192,26123,1,0,0:0:0:0:
320,192,26281,1,0,0:0:0:0:
192,192,26281,1,0,0:0:0:0:
448,192,26440,1,0,0:0:0:0:
192,192,26599,1,0,0:0:0:0:
320,192,26599,1,0,0:0:0:0:
448,192,26916,1,0,0:0:0:0:
320,192,27075,1,0,0:0:0:0:
192,192,27075,1,0,0:0:0:0:
448,192,27234,1,0,0:0:0:0:
192,192,27234,1,0,0:0:0:0:
192,192,27392,1,0,0:0:0:0:
448,192,27392,1,0,0:0:0:0:
64,192,27551,1,0,0:0:0:0:
192,192,27630,1,0,0:0:0:0:
320,192,27710,1,0,0:0:0:0:
448,192,27789,1,0,0:0:0:0:
64,192,27869,1,0,0:0:0:0:
320,192,27869,1,0,0:0:0:0:
448,192,28186,1,0,0:0:0:0:
64,192,28186,1,0,0:0:0:0:
320,192,28345,1,0,0:0:0:0:
192,192,28345,1,0,0:0:0:0:
448,192,28503,1,0,0:0:0:0:
64,192,28503,1,0,0:0:0:0:
320,192,28662,1,0,0:0:0:0:
192,192,28662,1,0,0:0:0:0:
448,192,28821,1,0,0:0:0:0:
64,192,28821,1,0,0:0:0:0:
192,192,28980,1,0,0:0:0:0:
320,192,28980,1,0,0:0:0:0:
448,192,29138,1,0,0:0:0:0:
192,192,29138,1,0,0:0:0:0:
320,192,29297,1,0,0:0:0:0:
64,192,29456,128,0,29773:0:0:0:0:
192,192,29456,1,0,0:0:0:0:
448,192,29773,1,0,0:0:0:0:
192,192,30091,1,0,0:0:0:0:
64,192,30091,1,0,0:0:0:0:
448,192,30170,1,0,0:0:0:0:
192,192,30249,1,0,0:0:0:0:
320,192,30249,1,0,0:0:0:0:
192,192,30408,128,0,30726:0:0:0:0:
320,192,30408,128,0,30726:0:0:0:0:
64,192,30726,1,0,0:0:0:0:
448,192,30726,1,0,0:0:0:0:
448,192,30884,1,0,0:0:0:0:
64,192,30884,1,0,0:0:0:0:
448,192,31043,1,0,0:0:0:0:
64,192,31043,1,0,0:0:0:0:
64,192,31202,1,0,0:0:0:0:
448,192,31202,1,0,0:0:0:0:
448,192,31361,1,0,0:0:0:0:
64,192,31361,1,0,0:0:0:0:
192,192,31519,1,0,0:0:0:0:
320,192,31519,1,0,0:0:0:0:
192,192,31678,1,0,0:0:0:0:
320,192,31678,1,0,0:0:0:0:
192,192,31837,1,0,0:0:0:0:
320,192,31837,1,0,0:0:0:0:
64,192,31996,1,0,0:0:0:0:
448,192,31996,1,0,0:0:0:0:
448,192,32154,1,0,0:0:0:0:
64,192,32154,1,0,0:0:0:0:
64,192,32313,1,0,0:0:0:0:
448,192,32313,1,0,0:0:0:0:
192,192,32472,1,0,0:0:0:0:
320,192,32472,1,0,0:0:0:0:
64,192,32630,1,0,0:0:0:0:
448,192,32630,1,0,0:0:0:0:
448,192,32789,1,0,0:0:0:0:
64,192,32789,1,0,0:0:0:0:
320,192,32948,1,0,0:0:0:0:
192,192,32948,1,0,0:0:0:0:
192,192,33265,1,0,0:0:0:0:
320,192,33265,1,0,0:0:0:0:
192,192,33424,1,0,0:0:0:0:
320,192,33424,1,0,0:0:0:0:
320,192,33583,1,0,0:0:0:0:
192,192,33583,1,0,0:0:0:0:
448,192,33742,1,0,0:0:0:0:
64,192,33742,1,0,0:0:0:0:
320,192,33900,1,0,0:0:0:0:
192,192,33900,1,0,0:0:0:0:
448,192,34059,1,0,0:0:0:0:
64,192,34059,1,0,0:0:0:0:
320,192,34218,1,0,0:0:0:0:
192,192,34218,1,0,0:0:0:0:
448,192,34376,1,0,0:0:0:0:
64,192,34376,1,0,0:0:0:0:
448,192,34535,1,0,0:0:0:0:
64,192,34535,1,0,0:0:0:0:
448,192,34694,1,0,0:0:0:0:
64,192,34694,1,0,0:0:0:0:
448,192,34853,1,0,0:0:0:0:
64,192,34853,1,0,0:0:0:0:
192,192,35011,1,0,0:0:0:0:
320,192,35011,1,0,0:0:0:0:
320,192,35170,1,0,0:0:0:0:
192,192,35170,1,0,0:0:0:0:
192,192,35329,1,0,0:0:0:0:
320,192,35329,1,0,0:0:0:0:
448,192,35488,1,0,0:0:0:0:
64,192,35488,1,0,0:0:0:0:
192,192,35805,1,0,0:0:0:0:
448,192,35805,1,0,0:0:0:0:
320,192,35964,1,0,0:0:0:0:
192,192,36123,1,0,0:0:0:0:
64,192,36281,1,0,0:0:0:0:
320,192,36281,1,0,0:0:0:0:
64,192,36599,1,0,0:0:0:0:
320,192,36599,1,0,0:0:0:0:
192,192,36757,1,0,0:0:0:0:
320,192,36916,1,0,0:0:0:0:
192,192,37075,1,0,0:0:0:0:
448,192,37075,1,0,0:0:0:0:
64,192,37392,1,0,0:0:0:0:
448,192,37392,1,0,0:0:0:0:
192,192,37392,1,0,0:0:0:0:
64,192,37710,1,0,0:0:0:0:
320,192,37710,1,0,0:0:0:0:
448,192,37710,1,0,0:0:0:0:
448,192,38027,1,0,0:0:0:0:
192,192,38027,1,0,0:0:0:0:
64,192,38027,1,0,0:0:0:0:
320,192,38345,1,0,0:0:0:0:
64,192,38345,1,0,0:0:0:0:
448,192,38345,1,0,0:0:0:0:
192,192,38662,1,0,0:0:0:0:
64,192,38662,1,0,0:0:0:0:
320,192,38821,1,0,0:0:0:0:
320,192,39138,1,0,0:0:0:0:
448,192,39138,1,0,0:0:0:0:
192,192,39297,1,0,0:0:0:0:
64,192,39615,1,0,0:0:0:0:
320,192,39615,1,0,0:0:0:0:
448,192,39615,1,0,0:0:0:0:
448,192,39932,1,0,0:0:0:0:
64,192,39932,1,0,0:0:0:0:
320,192,39932,1,0,0:0:0:0:
448,192,40249,1,0,0:0:0:0:
64,192,40249,1,0,0:0:0:0:
192,192,40249,1,0,0:0:0:0:
192,192,40408,1,0,0:0:0:0:
448,192,40567,1,0,0:0:0:0:
64,192,40567,1,0,0:0:0:0:
320,192,40567,1,0,0:0:0:0:
192,192,40726,1,0,0:0:0:0:
448,192,40726,1,0,0:0:0:0:
64,192,40884,1,0,0:0:0:0:
448,192,40884,1,0,0:0:0:0:
320,192,40884,1,0,0:0:0:0:
64,192,41202,1,0,0:0:0:0:
192,192,41202,1,0,0:0:0:0:
320,192,41361,1,0,0:0:0:0:
448,192,41361,1,0,0:0:0:0:
192,192,41519,1,0,0:0:0:0:
64,192,41519,1,0,0:0:0:0:
320,192,41678,1,0,0:0:0:0:
448,192,41678,1,0,0:0:0:0:
448,192,41837,1,0,0:0:0:0:
320,192,41916,1,0,0:0:0:0:
64,192,41916,1,0,0:0:0:0:
192,192,41996,1,0,0:0:0:0:
320,192,42075,1,0,0:0:0:0:
64,192,42075,1,0,0:0:0:0:
448,192,42154,1,0,0:0:0:0:
64,192,42472,1,0,0:0:0:0:
448,192,42472,1,0,0:0:0:0:
320,192,42472,1,0,0:0:0:0:
448,192,42630,1,0,0:0:0:0:
64,192,42630,1,0,0:0:0:0:
192,192,42630,1,0,0:0:0:0:
64,192,42789,1,0,0:0:0:0:
448,192,42789,1,0,0:0:0:0:
320,192,42789,1,0,0:0:0:0:
192,192,43107,1,0,0:0:0:0:
320,192,43107,1,0,0:0:0:0:
192,192,43424,1,0,0:0:0:0:
64,192,43424,1,0,0:0:0:0:
320,192,43583,1,0,0:0:0:0:
448,192,43742,1,0,0:0:0:0:
320,192,43742,1,0,0:0:0:0:
192,192,43900,1,0,0:0:0:0:
192,192,44059,1,0,0:0:0:0:
64,192,44059,1,0,0:0:0:0:
320,192,44218,1,0,0:0:0:0:
320,192,44376,1,0,0:0:0:0:
448,192,44376,1,0,0:0:0:0:
192,192,44535,1,0,0:0:0:0:
64,192,44694,1,0,0:0:0:0:
192,192,44694,1,0,0:0:0:0:
320,192,44853,1,0,0:0:0:0:
192,192,45011,1,0,0:0:0:0:
64,192,45011,1,0,0:0:0:0:
448,192,45170,1,0,0:0:0:0:
320,192,45170,1,0,0:0:0:0:
320,192,45329,1,0,0:0:0:0:
448,192,45329,1,0,0:0:0:0:
192,192,45488,1,0,0:0:0:0:
320,192,45488,1,0,0:0:0:0:
320,192,45646,1,0,0:0:0:0:
64,192,45646,1,0,0:0:0:0:
448,192,45646,1,0,0:0:0:0:
192,192,45805,1,0,0:0:0:0:
320,192,45805,1,0,0:0:0:0:
320,192,45964,1,0,0:0:0:0:
448,192,45964,1,0,0:0:0:0:
192,192,46123,1,0,0:0:0:0:
64,192,46123,1,0,0:0:0:0:
192,192,46281,1,0,0:0:0:0:
320,192,46281,1,0,0:0:0:0:
320,192,46440,1,0,0:0:0:0:
448,192,46440,1,0,0:0:0:0:
192,192,46599,1,0,0:0:0:0:
64,192,46599,1,0,0:0:0:0:
192,192,46757,1,0,0:0:0:0:
320,192,46757,1,0,0:0:0:0:
320,192,46916,1,0,0:0:0:0:
448,192,46916,1,0,0:0:0:0:
192,192,47075,1,0,0:0:0:0:
64,192,47075,1,0,0:0:0:0:
192,192,47234,1,0,0:0:0:0:
320,192,47234,1,0,0:0:0:0:
320,192,47392,1,0,0:0:0:0:
448,192,47392,1,0,0:0:0:0:
192,192,47551,1,0,0:0:0:0:
64,192,47551,1,0,0:0:0:0:
192,192,47710,1,0,0:0:0:0:
320,192,47710,1,0,0:0:0:0:
320,192,47869,1,0,0:0:0:0:
448,192,47869,1,0,0:0:0:0:
64,192,48027,1,0,0:0:0:0:
192,192,48027,1,0,0:0:0:0:
448,192,48186,1,0,0:0:0:0:
320,192,48186,1,0,0:0:0:0:
320,192,48345,1,0,0:0:0:0:
192,192,48345,1,0,0:0:0:0:
192,192,48503,1,0,0:0:0:0:
64,192,48503,1,0,0:0:0:0:
448,192,48662,1,0,0:0:0:0:
320,192,48662,1,0,0:0:0:0:
320,192,48821,1,0,0:0:0:0:
64,192,48821,1,0,0:0:0:0:
192,192,48980,1,0,0:0:0:0:
64,192,48980,1,0,0:0:0:0:
448,192,49138,1,0,0:0:0:0:
320,192,49138,1,0,0:0:0:0:
320,192,49297,1,0,0:0:0:0:
64,192,49297,1,0,0:0:0:0:
192,192,49456,1,0,0:0:0:0:
64,192,49456,1,0,0:0:0:0:
448,192,49615,1,0,0:0:0:0:
320,192,49615,1,0,0:0:0:0:
64,192,49615,1,0,0:0:0:0:
320,192,49773,1,0,0:0:0:0:
192,192,49932,1,0,0:0:0:0:
64,192,49932,1,0,0:0:0:0:
448,192,50091,1,0,0:0:0:0:
320,192,50091,1,0,0:0:0:0:
320,192,50249,1,0,0:0:0:0:
64,192,50249,1,0,0:0:0:0:
192,192,50408,1,0,0:0:0:0:
64,192,50408,1,0,0:0:0:0:
448,192,50567,1,0,0:0:0:0:
320,192,50567,1,0,0:0:0:0:
192,192,50726,1,0,0:0:0:0:
448,192,50726,1,0,0:0:0:0:
320,192,50884,1,0,0:0:0:0:
448,192,50884,1,0,0:0:0:0:
192,192,51043,1,0,0:0:0:0:
64,192,51043,1,0,0:0:0:0:
192,192,51202,1,0,0:0:0:0:
448,192,51202,1,0,0:0:0:0:
320,192,51361,1,0,0:0:0:0:
64,192,51519,1,0,0:0:0:0:
192,192,51519,1,0,0:0:0:0:
320,192,51678,1,0,0:0:0:0:
448,192,51678,1,0,0:0:0:0:
192,192,51837,1,0,0:0:0:0:
448,192,51837,1,0,0:0:0:0:
320,192,51996,1,0,0:0:0:0:
192,192,52154,1,0,0:0:0:0:
448,192,52154,1,0,0:0:0:0:
320,192,52313,1,0,0:0:0:0:
64,192,52313,1,0,0:0:0:0:
192,192,52472,1,0,0:0:0:0:
448,192,52472,1,0,0:0:0:0:
320,192,52551,1,0,0:0:0:0:
64,192,52551,1,0,0:0:0:0:
192,192,52630,1,0,0:0:0:0:
448,192,52630,1,0,0:0:0:0:
192,192,52789,1,0,0:0:0:0:
448,192,52789,1,0,0:0:0:0:
320,192,52948,1,0,0:0:0:0:
192,192,52948,1,0,0:0:0:0:
64,192,53107,1,0,0:0:0:0:
192,192,53186,1,0,0:0:0:0:
320,192,53265,1,0,0:0:0:0:
448,192,53345,1,0,0:0:0:0:
64,192,53345,1,0,0:0:0:0:
192,192,53424,1,0,0:0:0:0:
320,192,53503,1,0,0:0:0:0:
448,192,53583,128,0,53742:0:0:0:0:
320,192,53742,1,0,0:0:0:0:
64,192,53900,128,0,54297:0:0:0:0:
192,192,53900,1,0,0:0:0:0:
448,192,54218,1,0,0:0:0:0:
320,192,54376,1,0,0:0:0:0:
448,192,54535,1,0,0:0:0:0:
320,192,54535,1,0,0:0:0:0:
192,192,54694,1,0,0:0:0:0:
192,192,54853,1,0,0:0:0:0:
64,192,54853,1,0,0:0:0:0:
320,192,55011,1,0,0:0:0:0:
448,192,55170,1,0,0:0:0:0:
320,192,55170,1,0,0:0:0:0:
192,192,55329,1,0,0:0:0:0:
192,192,55488,1,0,0:0:0:0:
64,192,55488,1,0,0:0:0:0:
320,192,55646,1,0,0:0:0:0:
448,192,55805,1,0,0:0:0:0:
320,192,55805,1,0,0:0:0:0:
192,192,55964,1,0,0:0:0:0:
192,192,56123,1,0,0:0:0:0:
64,192,56123,1,0,0:0:0:0:
320,192,56281,1,0,0:0:0:0:
448,192,56440,1,0,0:0:0:0:
192,192,56440,1,0,0:0:0:0:
320,192,56599,1,0,0:0:0:0:
448,192,56599,1,0,0:0:0:0:
192,192,56757,1,0,0:0:0:0:
448,192,56757,1,0,0:0:0:0:
320,192,56916,1,0,0:0:0:0:
64,192,56916,1,0,0:0:0:0:
192,192,57075,1,0,0:0:0:0:
448,192,57075,1,0,0:0:0:0:
320,192,57234,1,0,0:0:0:0:
448,192,57234,1,0,0:0:0:0:
192,192,57392,1,0,0:0:0:0:
448,192,57392,1,0,0:0:0:0:
320,192,57551,1,0,0:0:0:0:
64,192,57551,1,0,0:0:0:0:
192,192,57710,1,0,0:0:0:0:
448,192,57710,1,0,0:0:0:0:
320,192,57869,1,0,0:0:0:0:
448,192,57869,1,0,0:0:0:0:
192,192,58027,1,0,0:0:0:0:
448,192,58027,1,0,0:0:0:0:
320,192,58186,1,0,0:0:0:0:
448,192,58186,1,0,0:0:0:0:
448,192,58345,1,0,0:0:0:0:
192,192,58345,1,0,0:0:0:0:
320,192,58503,1,0,0:0:0:0:
192,192,58503,1,0,0:0:0:0:
320,192,58662,1,0,0:0:0:0:
448,192,58662,1,0,0:0:0:0:
64,192,58821,1,0,0:0:0:0:
448,192,58821,1,0,0:0:0:0:
192,192,58980,1,0,0:0:0:0:
320,192,58980,1,0,0:0:0:0:
448,192,59138,1,0,0:0:0:0:
64,192,59138,1,0,0:0:0:0:
192,192,59297,1,0,0:0:0:0:
320,192,59297,1,0,0:0:0:0:
448,192,59615,1,0,0:0:0:0:
192,192,59615,1,0,0:0:0:0:
448,192,59932,1,0,0:0:0:0:
64,192,59932,1,0,0:0:0:0:
320,192,60091,1,0,0:0:0:0:
192,192,60091,1,0,0:0:0:0:
448,192,60249,1,0,0:0:0:0:
64,192,60249,1,0,0:0:0:0:
320,192,60408,1,0,0:0:0:0:
192,192,60408,1,0,0:0:0:0:
64,192,60567,1,0,0:0:0:0:
448,192,60646,1,0,0:0:0:0:
320,192,60726,1,0,0:0:0:0:
192,192,60805,1,0,0:0:0:0:
448,192,60884,1,0,0:0:0:0:
64,192,60884,1,0,0:0:0:0:
64,192,61202,1,0,0:0:0:0:
448,192,61202,1,0,0:0:0:0:
320,192,61202,1,0,0:0:0:0:
192,192,61361,1,0,0:0:0:0:
192,192,61519,1,0,0:0:0:0:
448,192,61519,1,0,0:0:0:0:
64,192,61519,1,0,0:0:0:0:
320,192,61678,1,0,0:0:0:0:
448,192,61837,1,0,0:0:0:0:
320,192,61837,1,0,0:0:0:0:
64,192,61837,1,0,0:0:0:0:
192,192,61996,1,0,0:0:0:0:
192,192,62154,1,0,0:0:0:0:
448,192,62154,1,0,0:0:0:0:
64,192,62154,1,0,0:0:0:0:
320,192,62313,1,0,0:0:0:0:
448,192,62472,1,0,0:0:0:0:
320,192,62472,1,0,0:0:0:0:
64,192,62472,1,0,0:0:0:0:
320,192,62789,1,0,0:0:0:0:
64,192,62789,1,0,0:0:0:0:
64,192,63107,1,0,0:0:0:0:
192,192,63186,1,0,0:0:0:0:
320,192,63265,1,0,0:0:0:0:
448,192,63345,1,0,0:0:0:0:
320,192,63424,1,0,0:0:0:0:
192,192,63424,1,0,0:0:0:0:
448,192,63583,1,0,0:0:0:0:
64,192,63583,1,0,0:0:0:0:
320,192,63742,1,0,0:0:0:0:
192,192,63742,1,0,0:0:0:0:
448,192,63900,1,0,0:0:0:0:
64,192,63900,1,0,0:0:0:0:
192,192,64059,1,0,0:0:0:0:
320,192,64059,1,0,0:0:0:0:
448,192,64218,1,0,0:0:0:0:
64,192,64218,1,0,0:0:0:0:
320,192,64376,1,0,0:0:0:0:
192,192,64376,1,0,0:0:0:0:
192,192,64535,1,0,0:0:0:0:
448,192,64535,1,0,0:0:0:0:
320,192,64694,1,0,0:0:0:0:
192,192,64853,1,0,0:0:0:0:
448,192,64853,1,0,0:0:0:0:
64,192,65011,1,0,0:0:0:0:
448,192,65011,1,0,0:0:0:0:
64,192,65170,1,0,0:0:0:0:
448,192,65170,1,0,0:0:0:0:
64,192,65329,1,0,0:0:0:0:
448,192,65329,1,0,0:0:0:0:
192,192,65488,1,0,0:0:0:0:
320,192,65488,1,0,0:0:0:0:
64,192,65646,1,0,0:0:0:0:
448,192,65646,1,0,0:0:0:0:
192,192,65805,1,0,0:0:0:0:
320,192,65805,1,0,0:0:0:0:
64,192,65964,1,0,0:0:0:0:
448,192,65964,1,0,0:0:0:0:
64,192,66281,1,0,0:0:0:0:
448,192,66281,1,0,0:0:0:0:
192,192,66440,1,0,0:0:0:0:
320,192,66440,1,0,0:0:0:0:
64,192,66599,1,0,0:0:0:0:
448,192,66599,1,0,0:0:0:0:
192,192,66757,1,0,0:0:0:0:
320,192,66757,1,0,0:0:0:0:
64,192,66916,1,0,0:0:0:0:
448,192,66916,1,0,0:0:0:0:
320,192,67075,1,0,0:0:0:0:
192,192,67075,1,0,0:0:0:0:
64,192,67234,1,0,0:0:0:0:
448,192,67234,1,0,0:0:0:0:
448,192,67392,1,0,0:0:0:0:
64,192,67392,1,0,0:0:0:0:
64,192,67551,1,0,0:0:0:0:
448,192,67551,1,0,0:0:0:0:
320,192,67710,1,0,0:0:0:0:
192,192,67710,1,0,0:0:0:0:
448,192,67869,1,0,0:0:0:0:
64,192,67869,1,0,0:0:0:0:
192,192,68027,1,0,0:0:0:0:
320,192,68027,1,0,0:0:0:0:
64,192,68186,1,0,0:0:0:0:
448,192,68186,1,0,0:0:0:0:
192,192,68345,1,0,0:0:0:0:
320,192,68345,1,0,0:0:0:0:
64,192,68503,1,0,0:0:0:0:
448,192,68503,1,0,0:0:0:0:
192,192,68821,1,0,0:0:0:0:
64,192,68980,1,0,0:0:0:0:
320,192,68980,1,0,0:0:0:0:
448,192,68980,1,0,0:0:0:0:
192,192,69138,1,0,0:0:0:0:
320,192,69297,1,0,0:0:0:0:
448,192,69297,1,0,0:0:0:0:
320,192,69615,1,0,0:0:0:0:
448,192,69773,1,0,0:0:0:0:
192,192,69773,1,0,0:0:0:0:
64,192,69773,1,0,0:0:0:0:
320,192,69932,1,0,0:0:0:0:
192,192,70091,1,0,0:0:0:0:
64,192,70091,1,0,0:0:0:0:
192,192,70408,1,0,0:0:0:0:
320,192,70408,1,0,0:0:0:0:
320,192,70726,1,0,0:0:0:0:
448,192,70726,1,0,0:0:0:0:
64,192,70726,1,0,0:0:0:0:
192,192,71043,1,0,0:0:0:0:
64,192,71043,1,0,0:0:0:0:
448,192,71043,1,0,0:0:0:0:
192,192,71361,128,0,71678:0:0:0:0:
64,192,71361,1,0,0:0:0:0:
448,192,71361,1,0,0:0:0:0:
320,192,71837,128,0,71996:0:0:0:0:
64,192,71837,1,0,0:0:0:0:
448,192,71996,1,0,0:0:0:0:
192,192,72154,128,0,72313:0:0:0:0:
448,192,72313,1,0,0:0:0:0:
320,192,72392,1,0,0:0:0:0:
64,192,72392,1,0,0:0:0:0:
192,192,72472,1,0,0:0:0:0:
320,192,72551,1,0,0:0:0:0:
64,192,72551,1,0,0:0:0:0:
448,192,72630,1,0,0:0:0:0:
448,192,72948,1,0,0:0:0:0:
64,192,72948,1,0,0:0:0:0:
448,192,73107,1,0,0:0:0:0:
192,192,73107,1,0,0:0:0:0:
448,192,73265,1,0,0:0:0:0:
64,192,73265,1,0,0:0:0:0:
192,192,73583,1,0,0:0:0:0:
320,192,73583,1,0,0:0:0:0:
64,192,73900,1,0,0:0:0:0:
448,192,73900,1,0,0:0:0:0:
64,192,74059,1,0,0:0:0:0:
448,192,74059,1,0,0:0:0:0:
192,192,74218,1,0,0:0:0:0:
320,192,74218,1,0,0:0:0:0:
64,192,74376,1,0,0:0:0:0:
448,192,74376,1,0,0:0:0:0:
192,192,74535,1,0,0:0:0:0:
320,192,74535,1,0,0:0:0:0:
64,192,74694,1,0,0:0:0:0:
448,192,74694,1,0,0:0:0:0:
320,192,74853,1,0,0:0:0:0:
192,192,74853,1,0,0:0:0:0:
448,192,75011,1,0,0:0:0:0:
64,192,75011,1,0,0:0:0:0:
320,192,75170,1,0,0:0:0:0:
192,192,75170,1,0,0:0:0:0:
320,192,75329,1,0,0:0:0:0:
192,192,75329,1,0,0:0:0:0:
64,192,75488,1,0,0:0:0:0:
448,192,75488,1,0,0:0:0:0:
192,192,75646,1,0,0:0:0:0:
320,192,75646,1,0,0:0:0:0:
64,192,75805,1,0,0:0:0:0:
448,192,75805,1,0,0:0:0:0:
192,192,75964,1,0,0:0:0:0:
320,192,75964,1,0,0:0:0:0:
64,192,76123,1,0,0:0:0:0:
448,192,76123,1,0,0:0:0:0:
64,192,76440,1,0,0:0:0:0:
448,192,76440,1,0,0:0:0:0:
192,192,76599,1,0,0:0:0:0:
320,192,76599,1,0,0:0:0:0:
64,192,76757,1,0,0:0:0:0:
448,192,76757,1,0,0:0:0:0:
192,192,76916,1,0,0:0:0:0:
320,192,76916,1,0,0:0:0:0:
320,192,77075,1,0,0:0:0:0:
192,192,77075,1,0,0:0:0:0:
448,192,77234,1,0,0:0:0:0:
64,192,77234,1,0,0:0:0:0:
320,192,77392,1,0,0:0:0:0:
192,192,77392,1,0,0:0:0:0:
192,192,77551,1,0,0:0:0:0:
320,192,77551,1,0,0:0:0:0:
64,192,77710,1,0,0:0:0:0:
448,192,77710,1,0,0:0:0:0:
192,192,77869,1,0,0:0:0:0:
448,192,77869,1,0,0:0:0:0:
64,192,78027,1,0,0:0:0:0:
320,192,78027,1,0,0:0:0:0:
192,192,78186,1,0,0:0:0:0:
448,192,78186,1,0,0:0:0:0:
320,192,78345,1,0,0:0:0:0:
192,192,78345,1,0,0:0:0:0:
448,192,78503,1,0,0:0:0:0:
64,192,78503,1,0,0:0:0:0:
320,192,78662,1,0,0:0:0:0:
64,192,78662,1,0,0:0:0:0:
320,192,78980,1,0,0:0:0:0:
64,192,78980,1,0,0:0:0:0:
192,192,79138,1,0,0:0:0:0:
448,192,79138,1,0,0:0:0:0:
320,192,79297,1,0,0:0:0:0:
64,192,79297,1,0,0:0:0:0:
448,192,79456,1,0,0:0:0:0:
192,192,79456,1,0,0:0:0:0:
448,192,79773,1,0,0:0:0:0:
192,192,79773,1,0,0:0:0:0:
64,192,79932,1,0,0:0:0:0:
320,192,79932,1,0,0:0:0:0:
192,192,80091,1,0,0:0:0:0:
448,192,80091,1,0,0:0:0:0:
64,192,80249,1,0,0:0:0:0:
448,192,80249,1,0,0:0:0:0:
64,192,80567,1,0,0:0:0:0:
320,192,80567,1,0,0:0:0:0:
192,192,80726,1,0,0:0:0:0:
320,192,80726,1,0,0:0:0:0:
448,192,80884,1,0,0:0:0:0:
192,192,80884,1,0,0:0:0:0:
192,192,81043,1,0,0:0:0:0:
448,192,81043,1,0,0:0:0:0:
64,192,81202,1,0,0:0:0:0:
320,192,81202,1,0,0:0:0:0:
192,192,81361,1,0,0:0:0:0:
320,192,81361,1,0,0:0:0:0:
320,192,81519,1,0,0:0:0:0:
448,192,81519,1,0,0:0:0:0:
64,192,81519,1,0,0:0:0:0:
64,192,81837,1,0,0:0:0:0:
448,192,81837,1,0,0:0:0:0:
192,192,81996,1,0,0:0:0:0:
320,192,81996,1,0,0:0:0:0:
192,192,82313,1,0,0:0:0:0:
448,192,82313,1,0,0:0:0:0:
64,192,82472,1,0,0:0:0:0:
448,192,82472,1,0,0:0:0:0:
192,192,82551,1,0,0:0:0:0:
320,192,82630,1,0,0:0:0:0:
64,192,82630,1,0,0:0:0:0:
192,192,82710,1,0,0:0:0:0:
64,192,82789,1,0,0:0:0:0:
448,192,82789,1,0,0:0:0:0:
64,192,83107,1,0,0:0:0:0:
448,192,83107,1,0,0:0:0:0:
320,192,83107,1,0,0:0:0:0:
64,192,83265,1,0,0:0:0:0:
448,192,83265,1,0,0:0:0:0:
192,192,83265,1,0,0:0:0:0:
448,192,83424,1,0,0:0:0:0:
64,192,83424,1,0,0:0:0:0:
320,192,83424,1,0,0:0:0:0:
320,192,83742,1,0,0:0:0:0:
448,192,83742,1,0,0:0:0:0:
64,192,83742,1,0,0:0:0:0:
64,192,84059,1,0,0:0:0:0:
448,192,84059,1,0,0:0:0:0:
192,192,84059,1,0,0:0:0:0:
