osu file format v14

[General]
AudioFilename: audio.mp3
AudioLeadIn: 0
PreviewTime: 10510
Countdown: 0
SampleSet: Soft
StackLeniency: 0.7
Mode: 0
LetterboxInBreaks: 0
WidescreenStoryboard: 1

[Editor]
DistanceSpacing: 1
BeatDivisor: 4
GridSize: 4
TimelineZoom: 1.9

[Metadata]
Title:Shugyou
TitleUnicode:しゅぎょう
Artist:TSUNKU
ArtistUnicode:つんく♂
Creator:unko
Version:Normal
Source:リズム天国ゴールド
Tags:nintendo rhythm heaven tengoku paradise gold munchy monk ds vgm
BeatmapID:1329252
BeatmapSetID:629096

[Difficulty]
HPDrainRate:3
CircleSize:2.8
OverallDifficulty:3
ApproachRate:5
SliderMultiplier:0.9
SliderTickRate:1

[Events]
//Background and Video events
0,0,"munchy_monk_by_driftermanifesto.jpg",0,0
//Break Periods
//Storyboard Layer 0 (Background)
//Storyboard Layer 1 (Fail)
//Storyboard Layer 2 (Pass)
//Storyboard Layer 3 (Foreground)
//Storyboard Sound Samples

[TimingPoints]
352,317.460317460317,4,2,1,65,1,0
30828,-100,4,2,1,65,0,1
35907,-100,4,2,1,65,0,0
38447,-100,4,2,1,75,0,1
40193,-100,4,2,1,75,0,0

[Colours]
Combo1 : 36,173,219
Combo2 : 250,205,69
Combo3 : 254,66,56
Combo4 : 51,215,146

[HitObjects]
24,152,352,6,0,L|32:332,1,180,4|2,1:0|0:0,0:0:0:0:
160,289,1463,2,0,P|224:304|286:279,1,135,2|2,0:0|0:0,0:0:0:0:
221,160,2415,2,0,L|218:222,1,45,2|0,0:0|0:0,0:0:0:0:
129,194,2891,6,0,L|126:1,1,180,0|2,1:0|0:0,0:0:0:0:
210,46,3844,1,0,0:0:0:0:
291,7,4161,1,2,1:3:0:0:
287,96,4478,2,0,P|345:115|425:82,1,135,0|0,1:0|1:0,0:0:0:0:
504,192,5431,6,0,L|512:373,1,180,0|0,0:0|1:0,0:0:0:0:
400,294,6542,2,0,P|327:285|262:297,1,135,0|0,1:0|0:0,0:0:0:0:
144,353,7494,2,0,L|195:349,1,45,0|0,1:0|0:0,0:0:0:0:
151,267,7971,5,4,1:2:0:0:
62,282,8288,1,4,1:2:0:0:
49,192,8605,1,4,1:2:0:0:
137,177,8923,1,4,1:2:0:0:
131,87,9240,6,0,P|196:74|269:87,1,135,0|4,1:0|0:0,0:0:0:0:
267,219,10193,1,8,0:0:0:0:
326,151,10510,6,0,L|430:157,1,90,4|8,0:0|0:0,0:0:0:0:
458,235,11145,2,0,P|466:277|450:340,1,90,0|8,0:0|0:0,0:0:0:0:
371,348,11780,2,0,L|270:350,1,90,0|8,0:0|0:0,0:0:0:0:
283,259,12415,2,0,L|186:264,1,90,0|8,0:0|0:0,0:0:0:0:
188,353,13050,6,0,P|138:362|88:349,1,90,0|8,0:0|0:0,0:0:0:0:
40,286,13685,2,0,L|44:180,1,90,0|8,0:0|0:0,0:0:0:0:
12,111,14320,2,0,P|74:94|142:124,2,135,4|4|8,0:0|0:0|0:0,0:0:0:0:
70,179,15590,6,0,L|67:286,1,90,4|8,0:0|0:0,0:0:0:0:
150,233,16225,2,0,P|193:241|243:230,1,90,0|8,0:0|0:0,0:0:0:0:
251,143,16859,2,0,L|249:42,1,90,0|8,0:0|0:0,0:0:0:0:
336,77,17494,2,0,P|381:82|433:65,1,90,0|8,0:0|0:0,0:0:0:0:
469,147,18129,6,0,L|466:253,1,90,0|8,0:0|0:0,0:0:0:0:
376,239,18764,2,0,P|336:233|279:242,1,90,0|8,0:0|0:0,0:0:0:0:
243,318,19399,5,4,0:0:0:0:
200,238,19717,1,8,0:0:0:0:
152,314,20034,1,0,0:0:0:0:
243,318,20351,1,8,0:0:0:0:
287,239,20669,6,0,L|283:132,1,90,4|8,0:0|0:0,0:0:0:0:
233,74,21304,2,0,P|189:70|135:78,1,90,0|8,0:0|0:0,0:0:0:0:
60,41,21939,2,0,L|63:147,1,90,0|8,0:0|0:0,0:0:0:0:
143,169,22574,1,0,0:0:0:0:
145,258,22891,1,8,0:0:0:0:
221,211,23209,6,0,L|322:207,1,90,0|8,0:0|0:0,0:0:0:0:
352,127,23844,2,0,L|256:124,1,90,0|8,0:0|0:0,0:0:0:0:
222,43,24478,6,0,L|364:37,2,135,4|4|8,0:0|0:0|0:0,0:0:0:0:
262,124,25748,2,0,L|402:127,2,135,4|4|8,0:0|0:0|0:0,0:0:0:0:
226,207,27018,2,0,L|231:343,2,135,4|4|8,0:0|0:0|0:0,0:0:0:0:
314,224,28288,6,0,P|364:229|417:214,1,90,4|8,0:0|0:0,0:0:0:0:
437,137,28923,2,0,L|439:37,1,90,4|8,0:0|0:0,0:0:0:0:
348,49,29558,6,0,B|249:78|155:22|155:22|103:87,1,270,4|8,0:0|0:0,0:0:0:0:
31,116,30828,6,0,L|34:218,1,90,4|8,0:0|0:0,0:0:0:0:
119,233,31463,2,0,L|112:342,1,90,0|8,0:0|0:0,0:0:0:0:
28,293,32098,5,0,0:0:0:0:
33,205,32415,1,8,0:0:0:0:
119,233,32732,1,0,0:0:0:0:
201,197,33050,1,8,0:0:0:0:
215,285,33367,6,0,L|214:381,1,90,4|8,0:0|0:0,0:0:0:0:
299,344,34002,2,0,P|341:337|399:355,1,90,0|8,0:0|0:0,0:0:0:0:
470,314,34637,5,0,0:0:0:0:
492,226,34955,1,8,0:0:0:0:
405,251,35272,1,0,0:0:0:0:
470,314,35590,1,8,0:0:0:0:
492,226,35907,6,0,L|487:83,2,135,4|0|8,0:0|0:0|0:0,0:0:0:0:
406,196,37177,1,4,0:0:0:0:
320,222,37494,1,8,0:0:0:0:
300,133,37812,1,0,0:0:0:0:
386,108,38129,1,8,0:0:0:0:
256,192,38447,12,4,40193,0:0:0:0:
