osu file format v14

[General]
AudioFilename: audio.mp3
AudioLeadIn: 0
PreviewTime: 6571
Countdown: 0
SampleSet: Normal
StackLeniency: 0.7
Mode: 1
LetterboxInBreaks: 0
WidescreenStoryboard: 1

[Editor]
DistanceSpacing: 1.5
BeatDivisor: 2
GridSize: 8
TimelineZoom: 1.5

[Metadata]
Title:Remix 10
TitleUnicode:Remix 10
Artist:TSUNKU
ArtistUnicode:TSUNKU
Creator:Awwy
Version:Kantan
Source:Rhythm Heaven Fever
Tags:
BeatmapID:1453201
BeatmapSetID:686633

[Difficulty]
HPDrainRate:6.5
CircleSize:5
OverallDifficulty:4
ApproachRate:5
SliderMultiplier:1.39643281800321
SliderTickRate:1

[Events]
//Background and Video events
0,0,"bg.jpg",0,0
//Break Periods
//Storyboard Layer 0 (Background)
//Storyboard Layer 1 (Fail)
//Storyboard Layer 2 (Pass)
//Storyboard Layer 3 (Foreground)
//Storyboard Layer 4 (Overlay)
//Storyboard Sound Samples

[TimingPoints]
824,361.44578313253,4,1,0,100,1,0
824,-133.333333333333,4,1,0,100,0,0

[Colours]
Combo1 : 193,0,68
Combo2 : 4,46,198

[HitObjects]
256,192,824,5,0,0:0:0:0:
256,192,1546,1,0,0:0:0:0:
256,192,2269,1,0,0:0:0:0:
256,192,2992,1,0,0:0:0:0:
256,192,3715,1,8,0:0:0:0:
256,192,4257,1,8,0:0:0:0:
256,192,4799,1,8,0:0:0:0:
256,192,5161,2,0,L|200:168,9,34.9108204500803
256,192,6607,1,8,0:0:0:0:
256,192,7330,1,8,0:0:0:0:
256,192,8052,1,8,0:0:0:0:
256,192,8595,1,8,0:0:0:0:
256,192,9498,1,8,0:0:0:0:
256,192,10402,1,8,0:0:0:0:
256,192,10944,1,8,0:0:0:0:
256,192,11305,1,8,0:0:0:0:
256,192,12390,1,8,0:0:0:0:
256,192,13113,1,8,0:0:0:0:
256,192,13836,1,8,0:0:0:0:
256,192,14558,1,8,0:0:0:0:
256,192,15281,1,8,0:0:0:0:
256,192,16185,1,8,0:0:0:0:
256,192,16727,2,0,L|200:168,9,34.9108204500803
256,192,18173,1,0,0:0:0:0:
256,192,19257,1,8,0:0:0:0:
256,192,19619,1,0,0:0:0:0:
256,192,20342,1,8,0:0:0:0:
256,192,21064,1,0,0:0:0:0:
256,192,22149,1,8,0:0:0:0:
256,192,22872,1,8,0:0:0:0:
256,192,23233,1,0,0:0:0:0:
256,192,23956,1,8,0:0:0:0:
256,192,24679,1,8,0:0:0:0:
256,192,25402,1,8,0:0:0:0:
256,192,26004,1,8,0:0:0:0:
256,192,26848,1,8,0:0:0:0:
256,192,27932,1,8,0:0:0:0:
256,192,28655,1,8,0:0:0:0:
256,192,29016,2,0,L|352:224,4,52.3662326727336
256,192,30101,1,8,0:0:0:0:
256,192,30824,1,8,0:0:0:0:
256,192,31546,1,8,0:0:0:0:
256,192,32269,1,8,0:0:0:0:
256,192,32631,1,8,0:0:0:0:
256,192,33354,1,8,0:0:0:0:
256,192,34077,1,8,0:0:0:0:
256,192,34799,1,8,0:0:0:0:
256,192,35522,1,8,0:0:0:0:
256,192,36245,1,8,0:0:0:0:
256,192,36968,1,8,0:0:0:0:
256,192,37691,1,8,0:0:0:0:
256,192,38414,1,8,0:0:0:0:
256,192,39137,1,8,0:0:0:0:
256,192,39498,1,8,0:0:0:0:
256,192,40582,1,8,0:0:0:0:
256,192,41305,1,8,0:0:0:0:
256,192,42028,1,8,0:0:0:0:
256,192,42751,1,8,0:0:0:0:
256,192,43474,1,8,0:0:0:0:
256,192,44197,1,8,0:0:0:0:
256,192,44920,1,8,0:0:0:0:
256,192,45643,1,0,0:0:0:0:
256,192,46366,1,8,0:0:0:0:
256,192,47450,1,0,0:0:0:0:
256,192,48173,1,8,0:0:0:0:
256,192,48534,1,0,0:0:0:0:
256,192,49257,1,8,0:0:0:0:
256,192,50342,1,0,0:0:0:0:
256,192,51064,1,8,0:0:0:0:
256,192,51426,1,0,0:0:0:0:
256,192,52149,1,0,0:0:0:0:
256,192,52872,1,0,0:0:0:0:
256,192,53233,1,8,0:0:0:0:
256,192,53595,1,8,0:0:0:0:
256,192,54317,1,8,0:0:0:0:
256,192,54860,1,8,0:0:0:0:
256,192,55402,1,8,0:0:0:0:
256,192,56125,1,0,0:0:0:0:
256,192,56486,1,8,0:0:0:0:
256,192,57209,1,8,0:0:0:0:
256,192,57751,1,8,0:0:0:0:
256,192,58293,1,8,0:0:0:0:
256,192,59016,1,0,0:0:0:0:
256,192,60462,1,8,0:0:0:0:
256,192,61546,1,8,0:0:0:0:
256,192,62269,1,0,0:0:0:0:
256,192,62811,1,8,0:0:0:0:
256,192,63715,1,8,0:0:0:0:
256,192,64438,1,8,0:0:0:0:
256,192,64980,1,8,0:0:0:0:
256,192,65522,1,8,0:0:0:0:
256,192,65884,1,0,0:0:0:0:
256,192,66426,1,8,0:0:0:0:
256,192,67330,1,8,0:0:0:0:
256,192,68052,1,0,0:0:0:0:
256,192,68775,1,0,0:0:0:0:
256,192,69317,1,8,0:0:0:0:
256,192,70221,1,8,0:0:0:0:
256,192,71305,1,8,0:0:0:0:
256,192,72028,1,8,0:0:0:0:
256,192,73113,1,8,0:0:0:0:
256,192,73836,1,8,0:0:0:0:
256,192,74378,1,8,0:0:0:0:
256,192,76004,1,8,0:0:0:0:
256,192,77089,1,8,0:0:0:0:
256,192,77450,1,8,0:0:0:0:
256,192,77992,1,8,0:0:0:0:
256,192,78896,1,8,0:0:0:0:
256,192,79619,1,8,0:0:0:0:
256,192,80342,2,0,L|200:168,9,34.9108204500803
256,192,81787,1,0,0:0:0:0:
256,192,82510,1,0,0:0:0:0:
256,192,83233,1,8,0:0:0:0:
256,192,83956,1,0,0:0:0:0:
256,192,84679,1,8,0:0:0:0:
256,192,85402,1,8,0:0:0:0:
256,192,86125,1,8,0:0:0:0:
256,192,87209,1,8,0:0:0:0:
256,192,87570,1,8,0:0:0:0:
256,192,89016,1,8,0:0:0:0:
256,192,90462,1,8,0:0:0:0:
256,192,91546,1,8,0:0:0:0:
256,192,91908,1,0,0:0:0:0:
256,192,92631,1,0,0:0:0:0:
256,192,93354,1,8,0:0:0:0:
256,192,93896,1,8,0:0:0:0:
256,192,94619,1,8,0:0:0:0:
256,192,95342,1,8,0:0:0:0:
256,192,96245,1,8,0:0:0:0:
256,192,96787,1,8,0:0:0:0:
256,192,97510,1,8,0:0:0:0:
256,192,99137,1,0,0:0:0:0:
256,192,99860,1,8,0:0:0:0:
256,192,100583,1,8,0:0:0:0:
256,192,101305,1,0,0:0:0:0:
256,192,102028,1,0,0:0:0:0:
256,192,102751,1,8,0:0:0:0:
256,192,103474,1,8,0:0:0:0:
256,192,104016,1,0,0:0:0:0:
256,192,104558,2,0,L|256:88,2,104.732465345467
256,192,106004,1,8,0:0:0:0:
256,192,106727,1,8,0:0:0:0:
256,192,107089,1,8,0:0:0:0:
256,192,107631,1,8,0:0:0:0:
256,192,108534,1,8,0:0:0:0:
256,192,109257,1,8,0:0:0:0:
256,192,109980,1,8,0:0:0:0:
256,192,110522,1,8,0:0:0:0:
256,192,111426,1,0,0:0:0:0:
256,192,112149,1,0,0:0:0:0:
256,192,112872,1,8,0:0:0:0:
256,192,113414,1,8,0:0:0:0:
256,192,113775,1,8,0:0:0:0:
256,192,114317,1,8,0:0:0:0:
256,192,115040,1,8,0:0:0:0:
256,192,115583,1,8,0:0:0:0:
256,192,116125,1,8,0:0:0:0:
256,192,116848,1,8,0:0:0:0:
256,192,117570,1,8,0:0:0:0:
256,192,118293,1,8,0:0:0:0:
256,192,119016,1,8,0:0:0:0:
256,192,120101,1,0,0:0:0:0:
256,192,120462,1,8,0:0:0:0:
256,192,121185,1,8,0:0:0:0:
256,192,121546,1,0,0:0:0:0:
256,192,122269,1,0,0:0:0:0:
256,192,122992,1,0,0:0:0:0:
256,192,123715,1,0,0:0:0:0:
256,192,124438,1,8,0:0:0:0:
256,192,125040,1,8,0:0:0:0:
256,192,125522,1,8,0:0:0:0:
256,192,125884,1,8,0:0:0:0:
256,192,126607,1,8,0:0:0:0:
256,192,128052,1,8,0:0:0:0:
256,192,128775,1,0,0:0:0:0:
256,192,129498,1,8,0:0:0:0:
256,192,130221,1,8,0:0:0:0:
256,192,130944,1,8,0:0:0:0:
256,192,131667,1,8,0:0:0:0:
256,192,132390,1,8,0:0:0:0:
256,192,133113,1,8,0:0:0:0:
256,192,133836,1,8,0:0:0:0:
256,192,134558,1,8,0:0:0:0:
256,192,135281,1,8,0:0:0:0:
256,192,136004,1,8,0:0:0:0:
256,192,136727,1,8,0:0:0:0:
256,192,137450,1,8,0:0:0:0:
256,192,138173,1,8,0:0:0:0:
256,192,138896,1,8,0:0:0:0:
256,192,141064,1,8,0:0:0:0:
256,192,141787,1,8,0:0:0:0:
256,192,142510,1,8,0:0:0:0:
256,192,143233,1,8,0:0:0:0:
256,192,143956,1,8,0:0:0:0:
256,192,145763,1,0,0:0:0:0:
256,192,146848,1,8,0:0:0:0:
256,192,147209,1,8,0:0:0:0:
256,192,147932,1,8,0:0:0:0:
256,192,148836,1,8,0:0:0:0:
256,192,149739,1,8,0:0:0:0:
256,192,150101,1,8,0:0:0:0:
256,192,150823,1,8,0:0:0:0:
256,192,151727,1,8,0:0:0:0:
256,192,152631,1,8,0:0:0:0:
256,192,153534,1,8,0:0:0:0:
256,192,154077,1,8,0:0:0:0:
256,192,155522,1,8,0:0:0:0:
256,192,156426,1,8,0:0:0:0:
256,192,156968,1,8,0:0:0:0:
256,192,158052,1,8,0:0:0:0:
256,192,158414,1,8,0:0:0:0:
256,192,159137,1,8,0:0:0:0:
256,192,159860,1,8,0:0:0:0:
256,192,160583,1,8,0:0:0:0:
256,192,161486,1,8,0:0:0:0:
256,192,162028,1,8,0:0:0:0:
256,192,162751,1,8,0:0:0:0:
256,192,163293,1,8,0:0:0:0:
256,192,164197,1,0,0:0:0:0:
256,192,164920,1,0,0:0:0:0:
256,192,165643,1,0,0:0:0:0:
256,192,166366,1,0,0:0:0:0:
256,192,167089,1,0,0:0:0:0:
256,192,167811,1,0,0:0:0:0:
256,192,168534,1,0,0:0:0:0:
256,192,169257,1,0,0:0:0:0:
256,192,169980,1,8,0:0:0:0:
256,192,170703,1,8,0:0:0:0:
256,192,171426,1,8,0:0:0:0:
256,192,172872,1,8,0:0:0:0:
256,192,173595,1,8,0:0:0:0:
256,192,174317,1,8,0:0:0:0:
256,192,175763,1,8,0:0:0:0:
256,192,177390,1,8,0:0:0:0:
256,192,177932,1,8,0:0:0:0:
256,192,178655,1,8,0:0:0:0:
256,192,179558,1,8,0:0:0:0:
256,192,180281,1,8,0:0:0:0:
256,192,181185,1,8,0:0:0:0:
256,192,181546,1,8,0:0:0:0:
256,192,182450,1,8,0:0:0:0:
256,192,183173,1,8,0:0:0:0:
256,192,184077,1,8,0:0:0:0:
256,192,184438,2,0,L|192:160,6,52.3662326727336
256,192,185884,1,0,0:0:0:0:
256,192,186607,1,0,0:0:0:0:
256,192,187330,1,0,0:0:0:0:
256,192,188052,1,0,0:0:0:0:
256,192,188775,1,0,0:0:0:0:
256,192,189498,1,0,0:0:0:0:
256,192,190221,1,0,0:0:0:0:
256,192,191305,1,8,0:0:0:0:
256,192,191667,1,8,0:0:0:0:
256,192,192390,1,8,0:0:0:0:
256,192,193113,1,8,0:0:0:0:
256,192,193655,1,8,0:0:0:0:
256,192,194558,1,8,0:0:0:0:
256,192,195462,1,8,0:0:0:0:
256,192,196004,1,8,0:0:0:0:
256,192,196366,1,8,0:0:0:0:
256,192,197450,1,8,0:0:0:0:
256,192,198173,1,8,0:0:0:0:
256,192,198896,1,8,0:0:0:0:
256,192,199619,1,8,0:0:0:0:
256,192,200342,1,8,0:0:0:0:
256,192,201245,1,8,0:0:0:0:
256,192,201787,1,8,0:0:0:0:
256,192,202872,1,8,0:0:0:0:
256,192,203233,1,8,0:0:0:0:
256,192,204137,1,8,0:0:0:0:
256,192,204679,1,8,0:0:0:0:
256,192,205040,1,8,0:0:0:0:
256,192,207028,1,8,0:0:0:0:
256,192,207570,1,8,0:0:0:0:
256,192,208474,1,8,0:0:0:0:
256,192,209016,1,8,0:0:0:0:
256,192,209378,1,8,0:0:0:0:
256,192,214076,1,8,0:0:0:0:
256,192,214799,1,8,0:0:0:0:
256,192,215522,1,8,0:0:0:0:
256,192,216245,1,8,0:0:0:0:
256,192,217149,1,8,0:0:0:0:
256,192,217691,1,8,0:0:0:0:
256,192,218052,12,2,221666,0:0:0:0:
