osu file format v14

[General]
AudioFilename: audio.mp3
AudioLeadIn: 0
PreviewTime: 4860
Countdown: 0
SampleSet: Normal
StackLeniency: 0.7
Mode: 1
LetterboxInBreaks: 0
WidescreenStoryboard: 1

[Editor]
DistanceSpacing: 0.8
BeatDivisor: 3
GridSize: 4
TimelineZoom: 1

[Metadata]
Title:Batting Show Perfect Version
TitleUnicode:バッティングショー Perfect Version
Artist:TSUNKU
ArtistUnicode:つんく
Creator:Surono
Version:Strike!
Source:みんなのリズム天国
Tags:Minna no Rhythm Tengoku Heaven Fever Exhibition Match Baseball
BeatmapID:1626364
BeatmapSetID:773713

[Difficulty]
HPDrainRate:6
CircleSize:7
OverallDifficulty:7
ApproachRate:0
SliderMultiplier:1.4
SliderTickRate:1

[Events]
//Background and Video events
0,0,"fishball.jpg",0,0
//Break Periods
//Storyboard Layer 0 (Background)
//Storyboard Layer 1 (Fail)
//Storyboard Layer 2 (Pass)
//Storyboard Layer 3 (Foreground)
//Storyboard Sound Samples

[TimingPoints]
860,500,4,1,0,90,1,0
2193,-25,4,1,0,90,0,0
2860,-100,4,1,0,90,0,0
4860,-100,4,1,0,90,0,1
10860,-1,4,1,0,90,0,1
11026,-100,4,1,0,90,0,1
12860,-100,4,1,0,90,0,0
17193,-111.111111111111,4,1,0,90,0,0
17693,-125,4,1,0,90,0,0
18193,-142.857142857143,4,1,0,90,0,0
18693,-1,4,1,0,90,0,0
19026,-100,4,1,0,90,0,0
25193,-111.111111111111,4,1,0,90,0,0
25693,-125,4,1,0,90,0,0
26693,-1,4,1,0,90,0,0
27026,-100,4,1,0,90,0,0
33193,-90.9090909090909,4,1,0,90,0,0
33526,-83.3333333333333,4,1,0,90,0,0
33860,-76.9230769230769,4,1,0,90,0,0
34026,-74.0740740740741,4,1,0,90,0,0
34193,-71.4285714285714,4,1,0,90,0,0
34526,-66.6666666666667,4,1,0,90,0,0
34860,-1,4,1,0,90,0,0
35026,-100,4,1,0,90,0,0
41193,-90.9090909090909,4,1,0,90,0,0
41526,-83.3333333333333,4,1,0,90,0,0
41860,-76.9230769230769,4,1,0,90,0,0
42693,-1,4,1,0,90,0,0
43026,-100,4,1,0,90,0,0
44860,-100,4,1,0,90,0,1
50860,-1,4,1,0,90,0,1
51026,-100,4,1,0,90,0,1
52860,-100,4,1,0,90,0,0
57693,-133.333333333333,4,1,0,90,0,0
58693,-1,4,1,0,90,0,0
59026,-100,4,1,0,90,0,0
65359,-111.111111111111,4,1,0,90,0,0
65860,-117.647058823529,4,1,0,90,0,0
66193,-125,4,1,0,90,0,0
66526,-133.333333333333,4,1,0,90,0,0
66860,-1,4,1,0,90,0,0
67026,-100,4,1,0,90,0,0
73193,-90.9090909090909,4,1,0,90,0,0
73526,-83.3333333333333,4,1,0,90,0,0
74526,-125,4,1,0,90,0,0
74860,-1,4,1,0,90,0,0
75026,-100,4,1,0,90,0,0
81026,-95.2380952380952,4,1,0,90,0,0
81193,-90.9090909090909,4,1,0,90,0,0
81360,-83.3333333333333,4,1,0,90,0,0
81693,-76.9230769230769,4,1,0,90,0,0
82526,-117.647058823529,4,1,0,90,0,0
82860,-1,4,1,0,90,0,0
83193,-50,4,1,0,90,0,0
84193,-25,4,1,0,90,0,0
84526,-100,4,1,0,90,0,0
88693,-33.3333333333333,4,1,0,90,0,0
90693,-1,4,1,0,90,0,0
91026,-100,4,1,0,90,0,0
97193,-111.111111111111,4,1,0,90,0,0
97693,-125,4,1,0,90,0,0
98193,-142.857142857143,4,1,0,90,0,0
98693,-1,4,1,0,90,0,0
99026,-277.777777777778,4,1,0,90,0,0

[HitObjects]
256,192,2360,5,0,0:0:0:0:
256,192,2526,1,12,0:0:0:0:
256,192,4860,1,4,0:0:0:0:
256,192,5193,1,0,0:0:0:0:
256,192,5360,1,8,0:0:0:0:
256,192,5526,1,8,0:0:0:0:
256,192,5693,1,8,0:0:0:0:
256,192,5860,1,0,0:0:0:0:
256,192,6193,1,0,0:0:0:0:
256,192,6360,1,8,0:0:0:0:
256,192,6526,1,0,0:0:0:0:
256,192,6693,1,0,0:0:0:0:
256,192,6860,1,8,0:0:0:0:
256,192,7193,1,8,0:0:0:0:
256,192,7360,1,8,0:0:0:0:
256,192,7526,1,0,0:0:0:0:
256,192,7693,1,8,0:0:0:0:
256,192,7860,1,8,0:0:0:0:
256,192,8026,1,8,0:0:0:0:
256,192,8193,1,0,0:0:0:0:
256,192,8360,1,8,0:0:0:0:
256,192,8526,1,0,0:0:0:0:
256,192,8693,1,0,0:0:0:0:
256,192,8860,1,8,0:0:0:0:
256,192,9193,1,0,0:0:0:0:
256,192,9360,1,8,0:0:0:0:
256,192,9526,1,8,0:0:0:0:
256,192,9693,1,8,0:0:0:0:
256,192,9860,1,0,0:0:0:0:
256,192,10193,1,0,0:0:0:0:
256,192,10360,1,8,0:0:0:0:
256,192,10526,1,0,0:0:0:0:
256,192,10693,1,0,0:0:0:0:
256,192,10860,1,12,0:0:0:0:
256,192,11193,1,0,0:0:0:0:
256,192,11693,1,0,0:0:0:0:
256,192,11860,1,8,0:0:0:0:
256,192,12026,1,8,0:0:0:0:
256,192,12193,1,8,0:0:0:0:
256,192,12360,1,8,0:0:0:0:
256,192,12693,1,8,0:0:0:0:
256,192,12860,1,4,0:0:0:0:
256,192,13193,1,8,0:0:0:0:
256,192,13360,1,8,0:0:0:0:
256,192,13693,1,8,0:0:0:0:
256,192,13860,1,0,0:0:0:0:
256,192,14193,1,0,0:0:0:0:
256,192,14360,1,8,0:0:0:0:
256,192,14693,1,0,0:0:0:0:
256,192,14860,1,0,0:0:0:0:
256,192,15193,1,8,0:0:0:0:
256,192,15360,1,8,0:0:0:0:
256,192,15693,1,0,0:0:0:0:
256,192,15860,1,8,0:0:0:0:
256,192,16026,1,0,0:0:0:0:
256,192,16193,1,8,0:0:0:0:
256,192,16360,1,4,0:0:0:0:
256,192,16860,1,8,0:0:0:0:
256,192,17360,1,0,0:0:0:0:
256,192,17860,1,0,0:0:0:0:
256,192,18360,1,0,0:0:0:0:
256,192,18860,1,12,0:0:0:0:
256,192,19860,1,8,0:0:0:0:
256,192,20026,1,8,0:0:0:0:
256,192,20193,1,8,0:0:0:0:
256,192,20360,1,8,0:0:0:0:
256,192,20693,1,8,0:0:0:0:
256,192,20860,1,4,0:0:0:0:
256,192,21193,1,8,0:0:0:0:
256,192,21360,1,8,0:0:0:0:
256,192,21693,1,0,0:0:0:0:
256,192,21860,1,0,0:0:0:0:
256,192,22193,1,0,0:0:0:0:
256,192,22360,1,8,0:0:0:0:
256,192,22693,1,8,0:0:0:0:
256,192,22860,1,0,0:0:0:0:
256,192,23193,1,8,0:0:0:0:
256,192,23360,1,8,0:0:0:0:
256,192,23693,1,0,0:0:0:0:
256,192,23860,1,8,0:0:0:0:
256,192,24026,1,0,0:0:0:0:
256,192,24193,1,8,0:0:0:0:
256,192,24360,1,4,0:0:0:0:
256,192,24860,1,8,0:0:0:0:
256,192,25360,1,0,0:0:0:0:
256,192,25860,1,0,0:0:0:0:
256,192,26026,1,0,0:0:0:0:
256,192,26860,1,12,0:0:0:0:
256,192,27860,1,8,0:0:0:0:
256,192,28026,1,8,0:0:0:0:
256,192,28193,1,8,0:0:0:0:
256,192,28360,1,8,0:0:0:0:
256,192,28693,1,8,0:0:0:0:
256,192,28860,1,4,0:0:0:0:
256,192,29193,1,8,0:0:0:0:
256,192,29360,1,8,0:0:0:0:
256,192,29526,1,0,0:0:0:0:
256,192,29693,1,0,0:0:0:0:
256,192,29860,1,8,0:0:0:0:
256,192,30193,1,0,0:0:0:0:
256,192,30360,1,8,0:0:0:0:
256,192,30526,1,0,0:0:0:0:
256,192,30693,1,8,0:0:0:0:
256,192,30860,1,0,0:0:0:0:
256,192,31193,1,0,0:0:0:0:
256,192,31360,1,8,0:0:0:0:
256,192,31526,1,0,0:0:0:0:
256,192,31693,1,0,0:0:0:0:
256,192,31860,1,8,0:0:0:0:
256,192,32026,1,0,0:0:0:0:
256,192,32193,1,8,0:0:0:0:
256,192,32360,1,4,0:0:0:0:
256,192,32860,1,8,0:0:0:0:
256,192,33026,1,8,0:0:0:0:
256,192,33360,1,8,0:0:0:0:
256,192,33693,1,0,0:0:0:0:
256,192,33860,1,8,0:0:0:0:
256,192,34026,1,0,0:0:0:0:
256,192,34360,1,0,0:0:0:0:
256,192,34693,1,0,0:0:0:0:
256,192,34860,1,12,0:0:0:0:
256,192,35860,1,8,0:0:0:0:
256,192,36026,1,8,0:0:0:0:
256,192,36193,1,8,0:0:0:0:
256,192,36360,1,8,0:0:0:0:
256,192,36693,1,8,0:0:0:0:
256,192,36860,1,4,0:0:0:0:
256,192,37193,1,8,0:0:0:0:
256,192,37360,1,8,0:0:0:0:
256,192,37526,1,0,0:0:0:0:
256,192,37693,1,8,0:0:0:0:
256,192,37860,1,8,0:0:0:0:
256,192,38193,1,0,0:0:0:0:
256,192,38360,1,8,0:0:0:0:
256,192,38526,1,0,0:0:0:0:
256,192,38693,1,8,0:0:0:0:
256,192,38860,1,0,0:0:0:0:
256,192,39193,1,8,0:0:0:0:
256,192,39360,1,8,0:0:0:0:
256,192,39526,1,0,0:0:0:0:
256,192,39693,1,0,0:0:0:0:
256,192,39860,1,8,0:0:0:0:
256,192,40026,1,0,0:0:0:0:
256,192,40193,1,8,0:0:0:0:
256,192,40360,1,4,0:0:0:0:
256,192,40693,1,0,0:0:0:0:
256,192,40860,1,8,0:0:0:0:
256,192,41026,1,8,0:0:0:0:
256,192,41360,1,8,0:0:0:0:
256,192,41693,1,0,0:0:0:0:
256,192,42026,1,0,0:0:0:0:
256,192,42860,1,12,0:0:0:0:
256,192,43860,1,8,0:0:0:0:
256,192,44026,1,8,0:0:0:0:
256,192,44193,1,8,0:0:0:0:
256,192,44360,1,8,0:0:0:0:
256,192,44693,1,8,0:0:0:0:
256,192,44860,1,4,0:0:0:0:
256,192,45193,1,0,0:0:0:0:
256,192,45360,1,8,0:0:0:0:
256,192,45526,1,8,0:0:0:0:
256,192,45693,1,8,0:0:0:0:
256,192,45860,1,0,0:0:0:0:
256,192,46193,1,0,0:0:0:0:
256,192,46360,1,8,0:0:0:0:
256,192,46526,1,0,0:0:0:0:
256,192,46693,1,0,0:0:0:0:
256,192,46860,1,8,0:0:0:0:
256,192,47193,1,8,0:0:0:0:
256,192,47360,1,8,0:0:0:0:
256,192,47526,1,0,0:0:0:0:
256,192,47693,1,8,0:0:0:0:
256,192,47860,1,8,0:0:0:0:
256,192,48026,1,8,0:0:0:0:
256,192,48193,1,0,0:0:0:0:
256,192,48360,1,8,0:0:0:0:
256,192,48526,1,0,0:0:0:0:
256,192,48693,1,0,0:0:0:0:
256,192,48860,1,8,0:0:0:0:
256,192,49193,1,0,0:0:0:0:
256,192,49360,1,8,0:0:0:0:
256,192,49526,1,8,0:0:0:0:
256,192,49693,1,8,0:0:0:0:
256,192,49860,1,0,0:0:0:0:
256,192,50193,1,0,0:0:0:0:
256,192,50360,1,8,0:0:0:0:
256,192,50526,1,0,0:0:0:0:
256,192,50693,1,0,0:0:0:0:
256,192,50860,1,12,0:0:0:0:
256,192,51193,1,0,0:0:0:0:
256,192,51693,1,0,0:0:0:0:
256,192,51860,1,8,0:0:0:0:
256,192,52026,1,8,0:0:0:0:
256,192,52193,1,8,0:0:0:0:
256,192,52360,1,8,0:0:0:0:
256,192,52693,1,8,0:0:0:0:
256,192,52860,1,4,0:0:0:0:
256,192,53193,1,8,0:0:0:0:
256,192,53360,1,8,0:0:0:0:
256,192,53693,1,8,0:0:0:0:
256,192,53860,1,0,0:0:0:0:
256,192,54193,1,0,0:0:0:0:
256,192,54360,1,8,0:0:0:0:
256,192,54693,1,0,0:0:0:0:
256,192,54860,1,0,0:0:0:0:
256,192,55193,1,8,0:0:0:0:
256,192,55360,1,8,0:0:0:0:
256,192,55693,1,8,0:0:0:0:
256,192,55860,1,0,0:0:0:0:
256,192,56026,1,0,0:0:0:0:
256,192,56193,1,8,0:0:0:0:
256,192,56360,1,4,0:0:0:0:
256,192,56860,1,8,0:0:0:0:
256,192,57026,1,8,0:0:0:0:
256,192,57860,1,0,0:0:0:0:
256,192,58026,1,8,0:0:0:0:
256,192,58860,1,12,0:0:0:0:
256,192,59860,1,8,0:0:0:0:
256,192,60026,1,8,0:0:0:0:
256,192,60193,1,8,0:0:0:0:
256,192,60360,1,8,0:0:0:0:
256,192,60693,1,8,0:0:0:0:
256,192,60860,1,4,0:0:0:0:
256,192,61193,1,8,0:0:0:0:
256,192,61360,1,8,0:0:0:0:
256,192,61693,1,0,0:0:0:0:
256,192,61860,1,0,0:0:0:0:
256,192,62193,1,0,0:0:0:0:
256,192,62360,1,8,0:0:0:0:
256,192,62693,1,8,0:0:0:0:
256,192,62860,1,0,0:0:0:0:
256,192,63193,1,8,0:0:0:0:
256,192,63360,1,8,0:0:0:0:
256,192,63693,1,8,0:0:0:0:
256,192,63860,1,0,0:0:0:0:
256,192,64026,1,0,0:0:0:0:
256,192,64193,1,8,0:0:0:0:
256,192,64360,1,4,0:0:0:0:
256,192,64860,1,8,0:0:0:0:
256,192,65026,1,8,0:0:0:0:
256,192,65526,1,0,0:0:0:0:
256,192,66026,1,0,0:0:0:0:
256,192,66360,1,8,0:0:0:0:
256,192,66693,1,0,0:0:0:0:
256,192,66860,1,12,0:0:0:0:
256,192,67860,1,8,0:0:0:0:
256,192,68026,1,8,0:0:0:0:
256,192,68193,1,8,0:0:0:0:
256,192,68360,1,8,0:0:0:0:
256,192,68693,1,8,0:0:0:0:
256,192,68860,1,4,0:0:0:0:
256,192,69193,1,8,0:0:0:0:
256,192,69360,1,8,0:0:0:0:
256,192,69526,1,0,0:0:0:0:
256,192,69693,1,0,0:0:0:0:
256,192,69860,1,8,0:0:0:0:
256,192,70193,1,0,0:0:0:0:
256,192,70360,1,8,0:0:0:0:
256,192,70526,1,0,0:0:0:0:
256,192,70693,1,8,0:0:0:0:
256,192,70860,1,0,0:0:0:0:
256,192,71193,1,0,0:0:0:0:
256,192,71360,1,8,0:0:0:0:
256,192,71526,1,0,0:0:0:0:
256,192,71693,1,8,0:0:0:0:
256,192,71860,1,8,0:0:0:0:
256,192,72026,1,0,0:0:0:0:
256,192,72193,1,8,0:0:0:0:
256,192,72360,1,4,0:0:0:0:
256,192,72860,1,8,0:0:0:0:
256,192,73026,1,0,0:0:0:0:
256,192,73360,1,8,0:0:0:0:
256,192,73693,1,0,0:0:0:0:
256,192,74693,1,0,0:0:0:0:
256,192,74860,1,12,0:0:0:0:
256,192,75860,1,8,0:0:0:0:
256,192,76026,1,8,0:0:0:0:
256,192,76193,1,8,0:0:0:0:
256,192,76360,1,8,0:0:0:0:
256,192,76693,1,8,0:0:0:0:
256,192,76860,1,4,0:0:0:0:
256,192,77193,1,8,0:0:0:0:
256,192,77360,1,8,0:0:0:0:
256,192,77526,1,0,0:0:0:0:
256,192,77693,1,8,0:0:0:0:
256,192,77860,1,8,0:0:0:0:
256,192,78193,1,0,0:0:0:0:
256,192,78360,1,8,0:0:0:0:
256,192,78526,1,0,0:0:0:0:
256,192,78693,1,8,0:0:0:0:
256,192,78860,1,0,0:0:0:0:
256,192,79193,1,8,0:0:0:0:
256,192,79360,1,8,0:0:0:0:
256,192,79526,1,0,0:0:0:0:
256,192,79693,1,0,0:0:0:0:
256,192,79860,1,8,0:0:0:0:
256,192,80026,1,8,0:0:0:0:
256,192,80193,1,8,0:0:0:0:
256,192,80360,1,4,0:0:0:0:
256,192,80860,1,8,0:0:0:0:
256,192,81026,1,8,0:0:0:0:
256,192,81193,1,8,0:0:0:0:
256,192,81526,1,0,0:0:0:0:
256,192,81860,1,0,0:0:0:0:
256,192,82693,1,0,0:0:0:0:
256,192,82860,1,12,0:0:0:0:
24,360,83360,2,4,L|284:144,1,280
256,192,84360,1,12,0:0:0:0:
256,192,84693,1,8,0:0:0:0:
256,192,84860,1,4,0:0:0:0:
256,192,85193,1,8,0:0:0:0:
256,192,85360,1,8,0:0:0:0:
256,192,85526,1,0,0:0:0:0:
256,192,85693,1,8,0:0:0:0:
256,192,85860,1,8,0:0:0:0:
256,192,86193,1,8,0:0:0:0:
256,192,86360,1,8,0:0:0:0:
256,192,86526,1,0,0:0:0:0:
256,192,86693,1,8,0:0:0:0:
256,192,86860,1,0,0:0:0:0:
256,192,87193,1,8,0:0:0:0:
256,192,87360,1,8,0:0:0:0:
256,192,87526,1,0,0:0:0:0:
256,192,87693,1,0,0:0:0:0:
256,192,87860,1,8,0:0:0:0:
256,192,88026,1,0,0:0:0:0:
256,192,88193,1,8,0:0:0:0:
256,192,88360,1,4,0:0:0:0:
256,192,88860,1,0,0:0:0:0:
256,192,90860,1,12,0:0:0:0:
256,192,91860,1,8,0:0:0:0:
256,192,92026,1,8,0:0:0:0:
256,192,92193,1,8,0:0:0:0:
256,192,92360,1,8,0:0:0:0:
256,192,92693,1,8,0:0:0:0:
256,192,92860,1,4,0:0:0:0:
256,192,93193,1,8,0:0:0:0:
256,192,93360,1,8,0:0:0:0:
256,192,93526,1,0,0:0:0:0:
256,192,93693,1,8,0:0:0:0:
256,192,93860,1,8,0:0:0:0:
256,192,94193,1,8,0:0:0:0:
256,192,94360,1,8,0:0:0:0:
256,192,94526,1,0,0:0:0:0:
256,192,94693,1,8,0:0:0:0:
256,192,94860,1,0,0:0:0:0:
256,192,95193,1,8,0:0:0:0:
256,192,95360,1,8,0:0:0:0:
256,192,95526,1,0,0:0:0:0:
256,192,95693,1,8,0:0:0:0:
256,192,95860,1,8,0:0:0:0:
256,192,96026,1,0,0:0:0:0:
256,192,96193,1,8,0:0:0:0:
256,192,96360,1,4,0:0:0:0:
256,192,96860,1,8,0:0:0:0:
256,192,97360,1,4,0:0:0:0:
256,192,97860,1,4,0:0:0:0:
256,192,98360,1,4,0:0:0:0:
256,192,98860,1,12,0:0:0:0:
256,192,100860,1,0,0:0:0:0:
