osu file format v14

[General]
AudioFilename: audio.mp3
AudioLeadIn: 0
PreviewTime: 4860
Countdown: 0
SampleSet: Normal
StackLeniency: 0.7
Mode: 1
LetterboxInBreaks: 0
WidescreenStoryboard: 0

[Editor]
DistanceSpacing: 0.8
BeatDivisor: 3
GridSize: 32
TimelineZoom: 1

[Metadata]
Title:Batting Show Perfect Version
TitleUnicode:バッティングショー Perfect Version
Artist:TSUNKU
ArtistUnicode:つんく
Creator:Surono
Version:Kantan
Source:みんなのリズム天国
Tags:Minna no Rhythm Tengoku Heaven Fever Exhibition Match Baseball
BeatmapID:1626362
BeatmapSetID:773713

[Difficulty]
HPDrainRate:9
CircleSize:7
OverallDifficulty:4
ApproachRate:0
SliderMultiplier:1.4
SliderTickRate:1

[Events]
//Background and Video events
0,0,"fishball.jpg",0,0
//Break Periods
//Storyboard Layer 0 (Background)
//Storyboard Layer 1 (Fail)
//Storyboard Layer 2 (Pass)
//Storyboard Layer 3 (Foreground)
//Storyboard Sound Samples

[TimingPoints]
860,500,4,1,0,90,1,0
2526,-66.6666666666667,4,1,0,90,0,0
2860,-100,4,1,0,90,0,0
4860,-100,4,1,0,90,0,1
10860,-66.6666666666667,4,1,0,90,0,1
11026,-100,4,1,0,90,0,1
12860,-100,4,1,0,90,0,0
18693,-66.6666666666667,4,1,0,90,0,0
19026,-100,4,1,0,90,0,0
26693,-66.6666666666667,4,1,0,90,0,0
27026,-100,4,1,0,90,0,0
34860,-66.6666666666667,4,1,0,90,0,0
35026,-100,4,1,0,90,0,0
42693,-66.6666666666667,4,1,0,90,0,0
43026,-100,4,1,0,90,0,0
44860,-100,4,1,0,90,0,1
50860,-66.6666666666667,4,1,0,90,0,1
51026,-100,4,1,0,90,0,1
52860,-100,4,1,0,90,0,0
58693,-66.6666666666667,4,1,0,90,0,0
59026,-100,4,1,0,90,0,0
66860,-66.6666666666667,4,1,0,90,0,0
67026,-100,4,1,0,90,0,0
74860,-66.6666666666667,4,1,0,90,0,0
75026,-100,4,1,0,90,0,0
82860,-66.6666666666667,4,1,0,90,0,0
83193,-100,4,1,0,90,0,0
88693,-86.9565217391304,4,1,0,90,0,0
90693,-66.6666666666667,4,1,0,90,0,0
91026,-100,4,1,0,90,0,0
98693,-66.6666666666667,4,1,0,90,0,0
99026,-153.846153846153,4,1,0,90,0,0

[HitObjects]
256,192,2526,5,12,0:0:0:0:
256,192,4860,1,4,0:0:0:0:
256,192,5693,1,0,0:0:0:0:
256,192,6860,1,8,0:0:0:0:
256,192,7693,1,8,0:0:0:0:
256,192,8860,1,0,0:0:0:0:
256,192,9693,1,0,0:0:0:0:
256,192,10860,1,12,0:0:0:0:
256,192,11860,12,0,12360,0:0:0:0:
256,192,12860,5,4,0:0:0:0:
256,192,13860,1,0,0:0:0:0:
256,192,14860,1,8,0:0:0:0:
256,192,15860,1,8,0:0:0:0:
256,192,16360,1,4,0:0:0:0:
256,192,18860,1,12,0:0:0:0:
256,192,19860,12,0,20360,0:0:0:0:
256,192,20860,5,4,0:0:0:0:
256,192,21860,1,0,0:0:0:0:
256,192,22860,1,8,0:0:0:0:
256,192,23860,1,8,0:0:0:0:
256,192,24360,1,4,0:0:0:0:
256,192,26860,1,12,0:0:0:0:
256,192,27860,12,0,28360,0:0:0:0:
256,192,28860,5,4,0:0:0:0:
256,192,29360,1,8,0:0:0:0:
256,192,29860,1,0,0:0:0:0:
256,192,30860,1,8,0:0:0:0:
256,192,31860,1,0,0:0:0:0:
256,192,32360,1,4,0:0:0:0:
256,192,34860,1,12,0:0:0:0:
256,192,35860,12,0,36360,0:0:0:0:
256,192,36860,5,4,0:0:0:0:
256,192,37360,1,8,0:0:0:0:
256,192,37860,1,0,0:0:0:0:
256,192,38860,1,8,0:0:0:0:
256,192,39860,1,8,0:0:0:0:
256,192,40360,1,4,0:0:0:0:
256,192,42860,1,12,0:0:0:0:
256,192,43860,12,0,44360,0:0:0:0:
256,192,44860,5,4,0:0:0:0:
256,192,45693,1,0,0:0:0:0:
256,192,46860,1,8,0:0:0:0:
256,192,47693,1,8,0:0:0:0:
256,192,48860,1,0,0:0:0:0:
256,192,49693,1,0,0:0:0:0:
256,192,50860,1,12,0:0:0:0:
256,192,51860,12,0,52360,0:0:0:0:
256,192,52860,5,4,0:0:0:0:
256,192,53860,1,0,0:0:0:0:
256,192,54860,1,8,0:0:0:0:
256,192,55860,1,0,0:0:0:0:
256,192,56360,1,4,0:0:0:0:
256,192,58860,1,12,0:0:0:0:
256,192,59860,12,0,60360,0:0:0:0:
256,192,60860,5,4,0:0:0:0:
256,192,61860,1,0,0:0:0:0:
256,192,62860,1,8,0:0:0:0:
256,192,63860,1,0,0:0:0:0:
256,192,64360,1,4,0:0:0:0:
256,192,66860,1,12,0:0:0:0:
256,192,67860,12,0,68360,0:0:0:0:
256,192,68860,5,4,0:0:0:0:
256,192,69360,1,8,0:0:0:0:
256,192,69860,1,0,0:0:0:0:
256,192,70860,1,8,0:0:0:0:
256,192,71860,1,0,0:0:0:0:
256,192,72360,1,4,0:0:0:0:
256,192,74860,1,12,0:0:0:0:
256,192,75860,12,0,76360,0:0:0:0:
256,192,76860,5,4,0:0:0:0:
256,192,77360,1,8,0:0:0:0:
256,192,77860,1,8,0:0:0:0:
256,192,78860,1,8,0:0:0:0:
256,192,79860,1,0,0:0:0:0:
256,192,80360,1,4,0:0:0:0:
256,192,82860,1,12,0:0:0:0:
480,0,83360,2,4,L|224:160,1,280
256,192,84860,1,4,0:0:0:0:
256,192,85860,1,8,0:0:0:0:
256,192,86860,1,8,0:0:0:0:
256,192,87860,1,0,0:0:0:0:
256,192,88360,1,4,0:0:0:0:
256,192,90860,1,12,0:0:0:0:
256,192,91860,12,0,92360,0:0:0:0:
256,192,92860,5,4,0:0:0:0:
256,192,93360,1,8,0:0:0:0:
256,192,93860,1,8,0:0:0:0:
256,192,94860,1,0,0:0:0:0:
256,192,95860,1,8,0:0:0:0:
256,192,96360,1,4,0:0:0:0:
256,192,97860,1,4,0:0:0:0:
256,192,98860,1,12,0:0:0:0:
256,192,100860,1,0,0:0:0:0:
