osu file format v14

[General]
AudioFilename: audio.mp3
AudioLeadIn: 0
PreviewTime: 176633
Countdown: 1
SampleSet: Soft
StackLeniency: 0.2
Mode: 0
LetterboxInBreaks: 0
WidescreenStoryboard: 0

[Editor]
DistanceSpacing: 1.1
BeatDivisor: 4
GridSize: 8
TimelineZoom: 2

[Metadata]
Title:Countdown to the Blue
TitleUnicode:Countdown to the Blue
Artist:TRakker
ArtistUnicode:TRakker
Creator:Lasse
Version:Dusk
Source:
Tags:青葉りんご Aoba Ringo Taishi TRanswing -The Inner Gaze- C79
BeatmapID:1295837
BeatmapSetID:614248

[Difficulty]
HPDrainRate:6
CircleSize:4.3
OverallDifficulty:9
ApproachRate:9.4
SliderMultiplier:1.92
SliderTickRate:1

[Events]
//Background and Video events
0,0,"bg.jpg",0,0
//Break Periods
2,120540,130587
2,233799,235756
2,237001,238452
2,239697,241654
2,244585,246542
2,247787,249239
//Storyboard Layer 0 (Background)
//Storyboard Layer 1 (Fail)
//Storyboard Layer 2 (Pass)
//Storyboard Layer 3 (Foreground)
//Storyboard Sound Samples

[TimingPoints]
341,337.078651685393,4,2,43,30,1,0
11127,-200,4,2,43,32,0,0
21576,-400,4,2,43,34,0,0
21829,-400,4,2,99,5,0,0
21914,-200,4,2,43,40,0,0
24273,-400,4,2,43,40,0,0
24526,-400,4,2,99,5,0,0
24610,-200,4,2,43,43,0,0
27138,-133.333333333333,4,2,43,43,0,0
27159,-133.333333333333,4,2,1,20,0,0
27223,-133.333333333333,4,2,43,21,0,0
27307,-133.333333333333,4,2,43,46,0,0
27644,-166.666666666667,4,2,43,46,0,0
29498,-90.9090909090909,4,2,43,46,0,0
30003,-166.666666666667,4,2,43,46,0,0
30509,-166.666666666667,4,2,43,46,0,0
31015,-100,4,2,43,46,0,0
31183,-100,4,2,43,10,0,0
31436,-100,4,2,99,5,0,0
31520,-166.666666666667,4,2,43,46,0,0
32363,-400,4,2,43,34,0,0
32616,-400,4,2,99,5,0,0
32700,-133.333333333333,4,2,1,50,0,0
35397,-133.333333333333,4,2,1,52,0,0
38093,-117.647058823529,4,2,1,55,0,0
39779,-117.647058823529,4,2,1,58,0,0
41296,-117.647058823529,4,2,1,60,0,0
41801,-117.647058823529,4,2,1,63,0,0
42307,-117.647058823529,4,2,1,43,0,0
42391,-117.647058823529,4,2,1,46,0,0
42475,-117.647058823529,4,2,1,49,0,0
42560,-117.647058823529,4,2,1,52,0,0
42644,-117.647058823529,4,2,1,55,0,0
42728,-117.647058823529,4,2,1,58,0,0
42812,-117.647058823529,4,2,1,61,0,0
42897,-117.647058823529,4,2,1,65,0,0
42981,-117.647058823529,4,2,1,68,0,0
43065,-117.647058823529,4,2,1,70,0,0
43149,-200,4,2,1,50,0,0
43171,-200,4,2,43,25,0,0
43402,-200,4,2,99,5,0,0
43487,-83.3333333333333,4,2,1,67,0,1
44708,-83.3333333333333,4,2,43,50,0,1
44835,-83.3333333333333,4,2,1,67,0,1
45593,-83.3333333333333,4,2,1,40,0,1
45678,-83.3333333333333,4,2,1,67,0,1
46562,-83.3333333333333,4,2,43,50,0,1
46689,-83.3333333333333,4,2,1,67,0,1
47784,-83.3333333333333,4,2,1,40,0,1
47869,-83.3333333333333,4,2,1,67,0,1
48206,-62.5,4,2,1,67,0,1
48374,-62.5,4,2,1,32,0,1
48458,-55.5555555555556,4,2,1,67,0,1
48627,-55.5555555555556,4,2,1,32,0,1
48711,-50,4,2,1,67,0,1
48796,-50,4,2,1,32,0,1
48880,-83.3333333333333,4,2,1,67,0,1
50102,-83.3333333333333,4,2,43,50,0,1
50228,-83.3333333333333,4,2,1,67,0,1
50987,-83.3333333333333,4,2,1,40,0,1
51071,-83.3333333333333,4,2,1,67,0,1
51956,-83.3333333333333,4,2,43,50,0,1
52082,-83.3333333333333,4,2,1,67,0,1
53599,-62.5,4,2,1,67,0,1
53767,-62.5,4,2,1,32,0,1
53852,-55.5555555555556,4,2,1,67,0,1
54020,-55.5555555555556,4,2,1,32,0,1
54105,-50,4,2,1,67,0,1
54189,-50,4,2,1,32,0,1
54273,-83.3333333333333,4,2,1,67,0,1
55495,-83.3333333333333,4,2,43,50,0,1
55621,-83.3333333333333,4,2,1,67,0,1
55958,-50,4,2,1,67,0,1
56296,-83.3333333333333,4,2,1,67,0,1
56380,-83.3333333333333,4,2,1,40,0,1
56464,-83.3333333333333,4,2,1,67,0,1
57138,-83.3333333333333,4,2,1,40,0,1
57307,-133.333333333333,4,2,1,67,0,0
57328,-133.333333333333,4,2,28,35,0,0
57644,-133.333333333333,4,2,28,5,0,0
57812,-100,4,2,1,48,0,0
57981,-58.8235294117647,4,2,1,67,0,1
58149,-83.3333333333333,4,2,1,67,0,1
58571,-83.3333333333333,4,2,1,45,0,1
58655,-83.3333333333333,4,2,1,67,0,1
58992,-62.5,4,2,1,67,0,1
59076,-62.5,4,2,1,32,0,1
59161,-62.5,4,2,1,67,0,1
59245,-55.5555555555556,4,2,1,67,0,1
59329,-55.5555555555556,4,2,1,32,0,1
59414,-55.5555555555556,4,2,1,67,0,1
59498,-50,4,2,1,67,0,1
59582,-50,4,2,1,32,0,1
59666,-83.3333333333333,4,2,1,67,0,1
60888,-83.3333333333333,4,2,43,50,0,1
61015,-83.3333333333333,4,2,1,67,0,1
61773,-83.3333333333333,4,2,1,40,0,1
61857,-83.3333333333333,4,2,1,67,0,1
62742,-83.3333333333333,4,2,43,50,0,1
62869,-83.3333333333333,4,2,1,67,0,1
64133,-83.3333333333333,4,2,1,60,0,1
64217,-83.3333333333333,4,2,1,50,0,1
64301,-83.3333333333333,4,2,1,40,0,1
64385,-71.4285714285714,4,2,1,67,0,1
64470,-71.4285714285714,4,2,1,30,0,1
64554,-71.4285714285714,4,2,1,67,0,1
64638,-71.4285714285714,4,2,1,30,0,1
64723,-71.4285714285714,4,2,1,67,0,1
64807,-71.4285714285714,4,2,1,30,0,1
64891,-71.4285714285714,4,2,43,62,0,1
65060,-133.333333333333,4,2,43,60,0,0
69947,-133.333333333333,4,2,57,30,0,0
70032,-133.333333333333,4,2,43,30,0,0
70116,-133.333333333333,4,2,43,60,0,0
70284,-133.333333333333,4,2,57,30,0,0
70369,-133.333333333333,4,2,43,30,0,0
70453,-133.333333333333,4,2,43,60,0,0
73655,-111.111111111111,4,2,43,60,0,0
73908,-111.111111111111,4,2,99,5,0,0
73992,-111.111111111111,4,2,43,60,0,0
75509,-111.111111111111,4,3,56,50,0,0
75593,-111.111111111111,4,3,56,52,0,0
75678,-111.111111111111,4,3,56,54,0,0
75762,-111.111111111111,4,3,56,56,0,0
75846,-100,4,2,1,60,0,0
77784,-100,4,2,25,30,0,0
77869,-100,4,2,1,60,0,0
77953,-100,4,2,1,30,0,0
78037,-100,4,2,1,60,0,0
80481,-100,4,2,25,30,0,0
80565,-100,4,2,1,60,0,0
80649,-100,4,2,1,30,0,0
80734,-100,4,2,1,60,0,0
83936,-83.3333333333333,4,2,1,60,0,0
84020,-83.3333333333333,4,2,1,30,0,0
84105,-83.3333333333333,4,2,1,60,0,0
84189,-83.3333333333333,4,2,1,30,0,0
84273,-83.3333333333333,4,2,1,60,0,0
84357,-83.3333333333333,4,2,1,30,0,0
84442,-83.3333333333333,4,2,1,60,0,0
84694,-83.3333333333333,4,2,99,5,0,0
84779,-83.3333333333333,4,2,1,60,0,0
85369,-83.3333333333333,4,2,1,30,0,0
85453,-83.3333333333333,4,2,1,60,0,0
85537,-83.3333333333333,4,2,1,30,0,0
85621,-83.3333333333333,4,2,1,60,0,0
85706,-83.3333333333333,4,2,1,30,0,0
85790,-76.9230769230769,4,2,1,60,0,0
86043,-76.9230769230769,4,2,1,40,0,0
86127,-83.3333333333333,4,2,1,60,0,0
86633,-90.9090909090909,4,2,1,60,0,0
88571,-90.9090909090909,4,2,1,40,0,0
88655,-90.9090909090909,4,2,1,60,0,0
91267,-90.9090909090909,4,2,1,40,0,0
91352,-90.9090909090909,4,2,1,60,0,0
93290,-90.9090909090909,4,2,1,30,0,0
93374,-90.9090909090909,4,2,1,60,0,0
94133,-90.9090909090909,4,2,1,30,0,0
94217,-90.9090909090909,4,2,1,60,0,0
94723,-83.3333333333333,4,2,1,60,0,0
94807,-83.3333333333333,4,2,1,30,0,0
94891,-83.3333333333333,4,2,1,60,0,0
94975,-83.3333333333333,4,2,1,30,0,0
95060,-83.3333333333333,4,2,1,60,0,0
95144,-83.3333333333333,4,2,1,30,0,0
95228,-83.3333333333333,4,2,1,60,0,0
95481,-83.3333333333333,4,2,1,20,0,0
95565,-83.3333333333333,4,2,1,60,0,0
96071,-83.3333333333333,4,2,1,62,0,0
96576,-83.3333333333333,4,2,1,64,0,0
97082,-83.3333333333333,4,2,1,66,0,0
97419,-76.9230769230769,4,2,1,68,0,0
97756,-76.9230769230769,4,2,1,70,0,0
98093,-200,4,2,58,50,0,0
98178,-200,4,2,99,25,0,0
98262,-200,4,2,99,5,0,0
98767,-76.9230769230769,4,2,1,70,0,1
102223,-76.9230769230769,4,2,25,35,0,1
102307,-76.9230769230769,4,2,1,70,0,1
103402,-76.9230769230769,4,2,25,35,0,1
103486,-76.9230769230769,4,2,1,70,0,1
104161,-62.5,4,2,1,70,0,1
104414,-62.5,4,2,1,30,0,1
104498,-125,4,2,1,70,0,1
104582,-125,4,2,1,30,0,1
104666,-71.4285714285714,4,2,1,70,0,1
104919,-71.4285714285714,4,2,1,50,0,1
105003,-142.857142857143,4,2,1,70,0,1
105088,-142.857142857143,4,2,1,30,0,1
105172,-125,4,2,1,70,0,1
105256,-125,4,2,1,30,0,1
105340,-125,4,2,1,70,0,1
105425,-125,4,2,1,30,0,1
105678,-125,4,2,1,70,0,1
105762,-125,4,2,1,30,0,1
105846,-125,4,2,1,70,0,1
105930,-125,4,2,1,30,0,1
106183,-125,4,2,1,60,0,1
106352,-71.4285714285714,4,2,1,70,0,1
106520,-71.4285714285714,4,2,1,50,0,1
106689,-142.857142857143,4,2,1,70,0,1
106857,-62.5,4,2,1,70,0,1
106942,-62.5,4,2,1,30,0,1
107026,-62.5,4,2,1,70,0,1
107110,-62.5,4,2,1,30,0,1
107194,-62.5,4,2,1,55,0,1
107363,-125,4,2,1,60,0,0
107447,-142.857142857143,4,2,28,20,0,0
107784,-142.857142857143,4,2,99,5,0,0
107869,-142.857142857143,4,2,1,55,0,0
107953,-142.857142857143,4,2,28,18,0,0
108290,-142.857142857143,4,2,99,5,0,0
108374,-166.666666666667,4,2,1,50,0,0
108458,-142.857142857143,4,2,28,16,0,0
108796,-142.857142857143,4,2,99,5,0,0
108880,-120.481927710843,4,2,1,45,0,0
108964,-142.857142857143,4,2,28,14,0,0
109133,-142.857142857143,4,2,99,5,0,0
109217,-100,4,2,1,58,0,0
109554,-76.9230769230769,4,2,1,70,0,1
113009,-76.9230769230769,4,2,25,35,0,1
113093,-76.9230769230769,4,2,1,70,0,1
114189,-76.9230769230769,4,2,25,35,0,1
114273,-76.9230769230769,4,2,1,70,0,1
114947,-62.5,4,2,1,70,0,1
115200,-62.5,4,2,1,30,0,1
115284,-125,4,2,1,70,0,1
115369,-125,4,2,1,30,0,1
115453,-71.4285714285714,4,2,1,70,0,1
115706,-71.4285714285714,4,2,1,50,0,1
115790,-142.857142857143,4,2,1,70,0,1
115874,-142.857142857143,4,2,1,30,0,1
115958,-125,4,2,1,70,0,1
116043,-125,4,2,1,30,0,1
116127,-125,4,2,1,70,0,1
116211,-125,4,2,1,30,0,1
116464,-125,4,2,1,70,0,1
116548,-125,4,2,1,30,0,1
116633,-125,4,2,1,70,0,1
116717,-125,4,2,1,30,0,1
116970,-125,4,2,1,60,0,1
117138,-71.4285714285714,4,2,1,70,0,1
117307,-71.4285714285714,4,2,1,50,0,1
117475,-142.857142857143,4,2,1,70,0,1
117644,-62.5,4,2,1,70,0,1
117728,-62.5,4,2,1,30,0,1
117812,-62.5,4,2,1,70,0,1
117897,-62.5,4,2,1,30,0,1
117981,-90.9090909090909,4,2,1,55,0,1
118318,-62.5,4,2,1,70,0,1
118571,-62.5,4,2,1,30,0,1
118655,-62.5,4,2,1,70,0,1
118824,-71.4285714285714,4,2,1,70,0,1
119076,-71.4285714285714,4,2,1,30,0,1
119161,-71.4285714285714,4,2,1,70,0,1
119329,-83.3333333333333,4,2,1,60,0,1
120116,-83.3333333333333,4,2,1,30,0,1
120228,-83.3333333333333,4,2,1,60,0,1
120340,-111.111111111111,4,2,76,50,0,0
131127,-111.111111111111,4,2,1,60,0,0
131380,-111.111111111111,4,2,1,30,0,0
131464,-111.111111111111,4,2,1,60,0,0
136773,-111.111111111111,4,2,1,30,0,0
136857,-111.111111111111,4,2,1,60,0,0
141914,-125,4,2,43,50,0,0
147307,-111.111111111111,4,2,43,52,0,0
151857,-99.9999999999999,4,2,43,54,0,0
151878,-99.9999999999999,4,2,1,15,0,0
152194,-99.9999999999999,4,2,28,60,0,0
152237,-99.9999999999999,4,2,1,50,0,0
152279,-99.9999999999999,4,2,28,40,0,0
152321,-99.9999999999999,4,2,1,30,0,0
152363,-99.9999999999999,4,2,28,20,0,0
152532,-99.9999999999999,4,2,43,30,0,0
152700,-83.3333333333333,4,2,43,50,0,0
152721,-83.3333333333333,4,2,1,20,0,0
153037,-83.3333333333333,4,2,28,50,0,0
153079,-83.3333333333333,4,2,1,55,0,0
153121,-83.3333333333333,4,2,28,50,0,0
153163,-83.3333333333333,4,2,1,55,0,0
153206,-83.3333333333333,4,2,28,60,0,0
153248,-83.3333333333333,4,2,1,65,0,0
153290,-83.3333333333333,4,2,28,70,0,0
153332,-83.3333333333333,4,2,1,75,0,0
153374,-83.3333333333333,4,2,43,40,0,0
154048,-100,4,2,1,60,0,0
155987,-100,4,2,25,30,0,0
156071,-100,4,2,1,60,0,0
156155,-100,4,2,1,30,0,0
156239,-100,4,2,1,60,0,0
158683,-100,4,2,25,30,0,0
158767,-100,4,2,1,60,0,0
158852,-100,4,2,1,30,0,0
158936,-76.9230769230769,4,2,1,60,0,0
159020,-76.9230769230769,4,2,1,40,0,0
159105,-62.5,4,2,1,60,0,0
159273,-62.5,4,2,1,60,0,0
159441,-100,4,2,1,60,0,0
162138,-83.3333333333333,4,2,1,60,0,0
162223,-83.3333333333333,4,2,1,30,0,0
162307,-83.3333333333333,4,2,1,60,0,0
162391,-83.3333333333333,4,2,1,30,0,0
162475,-83.3333333333333,4,2,1,60,0,0
162560,-83.3333333333333,4,2,1,30,0,0
162644,-83.3333333333333,4,2,1,60,0,0
162897,-83.3333333333333,4,2,99,5,0,0
162981,-83.3333333333333,4,2,1,60,0,0
163571,-83.3333333333333,4,2,1,30,0,0
163655,-83.3333333333333,4,2,1,60,0,0
163739,-83.3333333333333,4,2,1,30,0,0
163824,-83.3333333333333,4,2,1,60,0,0
163908,-83.3333333333333,4,2,1,30,0,0
163992,-76.9230769230769,4,2,1,60,0,0
164245,-76.9230769230769,4,2,1,40,0,0
164329,-83.3333333333333,4,2,1,60,0,0
164835,-90.9090909090909,4,2,1,60,0,0
166773,-90.9090909090909,4,2,1,40,0,0
166857,-90.9090909090909,4,2,1,60,0,0
169469,-90.9090909090909,4,2,1,40,0,0
169554,-90.9090909090909,4,2,1,60,0,0
171492,-90.9090909090909,4,2,1,30,0,0
171576,-90.9090909090909,4,2,1,60,0,0
172335,-90.9090909090909,4,2,1,30,0,0
172419,-90.9090909090909,4,2,1,60,0,0
172925,-83.3333333333333,4,2,1,60,0,0
173009,-83.3333333333333,4,2,1,30,0,0
173093,-83.3333333333333,4,2,1,60,0,0
173177,-83.3333333333333,4,2,1,30,0,0
173262,-83.3333333333333,4,2,1,60,0,0
173346,-83.3333333333333,4,2,1,30,0,0
173430,-83.3333333333333,4,2,1,60,0,0
173683,-83.3333333333333,4,2,1,20,0,0
173767,-83.3333333333333,4,2,1,60,0,0
174273,-83.3333333333333,4,2,1,62,0,0
175621,-83.3333333333333,4,2,57,62,0,0
175958,-83.3333333333333,4,2,56,62,0,0
176296,-166.666666666667,4,2,56,60,0,0
176633,-166.666666666667,4,2,99,25,0,0
176970,-133.333333333333,4,2,43,50,0,0
178318,-133.333333333333,4,2,43,52,0,0
179666,-133.333333333333,4,2,43,54,0,0
181015,-133.333333333333,4,2,43,56,0,0
181689,-100,4,2,43,60,0,0
181773,-100,4,2,43,20,0,0
181857,-100,4,2,43,62,0,0
181942,-100,4,2,43,21,0,0
182026,-100,4,2,32,66,0,0
182110,-100,4,2,32,67,0,0
182194,-100,4,2,32,68,0,0
182279,-100,4,2,32,69,0,0
182363,-62.5,4,2,1,70,0,1
182616,-62.5,4,2,1,30,0,1
182700,-125,4,2,1,70,0,1
182784,-125,4,2,1,30,0,1
182869,-71.4285714285714,4,2,1,70,0,1
183121,-71.4285714285714,4,2,1,50,0,1
183205,-142.857142857143,4,2,1,50,0,1
183206,-142.857142857143,4,2,1,70,0,1
183290,-142.857142857143,4,2,1,30,0,1
183374,-125,4,2,1,70,0,1
183458,-125,4,2,1,30,0,1
183543,-125,4,2,1,70,0,1
183627,-125,4,2,1,30,0,1
183880,-125,4,2,1,70,0,1
183964,-125,4,2,1,30,0,1
184048,-125,4,2,1,70,0,1
184133,-125,4,2,1,30,0,1
184385,-125,4,2,1,60,0,1
184554,-71.4285714285714,4,2,1,70,0,1
184723,-71.4285714285714,4,2,1,50,0,1
184891,-142.857142857143,4,2,1,70,0,1
185060,-62.5,4,2,1,70,0,1
185144,-62.5,4,2,1,30,0,1
185228,-62.5,4,2,1,70,0,1
185312,-62.5,4,2,1,30,0,1
185397,-62.5,4,2,1,55,0,1
185565,-125,4,2,1,60,0,0
185649,-142.857142857143,4,2,28,20,0,0
185987,-142.857142857143,4,2,99,5,0,0
186071,-142.857142857143,4,2,1,55,0,0
186155,-142.857142857143,4,2,28,18,0,0
186492,-142.857142857143,4,2,99,5,0,0
186576,-166.666666666667,4,2,1,50,0,0
186661,-142.857142857143,4,2,28,16,0,0
186998,-142.857142857143,4,2,99,5,0,0
187082,-120.481927710843,4,2,1,45,0,0
187166,-142.857142857143,4,2,28,14,0,0
187335,-142.857142857143,4,2,99,5,0,0
187419,-100,4,2,1,58,0,0
187756,-76.9230769230769,4,2,1,70,0,1
191211,-76.9230769230769,4,2,25,35,0,1
191296,-76.9230769230769,4,2,1,70,0,1
192391,-76.9230769230769,4,2,25,35,0,1
192475,-76.9230769230769,4,2,1,70,0,1
193149,-62.5,4,2,1,70,0,1
193402,-62.5,4,2,1,30,0,1
193487,-125,4,2,1,70,0,1
193571,-125,4,2,1,30,0,1
193655,-71.4285714285714,4,2,1,70,0,1
193908,-71.4285714285714,4,2,1,50,0,1
193992,-142.857142857143,4,2,1,70,0,1
194076,-142.857142857143,4,2,1,30,0,1
194161,-125,4,2,1,70,0,1
194245,-125,4,2,1,30,0,1
194329,-125,4,2,1,70,0,1
194414,-125,4,2,1,30,0,1
194666,-125,4,2,1,70,0,1
194751,-125,4,2,1,30,0,1
194835,-125,4,2,1,70,0,1
194919,-125,4,2,1,30,0,1
195172,-125,4,2,1,60,0,1
195340,-71.4285714285714,4,2,1,70,0,1
195509,-71.4285714285714,4,2,1,50,0,1
195678,-142.857142857143,4,2,1,70,0,1
195846,-62.5,4,2,1,70,0,1
195930,-62.5,4,2,1,30,0,1
196015,-62.5,4,2,1,70,0,1
196099,-62.5,4,2,1,30,0,1
196183,-90.9090909090909,4,2,1,55,0,1
196520,-62.5,4,2,1,70,0,1
196773,-62.5,4,2,1,30,0,1
196857,-62.5,4,2,1,70,0,1
196942,-62.5,4,2,1,30,0,1
197026,-71.4285714285714,4,2,1,70,0,1
197279,-71.4285714285714,4,2,1,30,0,1
197363,-71.4285714285714,4,2,1,70,0,1
197447,-71.4285714285714,4,2,1,30,0,1
197532,-83.3333333333333,4,2,1,60,0,1
198318,-83.3333333333333,4,2,1,30,0,1
198430,-83.3333333333333,4,2,1,60,0,1
198543,-90.9090909090908,4,2,1,67,0,0
200649,-90.9090909090908,4,2,25,35,0,0
200734,-90.9090909090908,4,2,1,67,0,0
203515,-90.9090909090908,4,2,1,30,0,0
203599,-90.9090909090908,4,2,1,67,0,0
206043,-90.9090909090908,4,2,1,40,0,0
206127,-90.9090909090908,4,2,1,67,0,0
215481,-90.9090909090908,4,2,1,32,0,0
215565,-90.9090909090908,4,2,1,67,0,0
216829,-90.9090909090908,4,2,1,32,0,0
216914,-90.9090909090908,4,2,1,67,0,0
219273,-90.9090909090908,4,2,1,67,0,0
219357,-90.9090909090908,4,2,1,40,0,0
219442,-90.9090909090908,4,2,1,65,0,0
219526,-90.9090909090908,4,2,1,40,0,0
219610,-90.9090909090908,4,2,1,63,0,0
219694,-90.9090909090908,4,2,1,30,0,0
219779,-90.9090909090908,4,2,1,60,0,0
219863,-90.9090909090908,4,2,1,30,0,0
219947,-142.857142857143,4,2,57,50,0,0
220032,-142.857142857143,4,2,99,5,0,0
220958,-71.4285714285715,4,2,1,50,0,0
221043,-71.4285714285715,4,2,99,5,0,0
221127,-142.857142857143,4,3,56,60,0,0
221211,-142.857142857143,4,3,56,62,0,0
221296,-142.857142857143,4,3,56,64,0,0
221380,-142.857142857143,4,3,56,66,0,0
221464,-90.909090909091,4,2,1,60,0,0
223402,-90.909090909091,4,2,1,40,0,0
223487,-90.909090909091,4,2,1,60,0,0
226099,-90.909090909091,4,2,1,40,0,0
226183,-90.909090909091,4,2,1,60,0,0
228121,-90.909090909091,4,2,1,30,0,0
228206,-90.909090909091,4,2,1,60,0,0
228964,-90.9090909090909,4,2,1,30,0,0
229048,-90.9090909090909,4,2,1,60,0,0
229554,-83.3333333333333,4,2,1,60,0,0
229638,-83.3333333333333,4,2,1,30,0,0
229723,-83.3333333333333,4,2,1,60,0,0
229807,-83.3333333333333,4,2,1,30,0,0
229891,-83.3333333333333,4,2,1,60,0,0
229975,-83.3333333333333,4,2,1,30,0,0
230060,-83.3333333333333,4,2,1,60,0,0
230312,-83.3333333333333,4,2,1,20,0,0
230397,-83.3333333333333,4,2,1,60,0,0
230902,-83.3333333333333,4,2,1,62,0,0
231408,-83.3333333333333,4,2,1,64,0,0
231914,-83.3333333333333,4,2,1,66,0,0
232251,-76.9230769230769,4,3,57,68,0,0
232335,-76.9230769230769,4,3,57,34,0,0
232419,-76.9230769230769,4,3,57,68,0,0
232503,-76.9230769230769,4,3,57,34,0,0
232588,-100,4,3,57,64,0,0
232672,-100,4,3,57,32,0,0
232756,-100,4,3,57,60,0,0
232840,-100,4,3,57,32,0,0
232925,-142.857142857143,4,3,57,56,0,0
233009,-142.857142857143,4,3,57,28,0,0
233093,-285.714285714286,4,2,43,52,0,0
233262,-200,4,2,99,20,0,0
233599,-200,4,3,76,55,0,0
236296,-200,4,2,83,45,0,0
236633,-200,4,2,83,14,0,0
236801,-200,4,2,81,35,0,0
238992,-200,4,2,83,45,0,0
239329,-200,4,2,83,14,0,0
239498,-200,4,2,82,38,0,0
242194,-200,4,2,81,40,0,0
242700,-200,4,2,82,41,0,0
243206,-200,4,2,81,42,0,0
244048,-66.6666666666667,4,2,58,40,0,0
244090,-66.6666666666667,4,2,1,45,0,0
244133,-66.6666666666667,4,2,43,50,0,0
244175,-66.6666666666667,4,2,1,55,0,0
244217,-66.6666666666667,4,2,56,50,0,0
244385,-66.6666666666667,4,2,56,60,0,0
247082,-166.666666666667,4,2,83,50,0,0
247419,-166.666666666667,4,2,83,16,0,0
247588,-166.666666666667,4,2,81,45,0,0
249779,-166.666666666667,4,2,83,50,0,0
250116,-166.666666666667,4,2,83,16,0,0
250284,-166.666666666667,4,2,82,47,0,0
250453,-166.666666666667,4,2,1,5,0,0
251127,-166.666666666667,4,2,1,10,0,0
251801,-166.666666666667,4,2,1,20,0,0
252475,-166.666666666667,4,2,1,30,0,0
253149,-166.666666666667,4,2,1,40,0,0
253824,-166.666666666667,4,2,1,50,0,0
254498,-166.666666666667,4,2,1,60,0,0
254666,-166.666666666667,4,2,1,65,0,0
254835,-166.666666666667,4,2,1,70,0,0
255003,-166.666666666667,4,2,99,5,0,0
255172,-142.857142857143,4,2,43,50,0,0
265621,-142.857142857143,4,2,57,50,0,0
265790,-142.857142857143,4,2,43,50,0,0
265958,-125,4,2,43,55,0,0
266296,-125,4,2,57,55,0,0
266464,-125,4,2,43,55,0,0
266970,-125,4,2,57,55,0,0
267138,-125,4,2,43,55,0,0
267644,-125,4,2,57,55,0,0
267812,-125,4,2,43,55,0,0
268318,-125,4,2,57,55,0,0
268487,-125,4,2,43,55,0,0
268992,-125,4,2,57,55,0,0
269161,-125,4,2,43,55,0,0
269666,-125,4,2,57,55,0,0
269835,-125,4,2,43,55,0,0
270340,-125,4,2,57,55,0,0
270508,-125,4,2,43,55,0,0
271015,-125,4,2,57,55,0,0
271183,-125,4,2,43,55,0,0
271689,-125,4,2,57,55,0,0
271857,-125,4,2,43,55,0,0
272363,-125,4,2,57,55,0,0
272531,-125,4,2,43,55,0,0
273037,-125,4,2,57,55,0,0
273206,-125,4,2,43,55,0,0
273711,-125,4,2,57,55,0,0
273880,-125,4,2,43,55,0,0
274385,-125,4,2,57,55,0,0
274553,-125,4,2,43,55,0,0
275060,-125,4,2,57,55,0,0
275228,-125,4,2,43,55,0,0
275734,-125,4,2,57,55,0,0
275902,-125,4,2,43,55,0,0
276408,-125,4,2,57,55,0,0
276492,-125,4,2,43,55,0,0
276745,-111.111111111111,4,2,43,60,0,0
277082,-111.111111111111,4,2,57,60,0,0
277251,-111.111111111111,4,2,43,60,0,0
277756,-111.111111111111,4,2,57,60,0,0
277925,-111.111111111111,4,2,43,60,0,0
278430,-111.111111111111,4,2,57,60,0,0
278599,-111.111111111111,4,2,43,60,0,0
279105,-111.111111111111,4,2,57,60,0,0
279274,-111.111111111111,4,2,43,60,0,0
279779,-111.111111111111,4,2,57,60,0,0
279947,-111.111111111111,4,2,43,60,0,0
280453,-111.111111111111,4,2,57,60,0,0
280621,-111.111111111111,4,2,43,60,0,0
281127,-111.111111111111,4,2,57,60,0,0
281296,-111.111111111111,4,2,43,60,0,0
281801,-111.111111111111,4,2,57,60,0,0
281970,-111.111111111111,4,2,43,60,0,0
282138,-99.9999999999999,4,2,43,62,0,0
282475,-99.9999999999999,4,2,57,62,0,0
282644,-99.9999999999999,4,2,43,62,0,0
283149,-99.9999999999999,4,2,57,62,0,0
283318,-99.9999999999999,4,2,43,62,0,0
283824,-99.9999999999999,4,2,57,62,0,0
283993,-99.9999999999999,4,2,43,62,0,0
284498,-99.9999999999999,4,2,57,62,0,0
284667,-99.9999999999999,4,2,43,62,0,0
285172,-99.9999999999999,4,2,57,62,0,0
285340,-99.9999999999999,4,2,43,62,0,0
285846,-99.9999999999999,4,2,57,62,0,0
286015,-99.9999999999999,4,2,43,62,0,0
286520,-99.9999999999999,4,2,57,62,0,0
286689,-99.9999999999999,4,2,43,62,0,0
287194,-99.9999999999999,4,2,57,62,0,0
287363,-90.9090909090909,4,2,43,62,0,0
287532,-90.9090909090909,4,2,57,63,0,0
290228,-83.3333333333333,4,2,57,64,0,0
292925,-76.9230769230769,4,2,57,65,0,0
294273,-76.9230769230769,4,2,57,66,0,0
295621,-76.9230769230769,4,2,57,68,0,0
295706,-76.9230769230769,4,2,57,34,0,0
295790,-76.9230769230769,4,2,57,68,0,0
295874,-76.9230769230769,4,2,57,34,0,0
295958,-71.4285714285714,4,2,57,68,0,0
296043,-71.4285714285714,4,2,57,34,0,0
296127,-71.4285714285714,4,2,57,68,0,0
296211,-71.4285714285714,4,2,57,34,0,0
296296,-66.6666666666667,4,2,57,68,0,0
296380,-66.6666666666667,4,2,57,34,0,0
296464,-66.6666666666667,4,2,57,68,0,0
296548,-66.6666666666667,4,2,57,34,0,0
296633,-62.5,4,2,57,68,0,0
296717,-62.5,4,2,57,34,0,0
296801,-62.5,4,2,57,68,0,0
296885,-62.5,4,2,57,34,0,0
296970,-76.9230769230769,4,2,57,70,0,0
297307,-76.9230769230769,4,2,57,71,0,0
297644,-76.9230769230769,4,2,57,72,0,0
297981,-76.9230769230769,4,2,57,73,0,0
298318,-66.6666666666667,4,2,57,65,0,0
298571,-66.6666666666667,4,2,99,5,0,0
298655,-100,4,2,57,52,0,0
298739,-100,4,2,99,5,0,0
298824,-100,4,2,57,54,0,0
298908,-100,4,2,99,5,0,0
298992,-100,4,2,57,56,0,0
299076,-100,4,2,99,5,0,0
299161,-100,4,2,57,60,0,0
299245,-100,4,2,99,5,0,0
299329,-117.647058823529,4,2,58,50,0,0
299350,-117.647058823529,4,2,1,65,0,0
299582,-100,4,2,99,5,0,0
299666,-71.4285714285714,4,2,1,70,0,1
303121,-71.4285714285714,4,2,25,35,0,1
303206,-71.4285714285714,4,2,1,70,0,1
304301,-71.4285714285714,4,2,25,35,0,1
304385,-71.4285714285714,4,2,1,70,0,1
305060,-58.8235294117647,4,2,1,70,0,1
305312,-58.8235294117647,4,2,1,30,0,1
305397,-125,4,2,1,70,0,1
305481,-125,4,2,1,30,0,1
305565,-66.6666666666667,4,2,1,70,0,1
305818,-66.6666666666667,4,2,1,50,0,1
305902,-142.857142857143,4,2,1,70,0,1
305987,-142.857142857143,4,2,1,30,0,1
306071,-125,4,2,1,70,0,1
306155,-125,4,2,1,30,0,1
306239,-125,4,2,1,70,0,1
306324,-125,4,2,1,30,0,1
306408,-125,4,2,1,70,0,1
306576,-125,4,2,1,70,0,1
306661,-125,4,2,1,30,0,1
306745,-125,4,2,1,70,0,1
306829,-125,4,2,1,30,0,1
307082,-125,4,2,1,60,0,1
307251,-66.6666666666667,4,2,1,70,0,1
307419,-66.6666666666667,4,2,1,50,0,1
307588,-142.857142857143,4,2,1,70,0,1
307756,-58.8235294117647,4,2,1,70,0,1
307840,-58.8235294117647,4,2,1,30,0,1
307925,-58.8235294117647,4,2,1,70,0,1
308009,-58.8235294117647,4,2,1,30,0,1
308093,-58.8235294117647,4,2,1,55,0,1
308262,-125,4,2,1,60,0,0
308346,-142.857142857143,4,2,28,20,0,0
308683,-142.857142857143,4,2,99,5,0,0
308767,-142.857142857143,4,2,1,55,0,0
308852,-142.857142857143,4,2,28,18,0,0
309189,-142.857142857143,4,2,99,5,0,0
309273,-166.666666666667,4,2,1,50,0,0
309357,-142.857142857143,4,2,28,16,0,0
309694,-142.857142857143,4,2,99,5,0,0
309779,-120.481927710843,4,2,1,45,0,0
309863,-142.857142857143,4,2,28,14,0,0
310032,-142.857142857143,4,2,99,5,0,0
310116,-100,4,2,1,58,0,0
310453,-71.4285714285714,4,2,1,70,0,1
313908,-71.4285714285714,4,2,25,35,0,1
313992,-71.4285714285714,4,2,1,70,0,1
315088,-71.4285714285714,4,2,25,35,0,1
315172,-71.4285714285714,4,2,1,70,0,1
315846,-58.8235294117647,4,2,1,70,0,1
316099,-58.8235294117647,4,2,1,30,0,1
316183,-125,4,2,1,70,0,1
316267,-125,4,2,1,30,0,1
316352,-66.6666666666667,4,2,1,70,0,1
316605,-66.6666666666667,4,2,1,50,0,1
316689,-142.857142857143,4,2,1,70,0,1
316773,-142.857142857143,4,2,1,30,0,1
316857,-125,4,2,1,70,0,1
316942,-125,4,2,1,30,0,1
317026,-125,4,2,1,70,0,1
317110,-125,4,2,1,30,0,1
317194,-125,4,2,1,70,0,1
317363,-125,4,2,1,70,0,1
317447,-125,4,2,1,30,0,1
317532,-125,4,2,1,70,0,1
317616,-125,4,2,1,30,0,1
317869,-125,4,2,1,60,0,1
318037,-66.6666666666667,4,2,1,70,0,1
318206,-66.6666666666667,4,2,1,50,0,1
318374,-142.857142857143,4,2,1,70,0,1
318543,-58.8235294117647,4,2,1,70,0,1
318627,-58.8235294117647,4,2,1,30,0,1
318711,-58.8235294117647,4,2,1,70,0,1
318796,-58.8235294117647,4,2,1,30,0,1
318880,-90.9090909090909,4,2,1,55,0,1
319217,-62.5,4,2,1,70,0,1
319470,-62.5,4,2,1,30,0,1
319554,-62.5,4,2,1,70,0,1
319638,-62.5,4,2,1,30,0,1
319723,-66.6666666666667,4,2,1,70,0,1
319975,-66.6666666666667,4,2,1,30,0,1
320060,-66.6666666666667,4,2,1,70,0,1
320144,-66.6666666666667,4,2,1,30,0,1
320228,-83.3333333333333,4,2,1,60,0,1
321015,-83.3333333333333,4,2,1,30,0,1
321127,-83.3333333333333,4,2,1,60,0,1
321239,-90.9090909090909,4,2,1,62,0,0
321998,-90.9090909090909,4,2,25,46,0,0
322082,-90.9090909090909,4,2,1,62,0,0
323346,-90.9090909090909,4,2,25,46,0,0
323430,-90.9090909090909,4,2,1,62,0,0
324694,-90.9090909090909,4,2,25,46,0,0
324779,-90.9090909090909,4,2,1,62,0,0
326548,-90.9090909090909,4,2,1,31,0,0
326633,-90.9090909090909,4,2,1,62,0,0
328739,-90.9090909090909,4,2,25,46,0,0
328824,-90.9090909090909,4,2,1,62,0,0
330088,-90.9090909090909,4,2,25,46,0,0
330172,-90.9090909090909,4,2,1,62,0,0
331942,-90.9090909090909,4,2,1,31,0,0
332026,-90.9090909090909,4,2,1,62,0,0
332784,-90.9090909090909,4,2,25,46,0,0
332869,-90.9090909090909,4,2,1,62,0,0
334133,-90.9090909090909,4,2,25,46,0,0
334218,-90.9090909090909,4,2,1,62,0,0
335481,-90.9090909090909,4,2,25,46,0,0
335566,-90.9090909090909,4,2,1,62,0,0
336661,-90.9090909090909,4,2,25,46,0,0
336746,-90.9090909090909,4,2,1,62,0,0
337335,-90.9090909090909,4,2,1,40,0,0
337419,-90.9090909090909,4,2,1,62,0,0
339526,-90.9090909090909,4,2,25,46,0,0
339610,-90.9090909090909,4,2,1,62,0,0
340032,-90.9090909090909,4,2,1,40,0,0
340116,-90.9090909090909,4,2,1,62,0,0
340874,-90.9090909090909,4,2,25,46,0,0
340958,-90.9090909090909,4,2,1,62,0,0
342054,-90.9090909090909,4,2,25,46,0,0
342139,-90.9090909090909,4,2,1,62,0,0
342812,-100,4,2,1,57,0,0
343571,-100,4,2,25,44,0,0
343655,-100,4,2,1,57,0,0
344919,-100,4,2,25,44,0,0
345003,-100,4,2,1,57,0,0
346267,-100,4,2,25,44,0,0
346351,-100,4,2,1,57,0,0
348964,-100,4,2,25,44,0,0
349048,-100,4,2,1,57,0,0
350312,-100,4,2,25,44,0,0
350397,-100,4,2,1,57,0,0
351661,-100,4,2,25,44,0,0
351745,-100,4,2,1,57,0,0
353599,-100,4,2,1,55,0,0
354357,-100,4,2,25,42,0,0
354441,-100,4,2,1,55,0,0
355706,-100,4,2,25,42,0,0
355790,-100,4,2,1,55,0,0
357054,-100,4,2,25,42,0,0
357138,-100,4,2,1,55,0,0
358992,-111.111111111111,4,2,1,50,0,0
359751,-111.111111111111,4,2,25,38,0,0
359835,-111.111111111111,4,2,1,50,0,0
361099,-111.111111111111,4,2,25,38,0,0
361183,-111.111111111111,4,2,1,50,0,0
362447,-111.111111111111,4,2,25,38,0,0
362532,-111.111111111111,4,2,1,50,0,0
363037,-111.111111111111,4,2,1,46,0,0
364048,-111.111111111111,4,2,1,40,0,0
364217,-111.111111111111,4,2,1,35,0,0
364385,-111.111111111111,4,2,43,32,0,0
367082,-111.111111111111,4,2,43,30,0,0
369779,-111.111111111111,4,2,43,25,0,0
372475,-111.111111111111,4,2,43,20,0,0
375172,-111.111111111111,4,2,43,15,0,0
376520,-111.111111111111,4,2,43,12,0,0
377869,-111.111111111111,4,2,43,10,0,0
379217,-111.111111111111,4,2,43,8,0,0
379554,-111.111111111111,4,2,43,6,0,0
379891,-111.111111111111,4,2,43,5,0,0
380228,-111.111111111111,4,2,43,5,0,0

[Colours]
Combo1 : 255,100,100
Combo2 : 90,200,240
Combo3 : 140,140,140
Combo4 : 60,210,220
Combo5 : 255,160,80
Combo6 : 50,150,220
Combo7 : 220,220,220
Combo8 : 140,160,250

[HitObjects]
71,51,341,21,2,0:1:0:0:
75,69,678,53,2,0:2:0:0:
181,119,846,1,2,0:2:0:0:
79,87,1183,53,2,0:2:0:0:
177,101,1352,1,2,0:2:0:0:
83,105,1689,53,2,0:2:0:0:
173,83,1857,1,2,0:2:0:0:
87,123,2194,53,2,0:2:0:0:
169,65,2363,1,2,0:2:0:0:
87,123,2532,1,2,0:2:0:0:
169,65,2700,1,2,0:2:0:0:
71,333,3037,53,2,0:1:0:0:
75,315,3374,53,2,0:2:0:0:
181,265,3543,1,2,0:2:0:0:
79,297,3880,53,2,0:2:0:0:
177,283,4048,1,2,0:2:0:0:
83,279,4385,53,2,0:2:0:0:
173,301,4554,1,2,0:2:0:0:
87,261,4891,53,2,0:2:0:0:
169,319,5060,1,2,0:2:0:0:
165,337,5397,53,2,0:2:0:0:
441,333,5734,53,2,0:1:0:0:
437,315,6071,53,2,0:2:0:0:
331,265,6239,1,2,0:2:0:0:
433,297,6576,53,2,0:2:0:0:
335,283,6745,1,2,0:2:0:0:
429,279,7082,53,2,0:2:0:0:
339,301,7251,1,2,0:2:0:0:
425,261,7588,53,2,0:2:0:0:
343,319,7756,1,2,0:2:0:0:
425,261,7925,1,2,0:2:0:0:
343,319,8093,1,2,0:2:0:0:
441,51,8430,53,2,0:1:0:0:
437,69,8767,53,2,0:2:0:0:
331,119,8936,1,2,0:2:0:0:
433,87,9273,53,2,0:2:0:0:
335,101,9442,1,2,0:2:0:0:
429,105,9779,53,2,0:2:0:0:
339,83,9947,1,2,0:2:0:0:
425,123,10284,53,2,0:2:0:0:
343,65,10453,1,2,0:2:0:0:
347,47,10790,53,2,0:2:0:0:
347,337,11127,53,2,0:1:0:0:
343,319,11464,53,2,0:2:0:0:
437,315,11633,1,2,0:2:0:0:
433,297,11970,53,2,0:2:0:0:
339,301,12138,1,2,0:2:0:0:
335,283,12475,53,2,0:2:0:0:
429,279,12644,1,2,0:2:0:0:
425,261,12981,53,2,0:2:0:0:
331,265,13149,1,2,0:2:0:0:
425,261,13318,1,2,0:2:0:0:
331,265,13487,1,2,0:2:0:0:
165,337,13824,53,2,0:1:0:0:
169,319,14161,53,2,0:2:0:0:
75,315,14329,1,2,0:2:0:0:
79,297,14666,53,2,0:2:0:0:
173,301,14835,1,2,0:2:0:0:
177,283,15172,53,2,0:2:0:0:
83,279,15340,1,2,0:2:0:0:
87,261,15678,53,2,0:2:0:0:
181,265,15846,1,2,0:2:0:0:
185,247,16183,53,2,0:2:0:0:
165,47,16520,53,2,0:1:0:0:
169,65,16857,53,2,0:2:0:0:
75,69,17026,1,2,0:2:0:0:
79,87,17363,53,2,0:2:0:0:
173,83,17532,1,2,0:2:0:0:
177,101,17869,53,2,0:2:0:0:
83,105,18037,1,2,0:2:0:0:
87,123,18374,53,2,0:2:0:0:
181,119,18543,1,2,0:2:0:0:
87,123,18711,1,2,0:2:0:0:
181,119,18880,1,2,0:2:0:0:
347,47,19217,53,2,0:1:0:0:
343,65,19554,53,2,0:2:0:0:
437,69,19723,1,2,0:2:0:0:
433,87,20060,53,2,0:2:0:0:
339,83,20228,1,2,0:2:0:0:
335,101,20565,53,2,0:2:0:0:
429,105,20734,1,2,0:2:0:0:
425,123,21071,53,2,0:2:0:0:
331,119,21239,1,2,0:2:0:0:
327,138,21576,22,0,L|323:182,1,36,2|0,0:1|0:0,0:0:0:0:
318,191,21914,22,0,P|278:166|231:167,2,96,2|0|0,0:1|0:0|0:0,0:0:0:0:
399,344,22925,54,0,L|404:281,1,48,2|0,0:1|0:0,0:0:0:0:
452,225,23262,1,2,0:0:0:0:
452,225,23430,2,0,L|457:162,1,48,2|0,0:0|0:0,0:0:0:0:
512,77,23767,53,2,0:2:0:0:
444,22,23936,1,2,0:0:0:0:
370,69,24105,1,2,0:0:0:0:
256,32,24273,86,0,L|215:26,1,36,2|0,0:1|0:0,0:0:0:0:
203,34,24610,22,0,B|173:31|173:31|139:44|139:44|109:41,2,96,2|0|0,0:1|0:0|0:0,0:0:0:0:
172,204,25621,54,0,L|167:141,1,48,2|0,0:1|0:0,0:0:0:0:
113,88,25958,1,2,0:1:0:0:
113,88,26127,2,0,L|108:25,1,48,2|0,0:0|0:0,0:0:0:0:
26,15,26464,1,2,0:0:0:0:
1,143,26633,53,2,0:1:0:0:
21,29,26801,1,2,0:0:0:0:
110,103,26970,1,2,0:0:0:0:
80,249,27138,86,2,P|82:231|88:215,1,36.0000013732911,2|2,0:1|0:0,0:1:0:0:
165,276,27307,2,0,P|99:280|88:216,1,144.000005493164,2|2,0:1|0:0,0:0:0:0:
181,170,27812,21,2,0:1:0:0:
181,170,27981,2,0,L|247:164,1,57.5999982421876,2|0,0:0|0:0,0:0:0:0:
176,80,28318,53,2,0:1:0:0:
238,164,28487,2,0,L|295:158,1,57.5999982421876,2|0,0:0|0:0,0:0:0:0:
270,258,28824,53,2,0:1:0:0:
295,158,28992,2,0,L|352:152,2,57.5999982421876,2|0|0,0:0|0:0|0:0,0:0:0:0:
457,217,29498,86,2,B|454:207|459:194|459:194|450:185|450:185|464:151|451:118,1,105.600003222656,2|0,0:1|0:0,0:1:0:0:
295,158,29835,21,2,0:1:0:0:
295,158,30003,2,0,L|238:152,2,57.5999982421876,2|0|0,0:1|0:0|0:0,0:0:0:0:
457,217,30509,6,0,P|396:216|360:255,1,115.199996484375,2|0,0:1|0:0,0:0:0:0:
263,315,31015,70,2,B|231:321|202:298|202:298|164:288|129:312|129:312|92:318|69:304|69:304|95:297|114:306,1,240,2|0,0:0|0:0,0:1:0:0:
105,303,31520,38,0,L|96:227,1,57.5999982421876,2|0,0:1|0:0,0:0:0:0:
37,88,31857,37,2,0:1:0:0:
113,149,32026,1,2,0:1:0:0:
22,184,32194,1,2,0:1:0:0:
127,52,32363,22,2,L|132:9,1,36,0|0,0:0|0:0,0:1:0:0:
213,18,32700,37,2,3:2:0:0:
258,124,32869,1,2,0:0:0:0:
328,33,33037,1,2,0:1:0:0:
203,50,33206,53,2,0:2:0:0:
280,149,33374,1,2,0:2:0:0:
328,33,33543,1,2,0:1:0:0:
201,87,33711,53,2,0:0:0:0:
309,169,33880,1,2,0:0:0:0:
328,33,34048,1,2,0:1:0:0:
210,128,34217,53,2,0:0:0:0:
347,184,34385,1,2,0:0:0:0:
328,33,34554,1,2,0:1:0:0:
231,169,34723,53,2,0:0:0:0:
391,188,34891,1,2,0:0:0:0:
328,33,35060,2,0,L|312:119,1,72.0000027465821,2|0,0:1|0:0,0:0:0:0:
185,280,35397,53,2,0:0:0:0:
231,169,35565,1,2,0:0:0:0:
304,264,35734,1,2,0:1:0:0:
166,291,35902,53,2,0:0:0:0:
183,159,36071,1,2,0:0:0:0:
287,240,36239,1,2,0:1:0:0:
151,307,36408,53,2,0:0:0:0:
132,162,36576,1,2,0:0:0:0:
265,219,36745,1,2,0:1:0:0:
144,327,36914,53,2,0:0:0:0:
82,177,37082,1,2,0:0:0:0:
239,200,37251,1,2,0:1:0:0:
87,267,37419,21,2,0:0:0:0:
190,130,37588,1,2,0:0:0:0:
242,318,37756,53,2,0:1:0:0:
190,130,37925,1,2,0:0:0:0:
16,341,38093,22,0,L|11:245,2,81.6000015563965,2|0|0,3:1|0:0|0:0,0:0:0:0:
111,129,38599,54,0,L|115:37,2,81.6000015563965,2|0|0,0:2|0:0|0:0,0:0:0:0:
302,24,39105,53,2,0:2:0:0:
401,129,39273,2,0,L|397:37,1,81.6000015563965,2|0,0:1|0:0,0:0:0:0:
346,237,39610,53,2,0:2:0:0:
496,341,39779,2,0,L|501:245,2,81.6000015563965,2|0|0,3:1|0:0|0:0,0:0:0:0:
256,172,40284,54,0,L|256:80,2,81.6000015563965
8,179,40790,53,2,0:0:0:0:
111,129,40958,2,0,L|115:37,1,81.6000015563965,2|0,0:1|0:0,0:0:0:0:
142,349,41296,53,2,3:2:0:0:
12,260,41464,2,0,L|7:164,1,81.6000015563965,2|0,3:1|0:0,0:0:0:0:
196,239,41801,53,2,3:2:0:0:
111,129,41970,1,2,0:0:0:0:
12,260,42138,101,0,3:0:0:0:
111,129,42307,1,2,3:0:0:0:
138,126,42391,1,0,3:0:0:0:
165,124,42475,1,0,3:0:0:0:
192,121,42560,1,0,3:0:0:0:
219,119,42644,1,0,3:0:0:0:
246,117,42728,1,0,3:0:0:0:
273,114,42812,85,0,3:0:0:0:
301,150,42897,1,0,3:0:0:0:
366,121,42981,1,0,3:0:0:0:
417,177,43065,1,0,3:0:0:0:
485,127,43149,86,2,B|489:119|488:114|488:114|494:107|494:107|488:85|496:56,1,72,2|0,0:2|0:0,0:1:0:0:
413,52,43487,6,0,B|374:39|374:39|337:45|337:45|293:35,1,115.199996484375,6|0,3:1|0:0,0:0:0:0:
221,31,43739,1,0,0:0:0:0:
200,20,43824,1,8,0:0:0:0:
26,110,43992,22,0,B|61:118|61:118|98:112|98:112|137:125,1,115.199996484375,2|0,3:1|0:0,0:0:0:0:
185,190,44245,1,8,0:3:0:0:
197,209,44329,22,0,L|195:281,1,57.5999982421876,2|0,3:1|0:0,0:0:0:0:
11,339,44498,2,0,L|13:267,1,57.5999982421876,10|0,0:1|0:0,0:0:0:0:
26,110,44666,2,0,L|27:74,2,28.7999991210938,2|2|2,0:0|0:0|0:0,0:0:0:0:
107,298,44835,22,0,L|109:226,1,57.5999982421876,2|0,3:1|0:0,0:0:0:0:
215,55,45003,2,0,L|213:112,1,57.5999982421876,2|0,0:1|0:0,0:0:0:0:
299,223,45172,21,8,3:2:0:0:
350,245,45256,1,0,3:0:0:0:
403,228,45340,1,0,3:0:0:0:
456,210,45425,1,0,3:0:0:0:
507,233,45509,22,0,L|508:290,1,57.5999982421876,2|8,3:1|0:3,0:0:0:0:
353,167,45678,2,0,L|351:109,1,57.5999982421876,2|0,3:2|0:0,0:0:0:0:
287,330,45846,22,0,P|263:342|226:346,1,57.5999982421876,10|0,0:0|0:0,0:0:0:0:
184,157,46015,2,0,P|208:145|245:141,1,57.5999982421876,2|0,0:0|0:0,0:0:0:0:
105,338,46183,22,0,B|80:287|80:287|95:229,1,115.199996484375,2|0,3:1|0:0,0:0:0:0:
97,150,46436,1,0,0:0:0:0:
83,132,46520,2,0,L|43:127,2,28.7999991210938,10|2|2,0:0|0:0|0:0,0:0:0:0:
238,243,46689,22,0,B|277:250|277:250|312:237|312:237|349:242,1,115.199996484375,2|0,3:1|3:0,0:0:0:0:
422,304,46942,1,8,0:3:0:0:
432,287,47026,22,0,B|440:260|440:260|439:230,1,57.5999982421876,2|0,3:1|0:0,0:0:0:0:
275,110,47194,2,0,B|267:137|267:137|268:167,1,57.5999982421876,10|0,0:1|0:0,0:0:0:0:
460,153,47363,2,0,B|423:148|423:148|388:161|388:161|349:154,1,115.199996484375,2|0,0:1|3:0,0:0:0:0:
314,377,47700,22,0,B|322:350|322:350|322:320,1,57.5999982421876,2|0,0:1|3:3,0:0:0:0:
238,243,47869,1,2,3:2:0:0:
203,241,47953,1,0,3:0:0:0:
168,239,48037,1,0,3:0:0:0:
133,237,48121,1,0,3:0:0:0:
98,235,48206,70,0,B|76:210|82:173|82:173|107:131|92:85,1,153.6,10|0,0:1|0:0,0:0:0:0:
18,46,48458,54,0,B|93:89|93:89|162:38,1,172.799994726563,10|0,3:1|0:0,0:0:0:0:
258,31,48711,54,0,L|158:38,1,96,10|0,3:1|0:0,0:0:0:0:
10,338,48880,6,0,B|50:322|50:322|133:328,1,115.199996484375,6|0,3:1|0:0,0:0:0:0:
195,353,49133,1,0,0:0:0:0:
216,360,49217,1,8,0:0:0:0:
415,361,49385,22,0,B|423:232,1,115.199996484375,2|0,3:1|0:0,0:0:0:0:
395,173,49638,1,8,0:3:0:0:
375,183,49723,22,0,P|342:181|318:172,1,57.5999982421876,2|0,3:1|0:0,0:0:0:0:
396,12,49891,2,0,P|429:14|453:23,1,57.5999982421876,10|0,0:1|0:0,0:0:0:0:
490,163,50060,2,0,L|490:191,2,28.7999991210938,0|2|2,0:0|0:0|0:0,0:0:0:0:
299,67,50228,22,0,P|271:57|243:56,1,57.5999982421876,2|0,3:1|0:0,0:0:0:0:
272,272,50397,2,0,P|299:281|327:282,1,57.5999982421876,2|0,0:1|0:0,0:0:0:0:
490,163,50565,21,8,3:2:0:0:
456,118,50649,1,0,3:0:0:0:
401,103,50734,1,0,3:0:0:0:
349,124,50818,1,0,3:0:0:0:
319,172,50902,22,0,L|256:164,1,57.5999982421876,2|8,3:1|0:3,0:0:0:0:
396,12,51071,2,0,L|459:20,1,57.5999982421876,2|0,3:2|0:0,0:0:0:0:
327,281,51239,22,0,P|299:281|272:272,1,57.5999982421876,10|0,0:2|0:0,0:0:0:0:
243,55,51408,2,0,P|272:57|299:67,1,57.5999982421876,2|0,0:0|0:0,0:0:0:0:
432,297,51576,22,0,B|378:266|378:266|327:281,1,115.199996484375,2|0,3:1|0:0,0:0:0:0:
248,347,51829,1,0,0:0:0:0:
228,358,51914,2,0,L|188:348,2,28.7999991210938,10|2|2,0:0|0:0|0:0,0:0:0:0:
432,297,52082,22,0,B|436:257|436:257|424:223|424:223|429:183,1,115.199996484375,2|0,3:1|3:0,0:0:0:0:
476,89,52335,1,8,0:3:0:0:
484,110,52419,22,0,P|451:110|424:101,1,57.5999982421876,2|0,3:1|0:0,0:0:0:0:
243,55,52588,2,0,P|276:55|303:64,1,57.5999982421876,10|0,0:1|0:0,0:0:0:0:
261,247,52756,2,0,B|256:207|256:207|268:173|268:173|263:133,1,115.199996484375,2|0,0:1|3:0,0:0:0:0:
281,326,53093,22,0,P|248:326|221:317,1,57.5999982421876,2|0,0:1|3:3,0:0:0:0:
126,254,53262,1,2,3:2:0:0:
128,219,53346,1,0,3:0:0:0:
130,184,53430,1,0,3:0:0:0:
132,149,53515,1,0,3:0:0:0:
134,114,53599,38,0,B|102:13|102:13|81:56,1,153.6,10|0,0:1|0:0,0:0:0:0:
42,172,53852,54,0,B|169:131|169:131|115:105,1,172.799994726563,10|0,3:1|0:0,0:0:0:0:
42,172,54105,54,0,L|32:278,1,96,10|0,3:1|0:0,0:0:0:0:
229,335,54273,6,0,B|280:316|280:316|343:331,1,115.199996484375,6|0,3:1|0:0,0:0:0:0:
413,362,54526,1,0,0:0:0:0:
434,368,54610,1,8,0:0:0:0:
509,175,54779,22,0,B|490:124|490:124|505:61,1,115.199996484375,2|0,3:1|0:0,0:0:0:0:
441,18,55032,1,8,0:3:0:0:
421,29,55116,22,0,L|360:20,1,57.5999982421876,2|0,3:1|0:0,0:0:0:0:
270,105,55284,2,0,L|213:96,1,57.5999982421876,10|0,0:1|0:0,0:0:0:0:
119,181,55453,2,0,L|80:175,2,28.7999991210938,2|2|2,0:0|0:0|0:0,0:0:0:0:
353,151,55621,22,0,P|361:123|362:94,1,57.5999982421876,2|0,3:1|0:0,0:0:0:0:
119,181,55790,2,0,P|111:208|110:237,1,57.5999982421876,2|0,0:1|0:0,0:0:0:0:
409,238,55958,6,2,B|432:228|456:235|456:235|425:212|377:215|393:230|349:239|318:221,1,192,8|0,3:2|3:0,1:2:0:0:
434,368,56296,38,0,L|435:311,1,57.5999982421876,2|8,3:1|0:3,0:0:0:0:
493,159,56464,2,0,L|494:102,1,57.5999982421876,2|0,3:2|0:0,0:0:0:0:
320,311,56633,22,0,P|292:307|266:294,1,57.5999982421876,10|0,0:0|0:0,0:0:0:0:
308,78,56801,2,0,P|336:81|362:94,1,57.5999982421876,2|0,0:0|0:0,0:0:0:0:
206,344,56970,22,0,P|187:290|210:239,1,115.199996484375,2|8,3:1|0:3,0:0:0:0:
308,78,57307,102,2,B|254:61|205:92|166:61|166:61|205:41|241:69,1,216.000008239746,2|2,3:1|3:1,1:1:0:0:
326,229,57981,38,0,B|320:322,1,81.6000015563965,14|0,0:1|0:0,0:0:0:0:
206,344,58149,2,0,B|169:339|169:339|134:352|134:352|95:345,1,115.199996484375,2|0,0:1|3:3,0:0:0:0:
106,124,58487,22,0,B|109:181,1,57.5999982421876,10|0,0:1|3:0,0:0:0:0:
240,237,58655,1,8,3:3:0:0:
283,233,58739,1,0,3:3:0:0:
326,229,58824,1,0,3:3:0:0:
369,224,58908,1,8,3:3:0:0:
412,220,58992,70,0,B|417:312,1,76.8,10|0,3:1|0:0,0:0:0:0:
512,135,59161,53,0,3:0:0:0:
494,120,59245,2,0,B|488:212,1,86.3999973632813,10|0,0:1|0:0,0:0:0:0:
382,61,59414,53,0,3:3:0:0:
400,46,59498,2,0,B|406:141,1,96,10|0,0:1|3:0,0:0:0:0:
481,349,59666,5,2,3:1:0:0:
454,314,59751,1,0,3:0:0:0:
416,296,59835,1,0,3:0:0:0:
373,298,59919,1,0,3:0:0:0:
336,320,60003,1,8,3:0:0:0:
153,376,60172,22,0,B|109:365|109:365|77:376|77:376|35:370,1,115.199996484375,2|0,3:1|0:0,0:0:0:0:
12,278,60425,1,8,0:3:0:0:
22,257,60509,22,0,L|27:191,1,57.5999982421876,2|0,3:1|0:0,0:0:0:0:
186,76,60678,2,0,L|181:133,1,57.5999982421876,10|0,0:1|0:0,0:0:0:0:
205,288,60846,2,0,P|218:292|233:293,2,28.7999991210938,2|2|2,0:0|0:0|0:0,0:0:0:0:
72,123,61015,22,0,P|44:113|16:112,1,57.5999982421876,2|0,3:1|0:0,0:0:0:0:
149,278,61183,2,0,P|176:287|204:288,1,57.5999982421876,2|0,0:1|0:0,0:0:0:0:
394,123,61352,21,8,3:2:0:0:
339,106,61436,1,0,3:0:0:0:
287,128,61520,1,0,3:0:0:0:
235,150,61605,1,0,3:0:0:0:
181,133,61689,22,0,L|186:76,1,57.5999982421876,2|8,3:1|0:3,0:0:0:0:
343,185,61857,2,0,L|341:243,1,57.5999982421876,2|0,3:2|0:0,0:0:0:0:
325,27,62026,22,0,P|353:27|380:36,1,57.5999982421876,10|0,0:2|0:0,0:0:0:0:
478,213,62194,2,0,P|449:211|423:202,1,57.5999982421876,2|0,0:0|0:0,0:0:0:0:
186,75,62363,22,0,B|138:41|138:41|79:73,1,115.199996484375,2|0,3:1|0:0,0:0:0:0:
34,127,62616,1,0,0:0:0:0:
27,149,62700,2,0,L|22:193,2,28.7999991210938,10|2|2,0:0|0:0|0:0,0:0:0:0:
169,251,62869,22,0,B|119:277|119:277|71:243,1,115.199996484375,2|0,3:1|3:0,0:0:0:0:
130,170,63121,1,8,0:3:0:0:
151,162,63206,22,0,B|182:160|182:160|211:170,1,57.5999982421876,2|0,3:1|0:0,0:0:0:0:
281,326,63374,2,0,B|250:328|250:328|221:318,1,57.5999982421876,10|0,0:1|0:0,0:0:0:0:
207,168,63543,2,0,B|202:128|202:128|214:94|214:94|209:54,1,115.199996484375,2|0,0:1|3:0,0:0:0:0:
67,75,63880,22,0,B|98:73|98:73|123:81,1,57.5999982421876,2|0,0:1|3:3,0:0:0:0:
292,137,64048,1,10,3:2:0:0:
327,139,64133,1,0,3:0:0:0:
362,141,64217,1,2,3:2:0:0:
397,143,64301,1,8,3:0:0:0:
432,145,64385,38,0,B|445:115|445:115|441:80,1,67.1999979492188,6|8,3:1|0:3,0:0:0:0:
459,274,64554,2,0,B|478:300|478:300|510:314,1,67.1999979492188,2|8,3:1|0:3,0:0:0:0:
333,232,64723,2,0,B|300:235|300:235|272:256,1,67.1999979492188,2|0,0:1|0:0,0:0:0:0:
407,216,64891,53,2,0:1:0:0:
316,352,65060,22,0,P|236:356|183:308,1,144.000005493164,6|8,3:1|2:2,0:0:0:0:
182,145,65565,2,0,P|189:180|192:216,1,72.0000027465821,2|0,2:1|2:1,0:0:0:0:
290,73,65902,2,0,P|282:108|279:144,1,72.0000027465821,2|8,2:1|2:0,0:0:0:0:
188,317,66239,53,2,2:2:0:0:
177,326,66324,1,2,2:0:0:0:
166,335,66408,2,0,L|83:326,1,72.0000027465821,0|0,3:0|2:0,0:0:0:0:
97,156,66745,1,10,0:1:0:0:
192,216,66914,1,2,0:0:0:0:
279,144,67082,2,0,L|362:135,2,72.0000027465821,2|0|8,0:1|0:0|0:0,0:0:0:0:
153,59,67588,53,2,0:0:0:0:
139,53,67672,1,2,0:0:0:0:
125,48,67756,2,0,B|74:20|20:34|20:34|44:50|66:44,1,144.000005493164,2|8,3:2|0:0,0:0:0:0:
208,158,68262,2,0,P|243:148|279:144,1,72.0000027465821,2|0,0:1|0:0,0:0:0:0:
441,187,68599,2,0,P|406:196|370:201,1,72.0000027465821,2|8,0:1|0:0,0:0:0:0:
197,276,68936,53,2,0:1:0:0:
205,264,69020,1,2,0:0:0:0:
216,254,69105,2,0,P|250:244|286:239,1,72.0000027465821,0|2,3:0|0:0,0:0:0:0:
430,298,69442,1,10,0:1:0:0:
370,200,69610,1,2,0:0:0:0:
333,328,69779,1,2,0:0:0:0:
373,186,69947,86,2,L|374:132,1,36.0000013732911,2|0,3:1|0:0,0:1:0:0:
321,81,70116,1,10,0:0:0:0:
252,169,70284,54,2,L|252:133,1,36.0000013732911,2|0,3:2|0:0,0:1:0:0:
269,12,70453,2,0,P|230:41|136:21,1,144.000005493164,2|8,3:2|0:0,0:0:0:0:
30,57,70958,21,2,3:2:0:0:
112,137,71127,2,0,P|121:171|119:207,2,72.0000027465821,2|0|8,0:1|0:0|0:0,0:0:0:0:
0,185,71633,53,2,0:0:0:0:
119,207,71801,2,0,P|154:208|189:199,2,72.0000027465821,2|0|8,3:2|0:0|0:0,0:0:0:0:
0,185,72307,53,2,3:2:0:0:
111,277,72475,2,0,P|120:242|118:206,1,72.0000027465821,2|0,0:0|0:0,0:0:0:0:
40,285,72812,2,0,P|76:286|111:277,1,72.0000027465821,10|0,0:0|0:0,0:0:0:0:
240,121,73149,37,6,3:1:0:0:
308,267,73318,1,2,3:2:0:0:
347,160,73487,1,2,0:0:0:0:
415,306,73655,6,0,P|457:320|515:255,1,129.599996044922,2|0,3:1|0:0,0:0:0:0:
496,194,73992,2,0,L|491:96,2,86.3999973632813,2|0|0,3:2|0:0|0:0,0:0:0:0:
348,356,74498,37,6,3:1:0:0:
274,194,74666,1,2,3:2:0:0:
230,312,74835,1,2,0:2:0:0:
156,151,75003,53,2,3:1:0:0:
156,151,75172,1,0,3:2:0:0:
230,312,75340,1,2,3:1:0:0:
113,268,75509,101,8,0:0:0:0:
96,264,75593,1,8,0:0:0:0:
63,280,75678,53,4,0:0:0:0:
46,276,75762,1,4,0:0:0:0:
6,336,75846,70,0,L|-1:130,1,192,6|8,3:2|0:2,0:0:0:0:
176,40,76352,2,0,P|102:39|64:19,1,96,2|0,0:0|0:0,0:0:0:0:
249,160,76689,2,0,P|203:146|155:150,1,96,2|8,3:2|0:0,0:0:0:0:
167,343,77026,53,2,1:2:0:0:
180,329,77110,1,0,1:0:0:0:
193,315,77194,22,0,L|195:266,1,48,2|0,3:2|0:2,0:0:0:0:
60,252,77363,2,0,L|62:203,1,48,2|0,3:2|0:2,0:0:0:0:
206,301,77532,54,0,L|208:252,1,48,10|0,0:0|0:0,0:0:0:0:
73,238,77700,2,0,L|75:189,1,48,2|8,3:2|0:2,0:0:0:0:
219,287,77869,54,0,L|221:238,1,48,2|8,0:0|0:3,0:0:0:0:
155,149,78037,1,0,3:0:0:0:
126,324,78206,1,8,0:0:0:0:
73,238,78374,1,2,0:0:0:0:
219,287,78543,22,0,B|314:318|307:241|404:270,1,192,2|8,3:2|0:0,0:0:0:0:
512,116,79048,2,0,P|464:115|419:98,1,96,2|0,3:2|3:2,0:0:0:0:
359,48,79301,1,8,0:3:0:0:
343,36,79385,2,0,P|296:25|248:31,1,96,2|8,3:2|0:2,0:0:0:0:
127,117,79723,53,2,1:2:0:0:
117,100,79807,1,0,1:0:0:0:
107,83,79891,22,0,L|104:25,1,48,2|0,3:2|0:2,0:0:0:0:
251,78,80060,2,0,L|248:20,1,48,2|0,3:2|0:2,0:0:0:0:
97,100,80228,54,0,L|94:42,1,48,10|0,0:0|0:0,0:0:0:0:
241,95,80397,2,0,L|238:37,1,48,2|8,3:2|0:2,0:0:0:0:
87,117,80565,54,0,L|84:59,1,48,2|8,0:0|0:3,0:0:0:0:
172,11,80734,1,0,3:0:0:0:
176,184,80902,1,8,0:0:0:0:
241,95,81071,1,2,0:0:0:0:
367,202,81239,22,0,B|437:240|506:215|507:164|483:152|449:154|448:187,1,192,6|8,3:2|0:2,0:0:0:0:
314,326,81745,1,2,3:2:0:0:
275,191,81914,1,2,3:2:0:0:
298,185,81998,1,8,3:3:0:0:
322,185,82082,1,2,3:2:0:0:
345,191,82166,1,0,3:2:0:0:
367,202,82251,1,8,1:2:0:0:
314,326,82419,54,0,P|311:294|314:268,1,48,2|0,0:2|0:2,0:0:0:0:
448,177,82588,2,0,P|450:208|447:234,1,48,10|0,3:2|0:2,0:0:0:0:
322,104,82756,1,2,0:2:0:0:
344,96,82840,1,0,0:2:0:0:
368,95,82925,1,8,0:2:0:0:
313,278,83093,54,0,P|281:280|255:277,1,48,2|0,0:2|0:2,0:0:0:0:
183,130,83262,1,0,3:2:0:0:
194,152,83346,1,8,3:3:0:0:
200,175,83430,1,0,3:2:0:0:
200,199,83515,1,0,3:2:0:0:
194,222,83599,54,0,P|182:194|187:116,1,96,10|0,0:2|0:2,0:0:0:0:
347,178,83936,102,0,P|318:179|291:170,1,57.5999982421876,6|0,3:2|0:2,0:0:0:0:
257,86,84105,2,0,P|269:61|290:42,1,57.5999982421876,2|0,0:2|0:2,0:0:0:0:
379,54,84273,2,0,P|395:79|401:107,1,57.5999982421876,10|0,0:2|0:2,0:0:0:0:
326,105,84442,54,0,B|297:77|257:86|257:86|206:111|164:80,1,172.799994726563,6|0,3:1|0:2,0:0:0:0:
93,10,84779,1,6,3:1:0:0:
30,148,84947,85,0,1:2:0:0:
32,176,85032,1,0,1:2:0:0:
50,221,85116,53,2,3:2:0:0:
52,250,85200,1,0,3:2:0:0:
78,292,85284,22,0,P|104:300|133:299,1,57.5999982421876,6|0,3:2|0:2,0:0:0:0:
212,201,85453,2,0,P|206:173|190:149,1,57.5999982421876,2|0,0:2|0:2,0:0:0:0:
66,131,85621,2,0,P|45:150|32:175,1,57.5999982421876,10|0,0:2|0:2,0:0:0:0:
119,209,85790,54,0,B|159:230|212:201|212:201|259:199|291:243,1,187.199991430664,6|0,3:1|0:2,0:0:0:0:
318,324,86127,2,0,P|288:241|393:250,1,230.39999296875,6|0,3:1|0:2,0:0:0:0:
186,357,86633,5,6,3:2:0:0:
212,201,86801,1,0,1:2:0:0:
318,324,86970,2,0,P|361:352|413:345,1,105.600003222656,10|0,0:2|0:2,0:0:0:0:
319,146,87307,53,2,0:2:0:0:
317,323,87475,1,2,3:2:0:0:
455,192,87644,1,10,0:2:0:0:
506,364,87812,2,0,P|455:372|412:345,1,105.600003222656,2|0,0:2|3:2,0:0:0:0:
347,222,88149,53,2,3:2:0:0:
512,267,88318,2,0,P|526:316|506:364,1,105.600003222656,10|0,0:2|1:2,0:0:0:0:
411,344,88571,1,8,0:3:0:0:
390,338,88655,53,10,0:3:0:0:
246,365,88824,1,2,3:2:0:0:
188,261,88992,2,0,L|182:149,1,105.600003222656,8|0,0:2|0:2,0:0:0:0:
333,19,89329,53,2,3:2:0:0:
168,39,89498,1,2,1:2:0:0:
347,135,89666,1,10,0:2:0:0:
182,155,89835,2,0,B|140:160|102:138|102:138|117:161,1,105.600003222656,2|0,0:2|0:2,0:0:0:0:
333,19,90172,53,0,3:2:0:0:
168,39,90340,1,8,0:2:0:0:
347,135,90509,2,0,B|388:128|419:97|419:97|411:123,1,105.600003222656,2|0,0:2|3:2,0:0:0:0:
287,295,90846,54,0,L|279:244,1,52.8000016113282,2|0,1:2|3:2,0:0:0:0:
181,154,91015,2,0,P|130:150|83:174,1,105.600003222656,10|0,0:2|3:2,0:0:0:0:
47,246,91267,1,8,0:3:0:0:
48,267,91352,53,10,0:3:0:0:
189,314,91520,2,0,P|240:318|287:294,1,105.600003222656,2|8,3:2|0:2,0:0:0:0:
376,132,91857,1,2,0:2:0:0:
492,350,92026,86,0,L|499:131,1,211.200006445313,6|8,3:2|0:2,0:0:0:0:
307,196,92532,2,0,P|352:222|404:221,1,105.600003222656,2|0,0:2|0:2,0:0:0:0:
445,68,92869,2,0,P|399:41|347:42,1,105.600003222656,2|8,3:2|0:2,0:0:0:0:
136,133,93206,54,0,L|134:185,1,52.8000016113282,2|0,0:2|0:2,0:0:0:0:
67,68,93374,2,0,P|112:41|164:42,1,105.600003222656,2|0,3:2|0:2,0:0:0:0:
203,254,93711,2,0,P|157:280|105:279,1,105.600003222656,10|0,0:2|0:2,0:0:0:0:
136,133,94048,2,0,L|134:185,1,52.8000016113282,2|8,3:2|0:3,0:0:0:0:
16,214,94217,21,2,3:2:0:0:
67,68,94385,1,10,0:2:0:0:
134,185,94554,1,2,0:2:0:0:
234,85,94723,38,0,P|202:83|172:93,1,57.5999982421876,6|0,3:2|0:2,0:0:0:0:
134,185,94891,2,0,P|147:213|171:234,1,57.5999982421876,2|0,3:2|0:2,0:0:0:0:
269,220,95060,2,0,P|286:193|293:162,1,57.5999982421876,10|0,0:2|0:2,0:0:0:0:
210,165,95228,54,0,B|169:155|135:185|135:185|80:187|57:142,1,172.799994726563,6|0,3:2|0:2,0:0:0:0:
36,32,95565,21,2,3:2:0:0:
234,85,95734,1,10,0:2:0:0:
58,144,95902,1,2,3:2:0:0:
347,246,96071,101,6,3:1:0:0:
138,89,96239,1,2,0:2:0:0:
426,77,96408,1,10,0:2:0:0:
155,254,96576,53,2,3:1:0:0:
443,242,96745,1,2,0:2:0:0:
234,85,96914,1,2,3:2:0:0:
256,356,97082,21,2,1:1:0:0:
330,81,97251,1,10,0:2:0:0:
155,254,97419,70,0,L|129:195,1,62.3999971435548,2|0,3:1|3:2,0:0:0:0:
443,242,97588,2,0,L|465:184,1,62.3999971435548,2|0,3:1|3:2,0:0:0:0:
88,51,97756,54,0,P|115:67|138:89,1,62.3999971435548,2|0,3:1|3:2,0:0:0:0:
471,35,97925,2,0,P|446:53|426:77,1,62.3999971435548,2|0,3:1|3:2,0:0:0:0:
362,268,98093,86,2,L|363:364,1,96,6|2,2:1|0:2,1:1:0:0:
363,364,98767,6,0,P|298:308|166:335,1,187.199991430664,6|0,3:1|0:2,0:0:0:0:
139,356,99105,1,8,0:2:0:0:
11,255,99273,22,0,L|6:84,1,124.79999428711,0|0,3:2|0:2,0:0:0:0:
44,59,99526,1,8,0:3:0:0:
60,40,99610,1,0,3:2:0:0:
269,160,99779,21,10,3:2:0:0:
224,171,99863,1,0,0:2:0:0:
180,158,99947,1,0,0:2:0:0:
150,123,100032,1,0,0:2:0:0:
142,77,100116,22,0,L|140:8,1,62.3999971435548,2|0,3:1|0:2,0:0:0:0:
370,77,100284,2,0,L|372:8,1,62.3999971435548,2|0,3:2|0:2,0:0:0:0:
223,93,100453,21,10,0:2:0:0:
374,170,100621,1,0,3:2:0:0:
230,297,100790,21,2,3:2:0:0:
255,258,100874,1,8,3:3:0:0:
297,238,100958,1,0,3:2:0:0:
343,242,101043,1,0,3:2:0:0:
381,268,101127,22,0,B|422:295|422:295|508:277|508:277|530:233,1,187.199991430664,10|0,0:1|0:2,0:0:0:0:
453,149,101464,22,0,L|446:211,1,62.3999971435548,2|0,3:1|0:2,0:0:0:0:
313,322,101633,2,0,L|306:384,1,62.3999971435548,2|0,3:2|0:2,0:0:0:0:
215,190,101801,21,10,0:2:0:0:
381,268,101970,1,0,3:2:0:0:
282,77,102138,22,0,L|289:139,1,62.3999971435548,2|8,3:2|0:0,0:0:0:0:
313,322,102307,1,0,3:2:0:0:
146,239,102475,22,0,B|116:186|151:133|151:133|117:155|79:145,1,187.199991430664,10|0,0:1|0:2,0:0:0:0:
83,9,102812,22,0,P|97:36|103:67,1,62.3999971435548,2|0,3:1|0:2,0:0:0:0:
76,281,102981,2,0,P|61:253|55:222,1,62.3999971435548,2|0,3:2|0:2,0:0:0:0:
215,190,103149,21,8,0:2:0:0:
79,145,103318,2,0,L|2:148,1,62.3999971435548,0|8,3:2|0:2,0:0:0:0:
273,243,103487,101,2,3:1:0:0:
294,191,103571,1,8,2:3:0:0:
275,138,103655,1,0,3:2:0:0:
55,223,103824,53,10,0:1:0:0:
215,190,103992,1,2,3:2:0:0:
83,10,104161,86,0,B|39:61|39:61|54:222,1,230.4,6|0,3:1|0:2,0:0:0:0:
215,190,104498,2,0,L|171:185,1,38.4,8|0,0:2|0:2,0:0:0:0:
93,23,104666,54,0,B|51:71|51:71|65:216,1,201.599993847656,6|0,3:1|0:2,0:0:0:0:
180,98,105003,2,0,L|118:91,1,33.5999989746094,0|0,3:2|0:2,0:0:0:0:
157,334,105172,22,0,L|150:295,1,38.4,14|0,0:1|0:2,0:0:0:0:
355,50,105340,2,0,L|361:88,1,38.4,2|0,3:1|0:2,0:0:0:0:
367,125,105678,54,0,L|360:87,1,38.4,2|0,0:1|0:2,0:0:0:0:
143,258,105846,2,0,L|150:296,1,38.4,6|0,3:1|0:2,0:0:0:0:
256,96,106183,101,8,0:3:0:0:
363,295,106352,38,0,B|426:321|426:321|493:288,1,134.399995898438,6|0,3:1|0:2,0:0:0:0:
447,194,106605,1,8,0:3:0:0:
428,207,106689,2,0,L|424:268,1,33.5999989746094,0|0,0:2|0:2,0:0:0:0:
263,365,106857,54,0,L|254:262,1,76.8,10|0,0:1|0:2,0:0:0:0:
249,19,107026,2,0,L|258:122,1,76.8,2|0,3:1|0:2,0:0:0:0:
256,192,107194,5,0,3:2:0:0:
66,115,107363,70,6,B|103:26|103:26|152:108,1,192,2|0,3:2|0:2,0:0:0:0:
149,124,107869,54,2,B|106:52|106:52|73:130,1,167.999994873047,2|0,3:2|0:2,0:0:0:0:
80,141,108374,54,2,B|108:74|108:74|145:136,1,143.999995605469,2|0,3:2|0:2,0:0:0:0:
141,145,108880,54,2,B|110:94|110:94|87:150,1,119.520001732544,2|0,3:2|0:2,0:0:0:0:
6,210,109217,86,0,P|29:211|51:220,1,48,2|0,3:1|0:2,0:0:0:0:
232,190,109385,2,0,P|209:196|192:212,1,48,8|0,0:3|0:2,0:0:0:0:
45,303,109554,102,0,B|93:305|123:263|123:263|159:304|208:296,1,187.199991430664,6|0,3:1|0:2,0:0:0:0:
128,364,109891,1,8,0:2:0:0:
51,220,110060,22,0,L|43:85,1,124.79999428711,0|0,3:2|0:2,0:0:0:0:
87,29,110312,1,8,0:3:0:0:
105,11,110397,1,0,3:2:0:0:
232,190,110565,21,10,3:2:0:0:
269,216,110649,1,0,0:2:0:0:
315,221,110734,1,0,0:2:0:0:
358,202,110818,1,0,0:2:0:0:
385,165,110902,22,0,P|418:159|453:166,1,62.3999971435548,2|0,3:1|0:2,0:0:0:0:
455,327,111071,2,0,P|422:333|387:326,1,62.3999971435548,2|0,3:2|0:2,0:0:0:0:
300,127,111239,21,10,0:2:0:0:
420,246,111408,1,0,3:2:0:0:
368,64,111576,21,2,3:2:0:0:
331,38,111661,1,8,3:3:0:0:
285,33,111745,1,0,3:2:0:0:
242,52,111829,1,0,3:2:0:0:
215,89,111914,22,0,B|116:112|140:35|35:65,1,187.199991430664,10|0,0:1|0:2,0:0:0:0:
71,206,112251,22,0,L|75:143,1,62.3999971435548,2|0,3:1|0:2,0:0:0:0:
300,127,112419,2,0,L|304:190,1,62.3999971435548,2|0,3:2|0:2,0:0:0:0:
162,302,112588,21,10,0:2:0:0:
215,89,112756,1,0,3:2:0:0:
259,338,112925,22,0,L|255:275,1,62.3999971435548,2|8,3:2|0:0,0:0:0:0:
300,127,113093,1,0,3:2:0:0:
434,271,113262,22,0,B|370:259|370:259|317:285|317:285|254:275,1,187.199991430664,10|0,0:1|0:2,0:0:0:0:
300,127,113599,22,0,B|310:160|310:160|300:210,1,62.3999971435548,2|0,3:1|0:2,0:0:0:0:
162,302,113767,2,0,B|157:266|157:266|175:219,1,62.3999971435548,2|0,3:2|0:2,0:0:0:0:
215,89,113936,21,8,0:2:0:0:
254,275,114105,2,0,L|327:286,1,62.3999971435548,0|8,3:2|0:2,0:0:0:0:
404,127,114273,101,2,3:1:0:0:
353,108,114357,1,8,2:3:0:0:
300,127,114442,1,0,3:2:0:0:
167,241,114610,53,10,0:1:0:0:
215,89,114779,1,2,3:2:0:0:
425,254,114947,86,0,B|481:185|442:88|442:88|404:128,1,230.4,6|0,3:1|0:2,0:0:0:0:
308,207,115284,2,0,L|352:202,1,38.4,8|0,0:2|0:2,0:0:0:0:
425,254,115453,54,0,B|455:220|459:163|459:163|469:219|514:250,1,201.599993847656,6|0,3:1|0:2,0:0:0:0:
477,345,115790,2,0,L|473:311,1,33.5999989746094,0|0,3:2|0:2,0:0:0:0:
348,77,115958,22,0,L|309:70,1,38.4,14|0,0:1|0:2,0:0:0:0:
164,307,116127,2,0,L|203:314,1,38.4,2|0,3:1|0:2,0:0:0:0:
239,320,116464,54,0,L|201:313,1,38.4,2|0,0:1|0:2,0:0:0:0:
273,64,116633,2,0,L|310:70,1,38.4,6|0,3:1|0:2,0:0:0:0:
353,273,116970,101,8,0:3:0:0:
165,129,117138,38,0,B|134:68|134:68|170:12,1,134.399995898438,6|0,3:1|0:2,0:0:0:0:
273,64,117391,1,8,0:3:0:0:
256,79,117475,2,0,L|219:73,1,33.5999989746094,0|0,0:2|0:2,0:0:0:0:
78,249,117644,54,0,L|181:240,1,76.8,10|0,0:1|0:2,0:0:0:0:
434,135,117812,2,0,L|331:143,1,76.8,2|0,3:1|0:2,0:0:0:0:
256,192,117981,5,0,3:2:0:0:
15,110,118318,22,0,B|167:130|167:130|90:146,1,230.4,6|0,3:2|0:2,0:0:0:0:
23,195,118655,1,2,3:2:0:0:
38,38,118824,54,0,B|171:55|171:55|108:21,1,201.599993847656,6|0,3:2|0:2,0:0:0:0:
15,110,119161,1,0,3:2:0:0:
125,271,119329,6,0,L|119:362,2,76.7999976562501,8|0|0,0:3|3:2|3:2,0:0:0:0:
171,191,119666,53,8,0:3:0:0:
251,237,119779,2,0,L|335:231,1,76.7999976562501,0|0,3:2|3:2,0:0:0:0:
293,106,120003,54,0,L|216:111,1,76.7999976562501,0|0,3:2|0:2,0:0:0:0:
171,191,120228,1,8,0:3:0:0:
91,145,120340,85,4,3:2:0:0:
106,324,131127,54,0,P|114:239|92:186,1,129.599996044922,6|0,3:2|0:2,0:0:0:0:
99,198,131464,2,0,L|56:191,1,43.1999986816407,10|0,0:2|0:2,0:0:0:0:
39,54,131633,53,2,3:2:0:0:
61,76,131717,1,0,0:2:0:0:
91,88,131801,1,0,0:2:0:0:
123,87,131885,1,8,0:3:0:0:
153,74,131970,54,0,L|205:75,1,43.1999986816407,2|0,3:2|0:2,0:0:0:0:
355,33,132138,2,0,P|313:23|271:33,1,86.3999973632813,10|0,0:2|0:2,0:0:0:0:
182,180,132475,54,0,L|226:181,1,43.1999986816407,2|0,3:2|0:2,0:0:0:0:
361,180,132644,2,0,P|348:139|318:107,1,86.3999973632813,2|8,3:2|0:2,0:0:0:0:
196,74,132981,54,0,L|152:73,1,43.1999986816407,2|0,3:2|0:2,0:0:0:0:
226,181,133149,2,0,L|270:182,1,43.1999986816407,2|8,3:2|0:3,0:0:0:0:
271,33,133318,53,2,3:2:0:0:
226,181,133487,2,0,L|221:282,1,86.3999973632813,10|0,0:2|0:2,0:0:0:0:
337,357,133824,54,0,P|371:333|423:332,1,86.3999973632813,2|0,3:2|3:2,0:0:0:0:
491,346,134076,1,0,0:3:0:0:
506,355,134161,1,8,0:2:0:0:
482,226,134329,54,0,P|474:249|465:292,1,43.1999986816407,2|0,3:2|0:2,0:0:0:0:
392,166,134498,2,0,P|400:189|409:232,1,43.1999986816407,2|8,3:2|0:2,0:0:0:0:
484,104,134666,2,0,P|476:127|467:170,1,43.1999986816407,2|0,3:2|0:2,0:0:0:0:
346,255,134835,53,8,0:2:0:0:
256,136,135003,1,2,0:2:0:0:
239,131,135088,1,0,0:2:0:0:
221,130,135172,1,0,3:2:0:0:
58,176,135340,53,0,3:2:0:0:
221,130,135509,1,8,0:2:0:0:
71,4,135678,53,2,3:2:0:0:
67,47,135762,1,8,3:3:0:0:
64,90,135846,1,0,3:2:0:0:
61,133,135930,1,8,3:3:0:0:
58,176,136015,1,0,3:2:0:0:
142,270,136183,2,0,P|187:263|243:262,1,86.3999973632813,8|0,0:2|0:2,0:0:0:0:
343,296,136520,54,0,P|280:300|229:263,1,129.599996044922,6|0,3:2|0:2,0:0:0:0:
229,263,136857,2,0,L|226:211,1,43.1999986816407,10|0,0:2|0:2,0:0:0:0:
280,78,137026,53,2,3:2:0:0:
311,70,137110,1,0,0:2:0:0:
343,73,137194,1,0,0:2:0:0:
372,87,137279,1,8,0:3:0:0:
394,111,137363,54,0,L|397:163,1,43.1999986816407,2|0,3:2|0:2,0:0:0:0:
343,296,137532,2,0,P|368:272|437:278,1,86.3999973632813,10|0,0:2|0:2,0:0:0:0:
496,345,137869,54,0,L|499:293,1,43.1999986816407,2|0,3:2|0:2,0:0:0:0:
471,182,138037,2,0,P|428:181|396:153,1,86.3999973632813,2|8,3:2|0:2,0:0:0:0:
277,34,138374,54,0,L|280:86,1,43.1999986816407,2|0,3:2|0:2,0:0:0:0:
324,195,138543,2,0,L|321:143,1,43.1999986816407,2|8,3:2|0:3,0:0:0:0:
368,55,138711,53,2,3:2:0:0:
324,194,138880,2,0,P|281:203|240:193,1,86.3999973632813,10|0,0:2|0:2,0:0:0:0:
35,238,139217,54,0,P|77:229|118:239,1,86.3999973632813,2|0,3:2|3:2,0:0:0:0:
180,287,139470,1,0,0:3:0:0:
191,300,139554,1,8,0:2:0:0:
240,193,139723,54,0,L|245:129,1,43.1999986816407,2|0,3:2|0:2,0:0:0:0:
145,112,139891,2,0,L|149:156,1,43.1999986816407,2|8,3:2|0:2,0:0:0:0:
255,73,140060,2,0,L|260:9,1,43.1999986816407,2|0,3:2|0:2,0:0:0:0:
133,36,140228,54,0,B|108:35|85:52|85:52|63:48|36:30,1,86.3999973632813,10|0,0:0|3:0,0:0:0:0:
149,156,140565,54,0,L|145:112,1,43.1999986816407,2|0,3:2|0:0,0:0:0:0:
240,193,140734,2,0,L|243:149,1,43.1999986816407,2|0,0:0|0:0,0:0:0:0:
325,238,140902,2,0,L|335:196,1,43.1999986816407,8|0,0:0|0:0,0:0:0:0:
352,24,141071,53,2,3:2:0:0:
348,67,141155,1,8,3:3:0:0:
344,110,141239,1,0,3:2:0:0:
339,153,141324,1,8,3:3:0:0:
335,196,141408,1,0,3:2:0:0:
395,320,141576,2,0,P|443:307|498:309,1,86.3999973632813,8|0,0:2|0:2,0:0:0:0:
499,145,141914,38,0,L|504:92,3,38.4,6|0|0|0,3:1|0:0|0:0|0:0,0:0:0:0:
390,27,142251,6,0,L|351:23,1,38.4,10|0,0:1|0:0,0:0:0:0:
268,58,142419,2,0,L|229:54,3,38.4,2|0|0|0,0:1|0:0|0:0|0:0,0:0:0:0:
101,20,142756,53,2,0:0:0:0:
106,30,142840,1,2,0:0:0:0:
111,40,142925,2,0,L|107:78,1,38.4,10|0,0:1|0:0,0:0:0:0:
135,163,143093,2,0,L|131:201,1,38.4,2|0,0:0|0:0,0:0:0:0:
67,295,143262,54,0,P|45:295|17:287,3,38.4,2|0|0|0,3:1|0:0|0:0|0:0,0:0:0:0:
130,201,143599,54,0,P|152:201|180:209,1,38.4,10|0,0:1|0:0,0:0:0:0:
236,245,143767,2,0,P|254:248|273:248,3,38.4,2|0|0|0,0:1|0:0|0:0|0:0,0:0:0:0:
263,129,144105,54,0,L|262:167,1,38.4,2|0,0:1|0:0,0:0:0:0:
343,205,144273,2,0,L|376:186,1,38.4,10|0,0:1|0:0,0:0:0:0:
369,98,144442,2,0,L|336:78,1,38.4,2|0,0:1|0:0,0:0:0:0:
228,38,144610,54,0,L|180:33,3,38.4,2|0|0|0,3:1|0:0|0:0|0:0,0:0:0:0:
80,72,144947,54,0,L|32:67,1,38.4,10|0,0:1|0:0,0:0:0:0:
5,142,145116,2,0,L|44:146,3,38.4,2|0|0|0,0:1|0:0|0:0|0:0,0:0:0:0:
128,228,145453,54,0,L|166:231,1,38.4,2|0,0:1|0:0,0:0:0:0:
202,157,145621,2,0,L|164:154,3,38.4,10|0|0|0,0:1|0:0|0:0|0:0,0:0:0:0:
47,228,145958,54,0,L|44:266,3,38.4,2|0|0|0,3:1|0:0|0:0|0:0,0:0:0:0:
143,334,146296,54,0,P|157:338|193:337,1,38.4,10|0,0:1|0:0,0:0:0:0:
261,295,146464,2,0,P|280:295|298:300,3,38.4,2|0|0|0,0:1|0:0|0:0|0:0,0:0:0:0:
419,362,146801,54,0,L|424:309,1,38.4,2|0,0:1|0:0,0:0:0:0:
474,235,146970,2,0,B|435:241|435:241|400:227,1,76.8,10|0,0:1|0:0,0:0:0:0:
322,131,147307,102,0,L|316:75,3,43.1999986816407,6|0|0|0,3:1|0:0|0:0|0:0,0:0:0:0:
397,14,147644,6,0,L|392:57,1,43.1999986816407,10|0,0:1|0:0,0:0:0:0:
447,155,147812,2,0,L|452:113,3,43.1999986816407,2|0|0|0,0:1|0:0|0:0|0:0,0:0:0:0:
317,88,148149,53,2,0:0:0:0:
304,90,148234,1,2,0:0:0:0:
291,91,148318,2,0,L|248:86,1,43.1999986816407,10|0,0:1|0:0,0:0:0:0:
180,34,148487,2,0,L|137:29,1,43.1999986816407,2|0,0:0|0:0,0:0:0:0:
87,121,148655,54,0,P|92:144|93:175,3,43.1999986816407,2|0|0|0,3:1|0:0|0:0|0:0,0:0:0:0:
176,266,148992,54,0,P|177:244|182:223,1,43.1999986816407,10|0,0:1|0:0,0:0:0:0:
262,181,149161,2,0,L|305:176,3,43.1999986816407,2|0|0|0,0:1|0:0|0:0|0:0,0:0:0:0:
429,210,149498,54,0,P|387:214|361:204,1,43.1999986816407,2|0,0:1|0:0,0:0:0:0:
304,176,149666,2,0,P|285:164|271:148,1,43.1999986816407,10|0,0:1|0:0,0:0:0:0:
239,64,149835,2,0,P|234:43|235:21,1,43.1999986816407,2|0,0:1|0:0,0:0:0:0:
373,59,150003,54,0,L|446:50,3,43.1999986816407,2|0|0|0,3:1|0:0|0:0|0:0,0:0:0:0:
499,120,150340,54,0,L|508:193,1,43.1999986816407,10|0,0:1|0:0,0:0:0:0:
429,210,150509,2,0,L|438:283,3,43.1999986816407,2|0|0|0,0:1|0:0|0:0|0:0,0:0:0:0:
369,331,150846,53,2,0:2:0:0:
357,337,150930,1,2,0:0:0:0:
345,342,151015,2,0,P|323:342|302:337,1,43.1999986816407,10|0,0:0|0:0,0:0:0:0:
244,267,151183,2,0,P|222:262|201:262,1,43.1999986816407,2|0,0:0|0:0,0:0:0:0:
104,345,151352,54,0,L|101:288,3,43.1999986816407,2|0|0|0,3:1|0:0|0:0|0:0,0:0:0:0:
31,255,151689,54,0,L|34:198,1,43.1999986816407,10|0,0:1|0:0,0:0:0:0:
81,125,151857,22,2,B|54:109|20:113|20:113|68:83|132:117|132:117|132:109|132:109|136:117|136:117|136:109|136:109|140:117|140:117|140:109|140:109|144:117|144:117|144:109|144:109|148:117|148:117|148:109|148:109|152:117|152:117|152:109|152:109|155:117|155:117|156:109|156:109|203:133|245:110,1,384,0|2,0:1|0:2,2:1:0:0:
387,10,152700,54,2,B|396:32|387:59|387:59|354:94|354:94|258:152|370:279|458:135|354:94|354:94|315:65|315:65|301:40|307:16,1,460.7999859375,0|0,0:2|0:2,1:2:0:0:
483,304,154048,70,0,L|291:297,1,192,6|8,3:2|0:2,0:0:0:0:
249,114,154554,2,0,P|296:108|343:118,1,96,2|0,0:0|0:0,0:0:0:0:
218,233,154891,2,0,P|170:238|123:228,1,96,2|8,3:2|0:0,0:0:0:0:
46,85,155228,53,2,1:2:0:0:
60,72,155312,1,0,1:0:0:0:
74,59,155397,22,0,L|123:57,1,48,2|0,3:2|0:2,0:0:0:0:
123,228,155565,2,0,L|75:229,1,48,2|0,3:2|0:2,0:0:0:0:
88,46,155734,54,0,L|137:44,1,48,10|0,0:0|0:0,0:0:0:0:
137,215,155902,2,0,L|89:216,1,48,2|8,3:2|0:2,0:0:0:0:
102,33,156071,54,0,L|151:31,1,48,2|8,0:0|0:3,0:0:0:0:
232,116,156239,1,0,3:0:0:0:
137,215,156408,1,8,0:0:0:0:
149,31,156576,1,2,0:0:0:0:
282,231,156745,22,0,B|334:255|379:227|379:227|432:221|459:261,1,192,2|8,3:2|0:0,0:0:0:0:
328,147,157251,2,0,L|320:44,1,96,2|0,3:2|3:2,0:0:0:0:
252,16,157503,1,8,0:3:0:0:
241,32,157588,2,0,P|196:46|149:30,1,96,2|8,3:2|0:2,0:0:0:0:
193,224,157925,53,2,1:2:0:0:
206,210,158009,1,0,1:0:0:0:
219,196,158093,22,0,L|221:147,1,48,2|0,3:2|0:2,0:0:0:0:
45,105,158262,2,0,L|43:152,1,48,2|0,3:2|0:2,0:0:0:0:
232,182,158430,54,0,L|234:133,1,48,10|0,0:0|0:0,0:0:0:0:
58,91,158599,2,0,L|56:138,1,48,2|8,3:2|0:2,0:0:0:0:
245,168,158767,54,0,L|247:119,1,48,2|8,0:0|0:3,0:0:0:0:
30,253,158936,6,2,P|66:238|105:234,1,62.3999971435548,0|0,3:0|0:0,0:1:0:0:
221,323,159105,2,2,B|247:321|274:328|274:328|312:315|312:315|338:325|370:325,1,153.6,8|2,0:0|0:0,0:1:0:0:
486,213,159442,6,0,B|505:166|507:123|480:79|480:79|449:124,1,192,6|8,3:2|0:2,0:0:0:0:
356,244,159947,1,2,3:2:0:0:
290,138,160116,1,2,3:2:0:0:
269,126,160200,1,8,3:3:0:0:
246,120,160284,1,2,3:2:0:0:
222,119,160369,1,0,3:2:0:0:
198,124,160453,1,8,1:2:0:0:
231,257,160621,54,0,P|237:234|237:210,1,48,2|0,0:2|0:2,0:0:0:0:
115,89,160790,2,0,P|108:112|108:136,1,48,10|0,3:2|0:2,0:0:0:0:
290,138,160958,1,2,0:2:0:0:
269,126,161043,1,0,0:2:0:0:
246,120,161127,1,8,0:2:0:0:
88,229,161296,54,0,P|107:232|135:228,1,48,2|0,0:2|0:2,0:0:0:0:
115,89,161464,1,0,3:2:0:0:
93,78,161548,1,8,3:3:0:0:
70,72,161633,1,0,3:2:0:0:
46,72,161717,1,0,3:2:0:0:
23,78,161801,54,0,P|51:90|129:85,1,96,10|0,0:2|0:2,0:0:0:0:
216,193,162138,102,0,P|192:176|176:153,1,57.5999982421876,6|0,3:2|0:2,0:0:0:0:
197,57,162307,2,0,P|222:44|251:42,1,57.5999982421876,2|0,0:2|0:2,0:0:0:0:
325,109,162475,2,0,P|322:137|310:163,1,57.5999982421876,10|0,0:2|0:2,0:0:0:0:
246,120,162644,54,0,B|251:42|251:42|293:12|348:32,1,172.799994726563,6|0,3:1|0:2,0:0:0:0:
425,91,162981,1,6,3:1:0:0:
299,302,163149,85,0,1:2:0:0:
271,300,163234,1,0,1:2:0:0:
226,282,163318,53,2,3:2:0:0:
197,280,163402,1,0,3:2:0:0:
155,254,163487,22,0,P|147:228|148:199,1,57.5999982421876,6|0,3:2|0:2,0:0:0:0:
246,120,163655,2,0,P|274:126|298:142,1,57.5999982421876,2|0,0:2|0:2,0:0:0:0:
316,266,163824,2,0,P|297:287|272:300,1,57.5999982421876,10|0,0:2|0:2,0:0:0:0:
238,213,163992,54,0,B|218:175|246:120|246:120|206:85|159:102,1,187.199991430664,6|0,3:1|0:2,0:0:0:0:
69,148,164329,1,6,3:1:0:0:
251,17,164498,85,2,0:2:0:0:
271,300,164666,1,10,0:2:0:0:
420,112,164835,37,6,3:2:0:0:
162,100,165003,1,0,1:2:0:0:
355,215,165172,53,10,0:2:0:0:
251,17,165340,1,2,0:2:0:0:
238,213,165509,53,2,0:2:0:0:
363,22,165678,1,2,3:2:0:0:
355,215,165846,53,10,0:2:0:0:
162,100,166015,2,0,P|115:86|48:102,1,105.600003222656,2|0,0:2|3:2,0:0:0:0:
68,322,166352,53,2,3:2:0:0:
153,202,166520,2,0,P|167:155|158:91,1,105.600003222656,10|0,0:2|0:2,0:0:0:0:
0,222,166857,53,2,0:2:0:0:
153,202,167026,2,0,L|274:202,2,105.600003222656,2|8|0,3:2|0:2|0:2,0:0:0:0:
20,21,167532,53,2,3:2:0:0:
161,99,167700,1,2,1:2:0:0:
0,141,167869,53,10,0:2:0:0:
161,99,168037,2,0,L|282:99,1,105.600003222656,2|0,0:2|0:2,0:0:0:0:
419,22,168374,53,0,3:2:0:0:
266,99,168543,1,8,0:2:0:0:
435,153,168711,2,0,P|452:202|442:253,1,105.600003222656,2|0,0:2|3:2,0:0:0:0:
275,203,169048,54,0,P|301:205|327:213,1,52.8000016113282,2|0,1:2|3:2,0:0:0:0:
385,322,169217,2,0,P|335:339|284:329,1,105.600003222656,10|0,0:2|3:2,0:0:0:0:
222,281,169470,1,8,0:3:0:0:
206,270,169554,53,10,0:3:0:0:
326,212,169723,2,0,P|337:160|319:111,1,105.600003222656,2|8,3:2|0:2,0:0:0:0:
181,26,170060,1,2,0:2:0:0:
30,160,170228,22,0,B|88:145|88:145|166:186|166:186|228:170,1,211.200006445313,6|8,3:2|0:2,0:0:0:0:
85,345,170734,2,0,L|78:240,1,105.600003222656,2|0,0:2|0:2,0:0:0:0:
261,368,171071,2,0,L|270:245,1,105.600003222656,2|8,3:2|0:2,0:0:0:0:
181,26,171408,54,0,B|176:52|176:52|179:78,1,52.8000016113282,2|0,0:2|0:2,0:0:0:0:
227,170,171576,2,0,B|276:183|276:183|338:167,1,105.600003222656,2|0,3:2|0:2,0:0:0:0:
476,54,171914,2,0,B|427:41|427:41|365:57,1,105.600003222656,10|0,0:2|0:2,0:0:0:0:
425,194,172251,2,0,B|430:168|430:168|427:142,1,52.8000016113282,2|8,3:2|0:3,0:0:0:0:
275,20,172419,21,2,3:2:0:0:
329,169,172588,1,10,0:2:0:0:
373,54,172756,1,2,0:2:0:0:
295,265,172925,38,0,P|264:275|233:273,1,57.5999982421876,6|0,3:2|0:2,0:0:0:0:
172,194,173093,2,0,P|177:163|195:137,1,57.5999982421876,2|0,3:2|0:2,0:0:0:0:
293,125,173262,2,0,P|316:146|331:174,1,57.5999982421876,10|0,0:2|0:2,0:0:0:0:
251,193,173430,54,0,B|216:212|176:196|176:196|123:163|72:205,1,172.799994726563,6|0,3:2|0:2,0:0:0:0:
30,309,173767,21,2,3:2:0:0:
67,102,173936,1,10,0:2:0:0:
131,272,174105,1,2,3:2:0:0:
200,27,174273,101,6,3:1:0:0:
86,194,174442,1,2,0:2:0:0:
279,93,174610,53,10,0:1:0:0:
65,204,174779,1,2,3:2:0:0:
314,189,174947,21,2,0:1:0:0:
50,221,175116,1,2,3:2:0:0:
296,289,175284,53,2,3:1:0:0:
39,241,175453,1,10,0:2:0:0:
362,355,175621,69,2,3:1:0:0:
384,323,175706,1,0,3:2:0:0:
392,286,175790,1,0,3:2:0:0:
384,249,175874,1,0,3:2:0:0:
314,189,175958,53,2,3:1:0:0:
311,170,176043,1,0,3:3:0:0:
316,151,176127,1,0,3:3:0:0:
328,137,176211,1,0,3:3:0:0:
394,102,176296,22,2,B|413:107|430:101|430:101|427:109|427:109|467:95|506:114,1,115.199996484375,2|0,0:2|0:2,0:1:0:0:
296,289,176970,53,6,3:2:0:0:
212,310,177138,1,0,0:2:0:0:
173,164,177307,1,8,0:2:0:0:
235,226,177475,1,0,0:2:0:0:
128,332,177644,1,0,0:2:0:0:
151,249,177812,1,0,0:2:0:0:
296,289,177981,54,0,L|395:291,1,72.0000027465821,10|0,0:1|0:2,0:0:0:0:
435,110,178318,53,2,3:2:0:0:
377,191,178487,1,0,0:2:0:0:
340,60,178655,1,8,0:2:0:0:
304,153,178824,1,0,0:2:0:0:
234,36,178992,1,0,0:2:0:0:
223,135,179161,1,0,0:2:0:0:
125,40,179329,54,0,L|37:31,1,72.0000027465821,10|0,0:1|0:2,0:0:0:0:
72,201,179666,53,2,3:2:0:0:
33,114,179835,1,0,0:2:0:0:
166,211,180003,1,8,0:2:0:0:
110,287,180172,1,0,0:2:0:0:
128,124,180340,1,0,0:2:0:0:
223,135,180509,1,0,0:2:0:0:
72,201,180678,54,0,L|-18:197,1,72.0000027465821,10|0,0:1|0:2,0:0:0:0:
54,363,181015,53,2,0:2:0:0:
110,287,181183,1,0,0:2:0:0:
128,124,181352,1,8,0:2:0:0:
184,47,181520,1,0,0:2:0:0:
204,299,181689,102,0,P|221:303|258:299,1,48,2|0,0:2|0:2,0:0:0:0:
270,138,181857,2,0,P|252:133|215:137,1,48,2|0,0:2|0:2,0:0:0:0:
72,201,182026,53,8,0:1:0:0:
79,218,182110,1,8,0:2:0:0:
68,265,182194,85,8,0:2:0:0:
75,282,182279,1,8,0:2:0:0:
109,349,182363,70,0,B|106:270|106:270|134:205|134:205|128:124,1,230.4,6|0,3:1|0:2,0:0:0:0:
17,108,182700,2,0,L|76:102,1,38.4,8|0,0:2|0:2,0:0:0:0:
225,45,182869,54,0,B|156:49|156:49|98:24|98:24|28:27,1,201.599993847656,6|0,3:1|0:2,0:0:0:0:
128,124,183206,2,0,L|130:157,1,33.5999989746094,0|0,3:2|0:2,0:0:0:0:
108,347,183374,22,0,L|106:301,1,38.4,14|0,0:1|0:2,0:0:0:0:
383,121,183543,2,0,L|381:167,1,38.4,2|0,3:1|0:2,0:0:0:0:
381,198,183880,54,0,L|382:159,1,38.4,2|0,0:1|0:2,0:0:0:0:
104,270,184048,2,0,L|105:308,1,38.4,6|0,3:1|0:2,0:0:0:0:
256,95,184385,101,8,0:3:0:0:
499,203,184554,38,0,B|437:168|437:168|381:197,1,134.399995898438,6|0,3:1|0:2,0:0:0:0:
417,301,184807,1,8,0:3:0:0:
435,287,184891,2,0,L|436:252,1,33.5999989746094,0|0,0:2|0:2,0:0:0:0:
263,19,185060,54,0,L|254:122,1,76.8,10|0,0:1|0:2,0:0:0:0:
249,365,185228,2,0,L|258:262,1,76.8,2|0,3:1|0:2,0:0:0:0:
256,192,185397,5,0,3:2:0:0:
103,306,185565,70,2,P|23:277|63:202,1,192,2|0,3:2|0:2,0:0:0:0:
63,202,186071,54,2,P|52:275|127:278,1,167.999994873047,2|0,3:2|0:2,0:0:0:0:
127,278,186576,54,2,P|85:230|138:193,1,143.999995605469,2|0,3:2|0:2,0:0:0:0:
138,193,187082,54,2,P|155:243|211:218,1,119.520001732544,2|0,3:2|0:2,0:0:0:0:
283,149,187419,86,0,L|285:100,1,48,2|0,3:1|0:2,0:0:0:0:
139,144,187588,2,0,L|138:192,1,48,8|0,0:3|0:2,0:0:0:0:
285,102,187756,102,0,B|184:119|212:44|108:62,1,187.199991430664,6|0,3:1|0:2,0:0:0:0:
26,91,188093,1,8,0:2:0:0:
132,269,188262,22,0,L|140:135,1,124.79999428711,0|0,3:2|0:2,0:0:0:0:
109,61,188515,1,8,0:3:0:0:
97,38,188599,1,0,3:2:0:0:
12,249,188767,21,10,3:2:0:0:
45,279,188852,1,0,0:2:0:0:
90,287,188936,1,0,0:2:0:0:
132,269,189020,1,0,0:2:0:0:
161,233,189105,22,0,P|192:226|223:231,1,62.3999971435548,2|0,3:1|0:2,0:0:0:0:
122,370,189273,2,0,P|91:376|60:371,1,62.3999971435548,2|0,3:2|0:2,0:0:0:0:
80,204,189442,21,10,0:2:0:0:
195,321,189610,1,0,3:2:0:0:
376,220,189779,21,2,3:2:0:0:
342,188,189863,1,8,3:3:0:0:
297,180,189947,1,0,3:2:0:0:
253,196,190032,1,0,3:2:0:0:
223,231,190116,22,0,B|217:92|217:92|186:146,1,187.199991430664,10|0,0:1|0:2,0:0:0:0:
80,204,190453,22,0,L|82:266,1,62.3999971435548,2|0,3:1|0:2,0:0:0:0:
300,331,190621,2,0,L|302:269,1,62.3999971435548,2|0,3:2|0:2,0:0:0:0:
309,63,190790,21,10,0:2:0:0:
223,231,190958,1,0,3:2:0:0:
191,71,191127,22,0,L|193:133,1,62.3999971435548,2|8,3:2|0:0,0:0:0:0:
302,268,191296,1,0,3:2:0:0:
459,99,191464,22,0,B|436:54|436:54|350:36|350:36|309:63,1,187.199991430664,10|0,0:1|0:2,0:0:0:0:
369,181,191801,22,0,B|380:150|380:150|373:121,1,62.3999971435548,2|0,3:1|0:2,0:0:0:0:
193,133,191970,2,0,B|182:164|182:164|188:192,1,62.3999971435548,2|0,3:2|0:2,0:0:0:0:
302,268,192138,21,8,0:2:0:0:
188,192,192307,2,0,B|157:181|157:181|128:187,1,62.3999971435548,0|8,3:2|0:2,0:0:0:0:
249,329,192475,101,2,3:1:0:0:
302,349,192560,1,8,2:3:0:0:
354,328,192644,1,0,3:2:0:0:
373,121,192812,53,10,0:1:0:0:
302,268,192981,1,2,3:2:0:0:
458,81,193149,86,0,B|437:39|398:16|351:22|316:45|316:45|288:24|255:30,1,230.4,6|0,3:1|0:2,0:0:0:0:
261,143,193487,2,0,L|268:93,1,38.4,8|0,0:2|0:2,0:0:0:0:
90,143,193655,54,0,B|146:134|180:182|180:182|234:193|261:142,1,201.599993847656,6|0,3:1|0:2,0:0:0:0:
179,76,193992,2,0,L|172:26,1,33.5999989746094,0|0,3:2|0:2,0:0:0:0:
102,296,194161,22,0,L|106:257,1,38.4,14|0,0:1|0:2,0:0:0:0:
410,88,194329,2,0,L|405:126,1,38.4,2|0,3:1|0:2,0:0:0:0:
401,165,194666,54,0,L|405:126,1,38.4,2|0,0:1|0:2,0:0:0:0:
111,219,194835,2,0,L|106:257,1,38.4,6|0,3:1|0:2,0:0:0:0:
256,352,195172,101,8,0:3:0:0:
342,194,195340,38,0,B|401:165|401:165|459:203,1,134.399995898438,6|0,3:1|0:2,0:0:0:0:
419,295,195593,1,8,0:3:0:0:
400,283,195678,2,0,L|396:243,1,33.5999989746094,0|0,0:2|0:2,0:0:0:0:
333,42,195846,54,0,L|251:32,1,76.8,10|0,0:1|0:2,0:0:0:0:
179,342,196015,2,0,L|261:352,1,76.8,2|0,3:1|0:2,0:0:0:0:
256,192,196183,5,0,3:2:0:0:
484,96,196520,22,0,B|462:70|467:37|467:37|439:140|482:123|460:202,1,230.4,6|0,3:2|0:2,0:0:0:0:
460,201,196857,2,0,L|377:202,1,76.8,2|0,3:2|0:0,0:0:0:0:
157,98,197026,54,0,B|171:75|170:45|170:45|195:135|157:120|177:189,1,201.599993847656,6|0,3:2|0:2,0:0:0:0:
177,189,197363,2,0,L|260:190,1,67.1999979492188,0|0,3:2|0:0,0:0:0:0:
344,55,197532,5,8,0:3:0:0:
273,64,197644,1,0,3:2:0:0:
317,120,197756,1,0,3:2:0:0:
304,38,197869,53,8,0:3:0:0:
278,104,197981,1,0,3:2:0:0:
348,93,198093,1,0,3:2:0:0:
273,64,198206,54,0,L|196:59,1,76.7999976562501,0|0,3:2|0:2,0:0:0:0:
113,23,198430,1,8,0:3:0:0:
51,92,198543,38,0,B|42:158|42:158|68:230|68:230|59:297,1,211.200006445313,6|8,3:1|0:2,0:0:0:0:
238,202,199048,101,2,0:3:0:0:
225,168,199133,1,0,0:2:0:0:
197,145,199217,1,0,0:2:0:0:
162,140,199301,1,8,0:3:0:0:
128,152,199385,53,0,3:0:0:0:
58,297,199554,2,0,L|51:244,1,52.8000016113282,8|0,0:2|0:2,0:0:0:0:
85,65,199723,53,2,0:2:0:0:
99,59,199807,1,2,0:2:0:0:
114,56,199891,1,2,3:2:0:0:
166,216,200060,53,0,3:2:0:0:
279,91,200228,1,8,0:2:0:0:
114,56,200397,53,0,3:2:0:0:
279,91,200565,2,0,L|339:90,1,52.8000016113282,2|8,0:2|0:2,0:0:0:0:
295,174,200734,6,0,P|263:175|225:154,1,52.8000016113282,2|0,3:1|0:2,0:0:0:0:
243,13,200902,2,0,P|268:6|295:8,1,52.8000016113282,10|0,0:1|0:2,0:0:0:0:
424,117,201071,53,2,0:1:0:0:
424,117,201155,1,2,0:2:0:0:
424,117,201239,2,0,L|431:225,2,105.600003222656,2|0|8,3:2|3:2|0:2,0:0:0:0:
363,269,201745,101,2,3:2:0:0:
390,292,201829,1,0,0:2:0:0:
424,302,201914,1,0,3:2:0:0:
460,298,201998,1,8,0:3:0:0:
491,280,202082,70,0,P|507:250|511:223,1,52.8000016113282,2|0,3:1|0:2,0:0:0:0:
443,68,202251,2,0,P|427:98|423:125,1,52.8000016113282,8|0,0:1|0:2,0:0:0:0:
430,222,202419,53,2,0:1:0:0:
430,222,202503,1,2,0:2:0:0:
430,222,202588,1,2,3:2:0:0:
512,128,202756,1,0,3:2:0:0:
352,40,202925,54,2,B|313:28|272:54|272:54|246:24|246:24|206:52|156:31,1,211.200006445313,10|0,0:2|3:3,0:1:0:0:
210,171,203430,2,0,L|210:103,1,52.8000016113282,2|0,3:1|0:2,0:0:0:0:
26,67,203599,53,10,0:1:0:0:
162,33,203767,1,2,0:1:0:0:
210,171,203936,54,2,B|249:183|290:157|290:157|316:187|316:187|356:159|406:180,1,211.200006445313,2|8,3:2|0:2,0:1:0:0:
398,307,204442,53,2,0:1:0:0:
378,277,204526,1,2,0:2:0:0:
375,243,204610,1,2,0:2:0:0:
387,210,204694,1,0,0:2:0:0:
399,177,204779,1,2,0:2:0:0:
395,142,204863,1,0,0:2:0:0:
376,113,204947,5,10,0:1:0:0:
309,87,205060,53,2,0:1:0:0:
242,61,205172,53,2,0:1:0:0:
175,35,205284,38,0,B|160:35|138:28|138:28|117:37|117:37|99:28|69:29,1,105.600003222656,2|2,3:1|0:2,0:0:0:0:
44,43,205537,1,2,0:2:0:0:
26,69,205621,2,0,L|17:176,1,105.600003222656,10|0,3:1|3:2,0:0:0:0:
179,152,205958,54,0,P|153:145|120:153,1,52.8000016113282,2|8,3:1|0:3,0:0:0:0:
170,257,206127,2,0,L|179:150,1,105.600003222656,2|8,3:1|0:2,0:0:0:0:
138,335,206464,2,0,P|164:342|197:334,1,52.8000016113282,2|0,0:2|0:2,0:0:0:0:
278,285,206633,85,2,3:1:0:0:
304,282,206717,1,0,0:2:0:0:
330,280,206801,1,2,3:2:0:0:
356,278,206885,1,0,0:2:0:0:
373,313,206970,53,10,0:1:0:0:
390,289,207054,1,0,0:2:0:0:
409,267,207138,1,2,3:2:0:0:
428,245,207223,1,0,0:2:0:0:
467,258,207307,53,2,3:1:0:0:
462,226,207391,1,8,0:3:0:0:
459,194,207475,1,2,3:2:0:0:
457,162,207560,1,0,0:2:0:0:
496,141,207644,53,10,0:1:0:0:
468,120,207728,1,0,0:2:0:0:
440,99,207812,1,2,3:2:0:0:
412,78,207897,1,0,0:2:0:0:
425,31,207981,53,2,3:1:0:0:
387,36,208065,1,0,0:2:0:0:
349,41,208149,1,2,3:2:0:0:
310,47,208234,1,0,0:2:0:0:
282,0,208318,53,10,0:1:0:0:
257,32,208402,1,0,0:2:0:0:
231,66,208487,1,0,3:2:0:0:
205,102,208571,1,8,0:3:0:0:
179,138,208655,22,0,P|137:141|97:116,1,52.8000016113282,2|8,3:1|0:3,0:0:0:0:
12,51,208824,2,2,B|53:11|53:11|34:176,1,211.200006445313,2|0,3:2|3:2,0:1:0:0:
88,345,209329,38,0,P|140:331|198:332,1,105.600003222656,4|0,3:2|0:2,0:0:0:0:
271,342,209582,1,0,0:2:0:0:
290,348,209666,1,8,0:2:0:0:
441,292,209835,6,0,B|446:271|441:256|441:256|449:249|449:249|439:222|444:191,1,105.600003222656,2|0,3:1|0:2,0:0:0:0:
499,134,210088,1,8,0:3:0:0:
507,114,210172,38,0,L|508:60,1,52.8000016113282,0|0,3:2|0:2,0:0:0:0:
371,15,210340,1,8,0:2:0:0:
266,171,210509,53,2,0:2:0:0:
250,171,210593,1,2,0:2:0:0:
234,170,210678,1,2,3:2:0:0:
108,73,210846,53,0,3:2:0:0:
255,12,211015,1,8,0:2:0:0:
234,170,211183,6,0,B|229:191|234:206|234:206|226:213|226:213|236:240|230:270,1,105.600003222656,2|0,3:1|3:2,0:0:0:0:
96,257,211520,54,0,L|171:252,1,52.8000016113282,2|0,3:1|0:2,0:0:0:0:
360,291,211689,2,0,L|285:296,1,52.8000016113282,10|0,0:1|0:2,0:0:0:0:
48,330,211857,21,2,0:2:0:0:
29,312,211942,1,0,0:2:0:0:
16,289,212026,53,2,3:1:0:0:
10,263,212110,1,0,0:2:0:0:
11,237,212194,1,2,3:2:0:0:
21,212,212279,1,0,0:2:0:0:
37,191,212363,1,10,0:1:0:0:
63,174,212447,1,0,0:2:0:0:
83,149,212532,1,2,3:2:0:0:
92,119,212616,1,0,0:2:0:0:
92,87,212700,53,2,3:1:0:0:
76,53,212784,1,8,0:3:0:0:
42,35,212869,1,0,0:2:0:0:
5,36,212953,1,0,0:2:0:0:
15,71,213037,1,10,0:1:0:0:
46,99,213121,1,0,0:2:0:0:
88,105,213206,1,2,3:2:0:0:
129,96,213290,1,0,0:2:0:0:
163,71,213374,53,2,3:1:0:0:
209,63,213458,1,0,0:2:0:0:
254,76,213543,1,2,3:2:0:0:
288,108,213627,1,0,0:2:0:0:
296,154,213711,1,10,0:1:0:0:
343,181,213796,1,0,0:2:0:0:
395,169,213880,1,2,3:2:0:0:
423,125,213964,1,8,0:3:0:0:
416,73,214048,53,2,3:1:0:0:
367,39,214133,1,8,2:3:0:0:
309,52,214217,1,2,3:2:0:0:
288,108,214301,1,0,3:3:0:0:
296,154,214385,53,10,0:1:0:0:
272,195,214470,1,0,0:2:0:0:
225,206,214554,1,2,3:2:0:0:
181,187,214638,1,0,0:2:0:0:
162,142,214723,86,2,B|167:97|156:59|141:83|136:31|163:3|163:3|187:32|165:77,1,211.200006445313,2|8,3:2|0:2,0:1:0:0:
0,123,215228,54,2,P|35:86|62:166,1,158.400004833985,2|8,3:2|0:3,0:1:0:0:
12,205,215565,54,0,L|11:258,1,52.8000016113282,10|0,3:1|0:2,0:0:0:0:
108,340,215734,2,0,L|109:287,1,52.8000016113282,10|0,0:1|0:2,0:0:0:0:
227,207,215902,54,0,P|253:203|279:204,1,52.8000016113282,2|0,0:1|0:2,0:0:0:0:
431,313,216071,85,2,3:1:0:0:
433,269,216155,1,0,0:2:0:0:
407,223,216239,53,2,3:2:0:0:
409,179,216324,1,0,0:2:0:0:
375,137,216408,53,10,0:2:0:0:
377,93,216492,1,0,0:2:0:0:
349,46,216576,86,0,P|323:44|297:48,1,52.8000016113282,2|0,3:1|0:2,0:0:0:0:
227,207,216745,2,0,P|253:208|279:204,1,52.8000016113282,2|8,3:1|3:2,0:0:0:0:
229,11,216914,53,2,3:1:0:0:
217,39,216998,1,2,0:2:0:0:
220,70,217082,1,10,0:2:0:0:
279,204,217251,1,2,0:1:0:0:
460,115,217419,54,2,B|411:85|351:118|351:118|298:106|297:49,1,211.200006445313,2|8,3:2|0:2,0:1:0:0:
96,30,217925,85,2,3:1:0:0:
86,65,218009,1,0,0:2:0:0:
40,78,218093,53,2,0:1:0:0:
71,98,218178,1,10,0:3:0:0:
70,145,218262,53,2,0:1:0:0:
98,122,218346,1,2,0:2:0:0:
137,135,218430,22,2,B|152:134|161:137|161:137|170:132|170:132|202:146|242:134,1,105.600003222656,10|0,0:2|0:2,0:1:0:0:
294,71,218683,1,2,0:2:0:0:
296,48,218767,53,2,3:1:0:0:
371,210,218936,1,2,0:1:0:0:
512,34,219105,85,10,0:2:0:0:
471,21,219189,1,0,0:2:0:0:
432,37,219273,54,0,L|423:105,1,52.8000016113282,2|8,3:1|0:3,0:0:0:0:
377,262,219442,2,0,L|368:194,1,52.8000016113282,0|8,3:1|0:3,0:0:0:0:
296,48,219610,6,0,L|287:116,1,52.8000016113282,2|0,3:2|0:2,0:0:0:0:
242,275,219779,2,0,L|233:207,1,52.8000016113282,10|0,0:2|0:2,0:0:0:0:
120,22,219947,22,2,L|120:86,1,33.5999989746094,2|0,0:2|0:2,0:1:0:0:
37,313,220958,54,2,L|104:308,1,67.1999979492188,0|0,0:2|0:2,1:2:0:0:
175,270,221127,85,0,0:2:0:0:
208,272,221211,1,0,0:2:0:0:
242,275,221296,1,0,0:2:0:0:
275,277,221380,1,0,0:2:0:0:
309,280,221464,37,6,3:2:0:0:
412,96,221633,1,0,1:2:0:0:
416,308,221801,53,10,0:2:0:0:
306,128,221970,1,2,0:2:0:0:
175,270,222138,53,2,0:2:0:0:
226,53,222307,1,2,3:2:0:0:
387,201,222475,53,10,0:2:0:0:
226,53,222644,2,0,P|180:34|116:42,1,105.600003222656,2|0,0:2|3:2,0:0:0:0:
159,174,222981,53,2,3:2:0:0:
306,128,223149,2,0,P|330:85|330:21,1,105.600003222656,10|0,0:2|0:2,0:0:0:0:
125,39,223487,53,2,0:2:0:0:
306,128,223655,2,0,L|428:136,2,105.600003222656,2|8|0,3:2|0:2|0:2,0:0:0:0:
159,174,224161,53,2,3:2:0:0:
226,53,224329,1,2,1:2:0:0:
254,217,224498,53,10,0:2:0:0:
226,53,224666,2,0,P|178:34|126:39,1,105.600003222656,2|0,0:2|0:2,0:0:0:0:
19,189,225003,53,0,3:2:0:0:
125,39,225172,1,8,0:2:0:0:
254,217,225340,2,0,P|302:236|354:231,1,105.600003222656,2|0,0:2|3:2,0:0:0:0:
324,75,225678,54,0,P|316:100|318:127,1,52.8000016113282,2|0,1:2|3:2,0:0:0:0:
354,231,225846,2,0,P|366:281|353:332,1,105.600003222656,10|0,0:2|3:2,0:0:0:0:
280,358,226099,1,8,0:3:0:0:
259,364,226183,53,10,0:3:0:0:
128,328,226352,2,0,L|22:321,1,105.600003222656,2|8,3:2|0:2,0:0:0:0:
119,107,226689,1,2,0:2:0:0:
354,231,226857,22,0,B|306:259|306:259|210:233|210:233|187:182,1,211.200006445313,6|8,3:2|0:2,0:0:0:0:
291,53,227363,2,0,B|302:107|302:107|284:155,1,105.600003222656,2|0,0:2|0:2,0:0:0:0:
119,107,227700,2,0,B|108:53|108:53|126:5,1,105.600003222656,2|8,3:2|0:2,0:0:0:0:
284,155,228037,54,0,B|310:160|310:160|336:157,1,52.8000016113282,2|0,0:2|0:2,0:0:0:0:
490,75,228206,2,0,B|436:64|436:64|388:82,1,105.600003222656,2|0,3:2|0:2,0:0:0:0:
190,61,228543,2,0,B|243:71|243:71|291:53,1,105.600003222656,8|0,0:2|0:2,0:0:0:0:
445,156,228880,2,0,B|450:182|450:182|447:208,1,52.8000016113282,2|8,3:2|0:3,0:0:0:0:
310,292,229048,21,2,3:2:0:0:
388,82,229217,1,10,0:2:0:0:
444,316,229385,1,2,0:2:0:0:
339,157,229554,38,0,P|314:142|286:137,1,57.5999982421876,6|0,3:2|0:2,0:0:0:0:
207,199,229723,2,0,P|206:227|216:254,1,57.5999982421876,2|0,3:2|0:2,0:0:0:0:
310,292,229891,2,0,P|334:277|353:256,1,57.5999982421876,10|0,0:2|0:2,0:0:0:0:
285,216,230060,54,0,B|255:190|206:199|206:199|159:232|107:207,1,172.799994726563,6|0,3:2|0:2,0:0:0:0:
42,155,230397,21,2,3:2:0:0:
85,342,230565,1,10,0:2:0:0:
150,123,230734,1,2,3:2:0:0:
425,358,230902,101,6,3:1:0:0:
309,90,231071,1,2,0:2:0:0:
213,319,231239,1,10,0:2:0:0:
201,39,231408,53,2,3:1:0:0:
324,310,231576,1,2,0:2:0:0:
413,78,231745,1,2,3:2:0:0:
213,319,231914,21,2,1:1:0:0:
274,18,232082,1,10,0:2:0:0:
429,208,232251,6,2,L|323:211,1,62.3999971435548,2|0,3:2|0:2,1:2:0:0:
81,174,232419,2,2,L|187:171,1,62.3999971435548,2|0,0:2|0:2,1:2:0:0:
319,338,232588,54,2,L|294:297,1,48,2|0,0:2|0:2,1:2:0:0:
190,43,232756,2,2,L|215:84,1,48,2|0,0:2|0:2,1:2:0:0:
166,308,232925,102,0,L|182:279,1,33.5999989746094,2|0,0:2|0:2,1:2:0:0:
342,73,233093,38,0,L|326:102,1,33.5999989746094,6|0,0:2|0:2,0:2:0:0:
256,192,233599,53,4,3:2:0:0:
84,109,236296,118,0,P|151:117|190:53,1,144,2|0,0:2|0:2,0:0:0:0:
428,109,238992,118,0,P|361:117|322:53,1,144,2|0,0:2|0:2,0:0:0:0:
192,288,242194,117,2,0:2:0:0:
256,192,242700,53,2,0:2:0:0:
320,288,243206,53,2,0:2:0:0:
320,64,244048,86,2,B|256:32|256:32|192:64,1,144.000005493164,6|0,0:2|3:3,1:2:0:0:
256,192,244385,53,6,3:2:0:0:
150,345,247082,22,0,P|160:269|84:268,1,172.799994726563,2|0,0:2|0:2,0:0:0:0:
363,346,249779,118,0,P|351:270|428:269,1,172.799994726563,2|0,0:2|0:2,0:0:0:0:
256,192,250453,12,0,255003,0:2:0:0:
373,134,255172,54,0,P|373:100|364:68,1,67.1999979492188,6|0,3:1|0:2,0:0:0:0:
256,192,255509,53,2,0:1:0:0:
386,166,255678,2,0,P|394:134|393:101,1,67.1999979492188,2|0,0:2|0:2,0:0:0:0:
241,199,256015,53,2,0:1:0:0:
389,201,256183,2,0,P|405:173|412:141,1,67.1999979492188,2|0,0:1|0:2,0:0:0:0:
226,206,256520,53,2,0:1:0:0:
383,236,256689,2,0,P|406:211|421:181,1,67.1999979492188,2|0,0:1|0:2,0:0:0:0:
211,213,257026,53,2,0:1:0:0:
370,268,257194,2,0,P|397:251|419:226,1,67.1999979492188,2|0,0:1|0:2,0:0:0:0:
379,38,257532,54,0,P|351:54|329:79,1,67.1999979492188,2|0,0:1|0:2,0:0:0:0:
183,80,257869,54,0,P|161:55|133:38,1,67.1999979492188,2|0,0:1|0:2,0:0:0:0:
211,213,258206,53,2,0:1:0:0:
158,86,258374,2,0,P|129:68|97:59,1,67.1999979492188,2|0,0:1|0:2,0:0:0:0:
226,206,258711,53,2,0:1:0:0:
133,99,258880,2,0,P|101:88|67:89,1,67.1999979492188,2|0,0:1|0:2,0:0:0:0:
241,199,259217,53,2,0:1:0:0:
112,118,259385,2,0,P|78:116|46:125,1,67.1999979492188,2|0,0:1|0:2,0:0:0:0:
256,192,259723,53,2,0:1:0:0:
96,141,259891,2,0,P|63:148|34:165,1,67.1999979492188,2|0,0:1|0:2,0:0:0:0:
40,269,260228,54,0,P|72:261|101:244,1,67.1999979492188,2|0,0:2|0:2,0:0:0:0:
201,87,260565,54,0,L|207:20,1,67.1999979492188,2|0,0:1|0:2,0:0:0:0:
96,141,260902,53,2,0:1:0:0:
212,109,261071,2,0,L|235:45,1,67.1999979492188,2|0,0:1|0:2,0:0:0:0:
82,131,261408,53,2,0:1:0:0:
216,133,261576,2,0,L|254:77,1,67.1999979492188,2|0,0:1|0:2,0:0:0:0:
71,117,261914,53,2,0:1:0:0:
213,157,262082,2,0,L|264:113,1,67.1999979492188,2|0,0:1|0:2,0:0:0:0:
63,100,262419,53,2,0:1:0:0:
203,179,262588,2,0,L|263:149,1,67.1999979492188,2|0,0:1|0:2,0:0:0:0:
455,123,262925,54,0,L|394:94,1,67.1999979492188,2|0,0:1|0:2,0:0:0:0:
394,290,263262,54,0,L|454:260,1,67.1999979492188,2|0,0:1|0:2,0:0:0:0:
296,302,263599,53,2,0:1:0:0:
429,307,263767,2,0,L|480:263,1,67.1999979492188,2|0,0:1|0:2,0:0:0:0:
288,317,264105,53,2,0:1:0:0:
464,310,264273,2,0,L|503:255,1,67.1999979492188,2|0,0:1|0:2,0:0:0:0:
256,192,264610,5,2,0:1:0:0:
394,94,264779,2,2,B|406:64|406:64|402:29,1,67.1999979492188,2|0,0:2|0:2,0:1:0:0:
256,192,265116,53,2,0:1:0:0:
118,94,265284,2,2,B|105:64|105:64|109:29,1,67.1999979492188,2|0,0:2|0:2,0:1:0:0:
256,192,265621,21,0,0:1:0:0:
223,64,265790,1,8,0:2:0:0:
255,56,265874,1,8,0:2:0:0:
288,64,265958,53,6,3:1:0:0:
256,192,266127,1,2,0:2:0:0:
118,94,266296,5,10,0:2:0:0:
51,226,266464,2,0,P|47:265|48:303,1,76.8,2|0,0:1|0:2,0:0:0:0:
136,99,266801,53,2,0:1:0:0:
42,207,266970,2,0,P|28:242|19:280,1,76.8,10|0,0:2|0:2,0:0:0:0:
152,108,267307,53,2,0:1:0:0:
38,185,267475,2,0,P|15:216|-2:249,1,76.8,2|8,0:1|0:2,0:0:0:0:
165,120,267812,53,2,0:1:0:0:
39,162,267981,1,2,0:1:0:0:
81,78,268149,1,2,0:2:0:0:
123,204,268318,1,10,0:2:0:0:
207,36,268487,101,8,0:2:0:0:
225,31,268571,1,8,0:2:0:0:
244,29,268655,1,2,0:1:0:0:
307,103,268824,1,2,0:2:0:0:
409,5,268992,69,10,0:2:0:0:
447,141,269161,2,0,P|444:179|437:216,1,76.8,2|0,0:1|0:2,0:0:0:0:
423,18,269498,53,2,0:1:0:0:
472,166,269666,2,0,P|463:203|450:239,1,76.8,10|0,0:2|0:2,0:0:0:0:
433,34,270003,53,2,0:1:0:0:
494,196,270172,2,0,P|481:232|464:266,1,76.8,2|8,0:1|0:2,0:0:0:0:
438,52,270509,53,2,0:1:0:0:
512,228,270678,2,0,P|494:262|473:293,1,76.8,2|0,0:1|0:2,0:0:0:0:
256,320,271015,54,0,P|294:318|331:321,1,76.8,10|0,0:2|0:2,0:0:0:0:
406,344,271267,1,8,0:2:0:0:
418,358,271352,37,2,3:2:0:0:
392,232,271520,1,2,0:2:0:0:
256,320,271689,5,10,0:2:0:0:
163,226,271857,2,0,L|148:143,1,76.8,2|0,0:1|0:2,0:0:0:0:
266,303,272194,53,2,0:1:0:0:
146,242,272363,2,0,L|113:172,1,76.8,10|0,0:2|0:2,0:0:0:0:
276,286,272700,53,2,0:1:0:0:
133,261,272869,2,0,L|83:202,1,76.8,2|8,0:1|0:2,0:0:0:0:
286,269,273206,53,2,0:1:0:0:
125,282,273374,1,2,0:1:0:0:
237,194,273543,1,2,0:2:0:0:
174,357,273711,1,10,0:2:0:0:
303,261,273880,37,8,0:2:0:0:
321,257,273964,1,8,0:2:0:0:
340,257,274048,1,2,0:1:0:0:
432,322,274217,1,2,0:2:0:0:
467,144,274385,69,10,0:2:0:0:
340,257,274554,2,0,L|250:246,1,76.8,2|0,0:1|0:2,0:0:0:0:
479,158,274891,53,2,0:1:0:0:
326,229,275060,2,0,L|238:207,1,76.8,10|0,0:2|0:2,0:0:0:0:
497,258,275397,5,2,0:1:0:0:
375,127,275565,2,2,B|366:90|366:90|383:38,1,76.8,2|8,0:2|0:2,0:1:0:0:
497,258,275902,53,2,0:1:0:0:
375,127,276071,2,2,B|338:114|338:114|301:123,1,76.8,2|0,0:2|0:2,0:1:0:0:
137,252,276408,85,10,0:2:0:0:
108,256,276492,1,8,0:2:0:0:
81,249,276576,1,8,0:2:0:0:
59,231,276661,1,8,0:2:0:0:
46,205,276745,53,6,3:2:0:0:
69,344,276914,1,2,0:2:0:0:
231,177,277082,69,10,0:2:0:0:
332,324,277251,2,0,P|375:330|415:315,1,86.3999973632813,2|0,0:1|0:2,0:0:0:0:
217,190,277588,53,0,0:1:0:0:
349,304,277756,2,0,P|391:299|425:274,1,86.3999973632813,10|0,0:2|0:2,0:0:0:0:
202,204,278093,53,2,0:1:0:0:
359,280,278262,2,0,P|398:264|425:231,1,86.3999973632813,2|8,0:1|0:2,0:0:0:0:
187,218,278599,53,2,0:1:0:0:
362,254,278767,1,0,0:1:0:0:
241,122,278936,1,2,0:2:0:0:
261,299,279105,1,10,0:2:0:0:
348,144,279273,101,8,0:2:0:0:
352,122,279357,1,8,0:2:0:0:
351,100,279442,1,10,3:1:0:0:
276,15,279610,1,2,0:2:0:0:
187,218,279779,69,10,0:2:0:0:
41,122,279947,2,0,P|27:81|32:36,1,86.3999973632813,2|0,0:1|0:2,0:0:0:0:
198,200,280284,53,2,0:1:0:0:
34,165,280453,2,0,P|9:129|3:84,1,86.3999973632813,10|0,0:2|0:2,0:0:0:0:
209,182,280790,53,2,0:1:0:0:
38,208,280958,2,0,P|5:179|-12:137,1,86.3999973632813,2|8,0:1|0:2,0:0:0:0:
220,164,281296,53,2,0:1:0:0:
53,249,281464,1,2,0:1:0:0:
151,110,281633,1,2,0:2:0:0:
122,303,281801,1,10,0:2:0:0:
289,218,281970,101,8,0:2:0:0:
309,212,282054,1,8,0:2:0:0:
329,210,282138,2,0,P|376:213|420:233,1,96,2|0,3:1|0:2,0:0:0:0:
270,97,282475,69,10,0:2:0:0:
311,301,282644,2,0,P|353:322|401:327,1,96,2|0,0:2|0:2,0:0:0:0:
270,97,282981,53,2,0:1:0:0:
311,301,283149,1,8,0:0:0:0:
113,234,283318,1,2,0:2:0:0:
270,97,283487,102,0,P|312:75|360:70,1,96,2|0,3:1|0:2,0:0:0:0:
165,54,283824,69,10,0:2:0:0:
295,189,283992,2,0,P|342:184|384:161,1,96,2|0,0:1|0:2,0:0:0:0:
165,54,284329,53,2,0:1:0:0:
113,234,284498,1,10,0:2:0:0:
49,57,284666,1,2,0:2:0:0:
56,308,284835,102,0,P|93:327|157:317,1,96,2|0,3:1|0:2,0:0:0:0:
463,57,285172,69,10,0:2:0:0:
456,308,285340,2,0,P|419:327|355:317,1,96,2|0,0:1|0:2,0:0:0:0:
335,57,285678,53,2,0:1:0:0:
399,234,285846,1,10,0:2:0:0:
463,57,286015,1,2,0:2:0:0:
456,308,286183,102,0,P|419:327|355:317,1,96,2|0,3:1|0:2,0:0:0:0:
188,74,286520,5,10,0:2:0:0:
399,234,286689,2,0,P|412:188|398:143,1,96,2|0,0:1|0:2,0:0:0:0:
93,124,287026,53,2,0:1:0:0:
302,192,287194,1,10,0:2:0:0:
100,24,287363,85,8,0:2:0:0:
60,30,287447,1,8,0:2:0:0:
32,52,287532,2,0,P|6:90|4:155,1,105.600003222656,6|0,3:1|0:2,0:0:0:0:
302,192,287869,85,10,0:2:0:0:
93,124,288037,1,2,0:2:0:0:
287,207,288206,53,2,3:2:0:0:
108,109,288374,1,2,0:2:0:0:
272,222,288543,53,10,0:2:0:0:
123,94,288711,1,2,0:2:0:0:
411,37,288880,22,0,P|427:87|414:138,1,105.600003222656,2|2,3:1|0:2,0:0:0:0:
138,79,289217,21,10,0:2:0:0:
318,87,289385,1,2,0:2:0:0:
123,94,289554,53,2,3:2:0:0:
303,72,289723,1,2,0:2:0:0:
108,109,289891,53,10,0:2:0:0:
288,57,290060,1,2,0:2:0:0:
103,211,290228,86,0,P|83:263|103:316,1,115.199996484375,2|0,3:1|0:2,0:0:0:0:
364,278,290565,85,10,0:2:0:0:
162,264,290734,1,2,0:2:0:0:
355,299,290902,53,2,3:2:0:0:
171,243,291071,1,2,0:2:0:0:
346,320,291239,53,10,0:2:0:0:
180,222,291408,1,2,0:2:0:0:
441,142,291576,22,0,P|461:89|441:37,1,115.199996484375,2|0,3:1|0:2,0:0:0:0:
208,53,291914,21,10,0:2:0:0:
382,89,292082,1,2,0:2:0:0:
220,33,292251,53,2,3:2:0:0:
370,109,292419,1,2,0:2:0:0:
232,13,292588,53,10,0:2:0:0:
358,129,292756,1,2,0:2:0:0:
93,151,292925,37,10,0:1:0:0:
286,79,293093,1,0,3:0:0:0:
148,225,293262,53,10,0:2:0:0:
232,13,293430,1,0,3:2:0:0:
239,237,293599,53,10,0:1:0:0:
146,3,293767,1,0,3:2:0:0:
311,181,293936,53,10,0:2:0:0:
78,56,294105,1,0,3:2:0:0:
126,338,294273,53,10,0:1:0:0:
240,123,294441,1,0,3:0:0:0:
48,280,294610,53,10,0:2:0:0:
311,181,294778,1,0,3:2:0:0:
35,183,294947,53,10,0:1:0:0:
321,272,295115,1,0,3:2:0:0:
102,110,295284,53,10,0:2:0:0:
265,344,295453,1,0,3:2:0:0:
243,40,295621,86,0,L|248:122,1,62.3999971435548,10|0,3:1|3:2,0:0:0:0:
265,344,295790,2,0,L|260:262,1,62.3999971435548,10|0,3:2|3:2,0:0:0:0:
171,40,295958,54,0,L|175:107,1,67.1999979492188,10|0,3:1|3:2,0:0:0:0:
194,354,296127,2,0,L|189:286,1,67.1999979492188,10|0,3:2|3:2,0:0:0:0:
98,39,296296,54,0,L|102:110,1,72.0000027465821,10|0,3:1|3:2,0:0:0:0:
121,365,296464,2,0,L|116:293,1,72.0000027465821,10|0,3:2|3:2,0:0:0:0:
24,37,296633,54,0,L|29:113,1,76.8,10|0,3:1|3:2,0:0:0:0:
48,370,296801,2,0,L|43:294,1,76.8,10|0,3:2|3:2,0:0:0:0:
102,110,296970,21,10,3:1:0:0:
148,91,297054,1,0,3:2:0:0:
201,92,297138,1,10,3:2:0:0:
251,110,297223,1,0,3:2:0:0:
288,148,297307,53,10,3:1:0:0:
329,187,297391,1,0,3:2:0:0:
380,210,297475,1,10,3:2:0:0:
437,210,297560,1,0,3:2:0:0:
491,191,297644,85,10,3:1:0:0:
457,142,297728,1,0,3:2:0:0:
403,115,297812,1,10,3:2:0:0:
343,121,297897,1,0,3:2:0:0:
288,148,297981,53,10,3:1:0:0:
239,206,298065,1,0,3:2:0:0:
167,227,298149,1,10,3:2:0:0:
97,207,298234,1,0,3:2:0:0:
49,148,298318,6,2,B|96:116|96:116|54:285,1,216.000008239746,2|0,0:2|0:2,0:1:0:0:
58,360,298655,54,2,P|86:351|125:352,1,48,0|0,2:2|0:2,0:1:0:0:
179,305,298824,54,2,P|207:314|246:313,1,48,0|0,0:2|0:2,0:1:0:0:
312,357,298992,54,2,P|340:348|379:349,1,48,0|0,0:2|0:2,0:1:0:0:
438,273,299161,54,2,P|466:282|505:281,1,48,0|0,0:2|0:2,0:1:0:0:
482,154,299329,86,2,B|473:146|460:147|460:147|436:149|414:133|414:133|390:143|355:132,1,122.400002334595,6|0,0:2|0:2,1:1:0:0:
290,59,299666,6,0,B|192:36|193:100|93:67,1,201.599993847656,6|0,3:1|0:2,0:0:0:0:
14,80,300003,22,0,P|16:47|30:17,1,67.1999979492188,10|0,0:1|0:0,0:0:0:0:
140,161,300172,1,2,3:1:0:0:
140,161,300256,1,0,0:0:0:0:
140,161,300340,2,0,P|137:194|123:224,1,67.1999979492188,0|8,0:2|0:3,0:0:0:0:
0,298,300509,22,0,P|30:283|63:280,1,67.1999979492188,2|0,3:1|0:0,0:0:0:0:
198,340,300678,2,0,B|242:346|242:346|290:324|290:324|343:331,1,134.399995898438,10|0,3:1|0:2,0:0:0:0:
402,351,300930,1,0,0:2:0:0:
424,360,301015,22,0,L|427:280,1,67.1999979492188,2|0,3:1|0:2,0:0:0:0:
378,144,301183,2,0,L|375:211,1,67.1999979492188,2|0,3:1|0:2,0:0:0:0:
326,328,301352,1,10,0:2:0:0:
280,189,301520,101,2,3:2:0:0:
258,182,301605,1,0,0:0:0:0:
233,141,301689,53,2,3:1:0:0:
212,144,301773,1,8,3:3:0:0:
179,169,301857,53,0,3:2:0:0:
162,165,301942,1,0,3:2:0:0:
115,113,302026,54,0,B|146:97|146:97|146:232|146:232|120:219,1,201.599993847656,10|0,0:1|0:2,0:0:0:0:
0,161,302363,102,0,B|33:156|33:156|63:170,1,67.1999979492188,2|0,3:1|0:2,0:0:0:0:
170,306,302532,2,0,B|136:310|136:310|106:296,1,67.1999979492188,2|0,3:2|0:2,0:0:0:0:
115,113,302700,21,10,0:1:0:0:
17,311,302869,1,2,3:1:0:0:
17,311,302953,1,0,0:0:0:0:
17,311,303037,2,0,L|22:228,1,67.1999979492188,2|8,3:2|0:0,0:0:0:0:
206,158,303206,22,0,L|210:225,1,67.1999979492188,2|0,3:2|0:0,0:0:0:0:
381,80,303374,2,0,B|328:68|287:110|287:110|257:63|206:63,1,201.599993847656,10|0,0:1|0:2,0:0:0:0:
364,239,303711,22,0,L|359:171,1,67.1999979492188,2|0,3:1|0:2,0:0:0:0:
210,225,303880,2,0,L|214:292,1,67.1999979492188,2|0,3:1|0:2,0:0:0:0:
371,353,304048,21,10,0:2:0:0:
359,171,304217,2,0,P|320:160|270:167,1,67.1999979492188,2|8,3:2|0:2,0:0:0:0:
266,349,304385,101,2,3:1:0:0:
212,366,304470,1,8,2:3:0:0:
161,343,304554,1,0,3:2:0:0:
109,165,304723,53,10,0:1:0:0:
214,292,304891,1,2,3:2:0:0:
241,91,305060,86,0,B|212:34|212:34|186:225,1,244.80000466919,6|0,3:1|0:2,0:0:0:0:
271,226,305397,2,0,L|311:232,1,38.4,10|0,0:1|0:2,0:0:0:0:
243,107,305565,54,0,B|218:58|218:58|196:219,1,216.000008239746,6|0,3:1|0:2,0:0:0:0:
214,292,305902,2,0,L|247:296,1,33.5999989746094,2|0,3:1|0:2,0:0:0:0:
381,115,306071,22,0,L|375:78,1,38.4,14|0,0:1|0:2,0:0:0:0:
131,269,306239,2,0,L|138:307,1,38.4,2|0,3:1|0:2,0:0:0:0:
91,74,306408,69,2,3:1:0:0:
124,231,306576,102,0,L|130:268,1,38.4,2|0,0:2|0:2,0:0:0:0:
388,153,306745,2,0,L|381:115,1,38.4,6|0,3:1|0:2,0:0:0:0:
179,142,307082,69,10,0:1:0:0:
303,262,307251,70,0,B|369:294|369:294|429:257,1,144.000005493164,6|0,3:1|0:2,0:0:0:0:
388,153,307503,1,8,0:3:0:0:
369,166,307588,2,0,L|365:227,1,33.5999989746094,2|0,0:1|0:2,0:0:0:0:
235,362,307756,54,0,L|221:260,1,81.6000015563965,10|0,0:1|0:2,0:0:0:0:
277,22,307925,2,0,L|291:124,1,81.6000015563965,2|0,3:1|0:2,0:0:0:0:
256,192,308093,5,0,3:2:0:0:
131,66,308262,70,2,B|97:25|97:25|88:164,1,192,2|0,3:1|0:2,0:0:0:0:
181,174,308767,54,2,B|205:134|205:134|88:164,1,167.999994873047,2|0,3:1|0:2,0:0:0:0:
113,247,309273,54,2,B|146:256|146:256|88:164,1,143.999995605469,2|0,3:1|0:2,0:0:0:0:
28,209,309779,54,2,B|27:235|27:235|88:164,1,119.520001732544,2|0,3:1|0:2,0:0:0:0:
132,67,310116,86,0,P|109:60|58:64,1,48,2|0,3:1|0:2,0:0:0:0:
112,246,310284,2,0,P|135:253|186:249,1,48,8|0,0:3|0:2,0:0:0:0:
295,99,310453,102,0,B|267:51|267:51|173:37|173:37|130:68,1,201.599993847656,6|0,3:1|0:2,0:0:0:0:
194,184,310790,22,0,B|207:153|207:153|204:109,1,67.1999979492188,10|0,0:1|0:0,0:0:0:0:
22,14,310958,1,2,3:1:0:0:
22,14,311043,1,0,0:0:0:0:
22,14,311127,2,0,B|9:45|9:45|12:89,1,67.1999979492188,0|8,0:2|0:3,0:0:0:0:
44,250,311296,22,0,L|112:245,1,67.1999979492188,2|0,3:1|0:0,0:0:0:0:
332,105,311464,2,0,B|297:99|297:99|242:124|242:124|204:119,1,134.399995898438,10|0,3:1|0:2,0:0:0:0:
150,57,311717,1,0,0:2:0:0:
161,36,311801,22,0,B|228:47,1,67.1999979492188,2|0,3:1|0:2,0:0:0:0:
371,187,311970,2,0,B|304:176,1,67.1999979492188,2|0,3:1|0:2,0:0:0:0:
111,245,312138,1,10,0:2:0:0:
302,289,312307,101,2,3:2:0:0:
318,303,312391,1,0,0:0:0:0:
352,270,312475,53,2,3:1:0:0:
360,291,312560,1,8,3:3:0:0:
399,277,312644,53,2,3:2:0:0:
390,298,312728,1,0,3:2:0:0:
360,373,312812,54,0,B|345:314|345:314|386:246|386:246|370:186,1,201.599993847656,10|0,0:1|0:2,0:0:0:0:
352,88,313149,102,0,B|384:82|384:82|414:96,1,67.1999979492188,2|0,3:1|0:2,0:0:0:0:
276,233,313318,2,0,B|243:238|243:238|213:224,1,67.1999979492188,2|0,3:2|0:2,0:0:0:0:
269,30,313487,21,10,0:1:0:0:
377,194,313655,1,2,3:1:0:0:
377,194,313739,1,0,0:0:0:0:
377,194,313824,2,0,L|382:277,1,67.1999979492188,2|8,3:2|0:0,0:0:0:0:
118,200,313992,22,0,L|122:132,1,67.1999979492188,2|0,3:2|0:0,0:0:0:0:
352,88,314161,2,0,B|311:118|311:118|212:109|212:109|178:70,1,201.599993847656,10|0,0:1|0:2,0:0:0:0:
34,51,314498,22,0,B|66:42|66:42|100:50,1,67.1999979492188,2|0,3:1|0:2,0:0:0:0:
74,271,314666,2,0,B|42:280|42:280|8:272,1,67.1999979492188,2|0,3:1|0:2,0:0:0:0:
122,132,314835,21,10,0:2:0:0:
220,254,315003,2,0,L|293:259,1,67.1999979492188,2|8,3:2|0:2,0:0:0:0:
415,34,315172,101,2,3:1:0:0:
364,8,315256,1,8,2:3:0:0:
310,21,315340,1,0,3:2:0:0:
287,258,315509,53,10,0:1:0:0:
352,88,315678,1,2,3:2:0:0:
386,313,315846,86,0,B|417:342|417:342|436:189|436:189|394:209,1,244.80000466919,6|0,3:1|0:2,0:0:0:0:
287,258,316183,2,0,L|325:255,1,38.4,10|0,0:1|0:2,0:0:0:0:
220,202,316352,54,0,B|192:175|192:175|174:313|174:313|208:297,1,216.000008239746,6|0,3:1|0:2,0:0:0:0:
282,339,316689,2,0,L|320:341,1,33.5999989746094,2|0,3:1|0:2,0:0:0:0:
430,108,316857,22,0,L|436:64,1,38.4,14|0,0:1|0:2,0:0:0:0:
77,69,317026,2,0,L|83:108,1,38.4,2|0,3:1|0:2,0:0:0:0:
175,312,317194,69,2,3:1:0:0:
77,145,317363,102,0,L|82:106,1,38.4,2|0,0:2|0:2,0:0:0:0:
430,108,317532,2,0,L|437:146,1,38.4,6|0,3:1|0:2,0:0:0:0:
175,312,317869,69,10,0:1:0:0:
442,271,318037,70,0,B|474:205|474:205|437:145,1,144.000005493164,6|0,3:1|0:2,0:0:0:0:
334,187,318290,1,8,0:3:0:0:
347,206,318374,2,0,L|408:210,1,33.5999989746094,2|0,0:1|0:2,0:0:0:0:
212,27,318543,54,0,L|224:129,1,81.6000015563965,10|0,0:1|0:2,0:0:0:0:
299,356,318711,2,0,L|287:254,1,81.6000015563965,2|0,3:1|0:2,0:0:0:0:
256,192,318880,5,0,3:2:0:0:
99,328,319048,53,2,0:1:0:0:
44,115,319217,86,0,B|103:68|103:68|75:226,1,230.4,6|0,3:2|0:2,0:0:0:0:
0,223,319554,2,0,L|76:220,1,76.8,2|0,3:2|0:0,0:0:0:0:
287,95,319723,54,0,B|230:50|230:50|257:201,1,216.000008239746,6|0,3:2|0:2,0:0:0:0:
327,193,320060,2,0,L|246:190,1,72.0000027465821,0|0,3:2|0:0,0:0:0:0:
102,114,320228,5,8,0:3:0:0:
161,60,320340,1,0,3:2:0:0:
175,139,320453,1,0,3:2:0:0:
116,67,320565,53,8,0:3:0:0:
191,95,320678,1,0,3:2:0:0:
129,145,320790,1,0,3:2:0:0:
161,60,320902,54,0,B|195:48|195:48|247:68,1,76.7999976562501,0|0,3:2|0:2,0:0:0:0:
320,97,321127,1,8,0:3:0:0:
418,52,321239,38,0,B|448:23|448:23|479:95|435:150,1,158.400004833985,6|0,3:1|0:2,0:0:0:0:
437,154,321576,1,10,0:1:0:0:
312,273,321745,54,0,B|297:225|297:225|316:174,1,105.600003222656,2|0,3:1|0:2,0:0:0:0:
378,229,321998,1,8,0:2:0:0:
393,243,322082,2,0,P|444:255|492:238,1,105.600003222656,2|8,3:1|0:2,0:0:0:0:
467,81,322419,53,2,0:1:0:0:
456,92,322503,1,2,0:2:0:0:
445,103,322588,2,0,L|440:155,1,52.8000016113282,2|0,3:2|0:2,0:0:0:0:
488,338,322756,2,0,P|505:288|492:238,1,105.600003222656,2|8,3:1|0:2,0:0:0:0:
359,127,323093,53,2,3:1:0:0:
359,127,323178,1,2,0:2:0:0:
359,127,323262,2,0,L|307:125,1,52.8000016113282,2|8,3:2|0:2,0:0:0:0:
360,279,323430,2,0,L|413:282,1,52.8000016113282,2|0,3:2|0:2,0:0:0:0:
439,155,323599,1,8,0:2:0:0:
280,215,323767,53,2,0:2:0:0:
258,212,323852,1,2,0:2:0:0:
237,209,323936,2,0,B|203:205|181:177|181:177|166:191|146:194,1,105.600003222656,2|0,3:1|3:2,0:0:0:0:
27,241,324273,1,10,0:1:0:0:
140,88,324442,54,0,L|146:204,1,105.600003222656,2|0,3:1|3:3,0:0:0:0:
169,269,324694,1,8,0:2:0:0:
181,286,324779,2,0,P|231:303|281:290,1,105.600003222656,2|8,3:1|0:2,0:0:0:0:
264,134,325116,53,2,0:1:0:0:
253,145,325200,1,2,0:2:0:0:
242,156,325284,2,0,L|237:208,1,52.8000016113282,2|0,3:2|0:2,0:0:0:0:
380,294,325453,2,0,P|330:277|280:290,1,105.600003222656,2|8,3:1|3:2,0:0:0:0:
140,347,325790,53,2,3:1:0:0:
171,323,325874,1,0,0:3:0:0:
181,286,325958,1,2,3:2:0:0:
167,250,326043,1,8,0:3:0:0:
134,230,326127,2,0,P|121:179|138:130,1,105.600003222656,2|10,3:1|0:2,0:0:0:0:
307,185,326464,54,0,P|336:190|364:185,1,52.8000016113282,2|0,0:2|0:2,0:0:0:0:
334,81,326633,69,2,3:1:0:0:
280,289,326801,1,2,0:2:0:0:
255,80,326970,53,10,0:1:0:0:
261,279,327138,1,2,3:2:0:0:
183,110,327307,53,2,0:1:0:0:
242,269,327475,1,2,3:2:0:0:
127,164,327644,53,10,0:1:0:0:
223,259,327812,1,2,0:2:0:0:
52,182,327981,53,2,3:1:0:0:
242,269,328149,1,2,3:2:0:0:
109,89,328318,53,10,0:1:0:0:
261,279,328487,2,0,P|305:284|362:257,1,105.600003222656,2|0,0:1|3:2,0:0:0:0:
402,193,328739,1,8,0:2:0:0:
408,172,328824,102,0,L|414:52,1,105.600003222656,2|8,3:1|0:2,0:0:0:0:
217,35,329161,53,2,0:2:0:0:
297,190,329329,1,2,3:1:0:0:
316,20,329498,53,2,3:1:0:0:
316,20,329582,1,2,0:2:0:0:
316,20,329666,1,10,0:2:0:0:
211,135,329835,2,0,B|156:146|156:146|107:131,1,105.600003222656,2|0,3:1|3:2,0:0:0:0:
48,85,330088,1,8,0:2:0:0:
37,67,330172,53,2,0:1:0:0:
95,211,330340,1,10,0:2:0:0:
164,41,330509,53,2,3:1:0:0:
108,131,330678,1,2,3:2:0:0:
238,53,330846,53,2,0:1:0:0:
48,85,331015,1,10,0:2:0:0:
288,108,331183,53,2,3:1:0:0:
310,72,331267,1,10,0:3:0:0:
312,29,331352,1,2,3:2:0:0:
164,40,331520,2,0,B|193:83|193:83|237:53,1,105.600003222656,2|8,3:1|0:2,0:0:0:0:
391,27,331857,54,0,L|444:32,1,52.8000016113282,2|0,0:2|0:2,0:0:0:0:
295,188,332026,53,6,3:1:0:0:
312,29,332194,1,2,0:2:0:0:
370,165,332363,53,10,0:1:0:0:
237,52,332532,2,0,L|130:41,1,105.600003222656,2|0,3:1|0:2,0:0:0:0:
55,29,332784,1,8,0:2:0:0:
34,22,332869,53,2,3:1:0:0:
175,129,333037,1,10,0:2:0:0:
11,166,333206,53,2,0:1:0:0:
3,146,333290,1,2,0:2:0:0:
5,125,333374,1,2,3:2:0:0:
237,52,333543,53,2,3:1:0:0:
180,218,333711,1,10,0:2:0:0:
131,41,333880,53,2,3:1:0:0:
254,169,334048,2,0,L|325:174,2,52.8000016113282,2|8|0,3:2|0:2|3:2,0:0:0:0:
90,142,334385,1,10,0:1:0:0:
237,52,334554,53,2,0:1:0:0:
257,48,334638,1,2,0:2:0:0:
278,44,334723,2,0,L|405:35,2,105.600003222656,2|0|8,3:2|3:2|0:2,0:0:0:0:
213,200,335228,54,0,P|254:168|305:172,1,105.600003222656,2|8,3:1|3:2,0:0:0:0:
372,217,335481,1,8,0:2:0:0:
381,235,335565,53,2,3:1:0:0:
477,120,335734,1,10,0:1:0:0:
305,172,335902,53,2,0:1:0:0:
383,36,336071,1,2,3:1:0:0:
372,217,336239,53,2,3:2:0:0:
363,235,336324,1,2,0:2:0:0:
356,254,336408,2,0,L|362:375,1,105.600003222656,10|0,0:1|3:3,0:0:0:0:
437,377,336661,1,8,0:2:0:0:
455,358,336745,54,0,L|461:237,1,105.600003222656,2|0,3:1|3:2,0:0:0:0:
494,184,336998,2,0,P|470:175|444:177,1,52.8000016113282,2|8,0:1|0:2,0:0:0:0:
263,355,337251,2,0,P|237:356|213:347,1,52.8000016113282,2|0,0:1|0:2,0:0:0:0:
139,270,337419,86,2,P|237:262|263:356,1,211.200006445313,2|10,3:2|0:2,0:1:0:0:
395,115,337925,54,2,P|371:209|459:251,1,211.200006445313,2|0,3:2|3:2,0:1:0:0:
462,49,338430,22,0,P|412:22|346:33,1,105.600003222656,10|0,0:1|3:3,0:0:0:0:
302,63,338683,1,2,0:2:0:0:
281,68,338767,2,0,L|212:62,2,52.8000016113282,2|2|2,3:1|0:2|3:2,0:0:0:0:
443,177,339105,53,10,0:1:0:0:
284,145,339273,2,0,L|146:133,1,105.600003222656,2|0,3:1|3:3,0:0:0:0:
110,176,339526,1,8,0:2:0:0:
97,193,339610,2,0,P|77:240|85:292,1,105.600003222656,2|8,3:1|0:2,0:0:0:0:
237,260,339947,54,0,P|212:254|186:255,1,52.8000016113282,2|0,0:1|0:2,0:0:0:0:
327,319,340116,2,0,P|348:253|331:205,2,105.600003222656,2|0|8,3:1|3:2|0:2,0:0:0:0:
85,292,340621,54,0,P|77:240|97:193,1,105.600003222656,2|0,3:1|3:2,0:0:0:0:
157,141,340874,1,8,0:2:0:0:
178,135,340958,1,2,3:1:0:0:
339,219,341127,2,0,P|390:227|438:206,1,105.600003222656,10|0,0:1|3:2,0:0:0:0:
339,45,341464,53,2,3:2:0:0:
178,135,341633,1,2,3:1:0:0:
380,133,341801,1,10,0:1:0:0:
212,37,341970,53,2,3:1:0:0:
191,32,342054,1,10,0:2:0:0:
169,32,342138,1,2,3:2:0:0:
178,135,342307,53,0,3:2:0:0:
339,44,342475,2,0,P|390:37|439:56,1,105.600003222656,8|0,0:2|0:2,0:0:0:0:
374,276,342812,86,0,L|379:132,1,144,6|0,3:2|0:2,0:0:0:0:
379,132,343149,1,10,0:2:0:0:
465,275,343318,2,0,P|419:288|373:275,1,96,2|0,3:2|0:2,0:0:0:0:
309,231,343571,1,8,0:2:0:0:
298,215,343655,53,2,3:2:0:0:
184,253,343824,2,0,L|175:364,1,96,10|0,0:2|0:2,0:0:0:0:
266,134,344161,53,2,3:2:0:0:
173,237,344329,2,0,L|166:333,1,96,2|8,3:2|0:2,0:0:0:0:
298,215,344666,53,2,3:2:0:0:
184,122,344835,1,2,3:2:0:0:
188,108,344919,1,10,0:2:0:0:
194,94,345003,1,2,3:2:0:0:
361,139,345172,2,0,L|246:133,1,96,10|0,0:2|0:2,0:0:0:0:
424,186,345509,54,0,P|440:141|428:95,1,96,2|0,3:2|3:2,0:0:0:0:
194,94,345846,1,10,0:2:0:0:
338,213,346015,2,0,P|385:212|424:185,1,96,2|0,3:2|0:2,0:0:0:0:
437,112,346267,1,8,0:2:0:0:
428,95,346352,53,2,3:2:0:0:
347,14,346520,2,0,L|232:8,1,96,10|0,0:2|0:2,0:0:0:0:
424,185,346857,53,2,3:2:0:0:
332,27,347026,2,0,L|237:22,1,96,2|8,3:2|0:2,0:0:0:0:
139,95,347363,53,0,3:2:0:0:
173,94,347447,1,8,0:3:0:0:
207,107,347532,1,2,3:2:0:0:
232,132,347616,1,8,0:3:0:0:
244,166,347700,1,0,3:2:0:0:
157,274,347869,2,0,L|163:160,1,96,8|0,0:2|0:2,0:0:0:0:
332,27,348206,54,0,L|340:181,1,144,2|0,3:2|0:2,0:0:0:0:
339,170,348543,1,10,0:2:0:0:
496,226,348711,2,0,P|450:213|404:226,1,96,2|0,3:2|0:2,0:0:0:0:
350,276,348964,1,8,0:2:0:0:
342,293,349048,53,2,3:2:0:0:
495,317,349217,2,0,P|508:271|495:225,1,96,10|0,0:2|0:2,0:0:0:0:
336,311,349554,53,2,3:2:0:0:
481,331,349723,2,0,P|494:285|482:240,1,96,2|8,3:2|0:2,0:0:0:0:
339,170,350060,53,2,3:2:0:0:
455,106,350228,1,2,3:2:0:0:
474,104,350312,1,10,0:2:0:0:
492,107,350397,1,2,3:2:0:0:
388,28,350565,2,0,L|274:19,1,96,10|0,0:2|0:2,0:0:0:0:
101,105,350902,54,0,P|146:89|213:101,1,96,2|0,3:2|3:2,0:0:0:0:
270,212,351239,1,10,0:2:0:0:
113,197,351408,2,0,P|97:152|101:105,1,96,2|0,3:2|0:2,0:0:0:0:
174,90,351661,1,8,0:2:0:0:
193,93,351745,53,2,3:2:0:0:
113,197,351914,2,0,L|-2:191,1,96,10|0,0:2|0:2,0:0:0:0:
210,99,352251,53,2,3:2:0:0:
101,213,352419,2,0,L|6:208,1,96,2|8,3:2|0:2,0:0:0:0:
101,36,352756,53,0,3:2:0:0:
115,68,352840,1,8,0:3:0:0:
141,91,352925,1,2,3:2:0:0:
176,102,353009,1,8,0:3:0:0:
210,99,353093,1,0,3:2:0:0:
333,40,353262,2,0,L|441:50,1,96,8|0,0:2|0:2,0:0:0:0:
377,269,353599,54,0,P|361:181|382:125,1,144,6|0,3:2|0:2,0:0:0:0:
378,131,353936,1,10,0:2:0:0:
470,264,354105,2,0,B|441:260|441:260|408:272|408:272|376:268,1,96,2|0,3:2|0:2,0:0:0:0:
309,309,354357,1,8,0:2:0:0:
298,325,354442,53,2,3:2:0:0:
201,251,354610,2,0,L|192:140,1,96,10|0,0:2|0:2,0:0:0:0:
286,340,354947,53,2,3:2:0:0:
182,259,355116,2,0,L|175:164,1,96,2|8,3:2|0:2,0:0:0:0:
272,24,355453,53,2,3:2:0:0:
175,164,355621,1,2,3:2:0:0:
156,166,355706,1,10,0:2:0:0:
137,161,355790,1,2,3:2:0:0:
6,110,355958,2,0,L|0:14,1,96,10|0,0:2|0:2,0:0:0:0:
1,251,356296,54,0,P|42:227|89:231,1,96,2|0,3:2|3:2,0:0:0:0:
180,342,356633,1,10,0:2:0:0:
19,340,356801,2,0,P|-3:299|0:252,1,96,2|0,3:2|0:2,0:0:0:0:
71,225,357054,1,8,0:2:0:0:
89,231,357138,53,2,3:2:0:0:
180,342,357307,2,0,L|295:336,1,96,10|0,0:2|0:2,0:0:0:0:
20,339,357644,53,2,3:2:0:0:
168,357,357812,2,0,L|264:352,1,96,2|8,3:2|0:2,0:0:0:0:
405,306,358149,53,0,3:2:0:0:
371,307,358234,1,8,0:3:0:0:
337,294,358318,1,2,3:2:0:0:
312,269,358402,1,8,0:3:0:0:
300,235,358487,1,0,3:2:0:0:
387,128,358655,2,0,L|382:224,1,96,8|0,0:2|0:2,0:0:0:0:
456,85,358992,54,0,P|404:49|342:60,1,129.599996044922,2|0,3:2|0:2,0:0:0:0:
341,60,359329,1,10,0:2:0:0:
262,142,359498,2,0,P|216:155|172:138,1,86.3999973632813,2|0,3:2|0:2,0:0:0:0:
120,97,359751,1,8,0:2:0:0:
112,81,359835,53,2,3:2:0:0:
43,177,360003,2,0,L|37:273,1,86.3999973632813,10|0,0:2|0:2,0:0:0:0:
120,97,360340,53,2,3:2:0:0:
56,186,360509,2,0,L|51:273,1,86.3999973632813,2|8,3:2|0:2,0:0:0:0:
183,354,360846,53,2,3:2:0:0:
255,263,361015,1,2,3:2:0:0:
272,260,361099,1,10,0:2:0:0:
289,257,361183,1,2,3:2:0:0:
380,319,361352,2,0,P|419:328|487:302,1,86.3999973632813,10|0,0:2|0:2,0:0:0:0:
423,146,361689,54,0,L|421:232,1,86.3999973632813,2|0,3:2|3:2,0:0:0:0:
279,141,362026,1,10,0:2:0:0:
378,60,362194,2,0,P|419:50|461:59,1,86.3999973632813,2|0,3:2|0:2,0:0:0:0:
501,125,362447,1,8,0:2:0:0:
504,142,362532,53,2,3:2:0:0:
420,232,362700,2,0,P|378:242|336:234,1,86.3999973632813,10|0,0:2|0:2,0:0:0:0:
168,142,363037,53,2,3:2:0:0:
279,141,363206,1,2,3:2:0:0:
114,238,363374,1,8,0:2:0:0:
111,49,363543,53,0,3:2:0:0:
134,36,363627,1,8,0:3:0:0:
160,30,363711,1,2,3:2:0:0:
187,32,363796,1,8,0:3:0:0:
213,41,363880,1,0,3:2:0:0:
279,141,364048,2,0,P|320:151|362:142,1,86.3999973632813,8|0,0:2|0:2,0:0:0:0:
422,55,364385,69,2,0:1:0:0:
362,141,364723,53,2,0:2:0:0:
407,53,364891,1,2,0:2:0:0:
376,143,365228,53,2,0:2:0:0:
393,51,365397,1,2,0:2:0:0:
390,145,365734,53,2,0:2:0:0:
378,50,365902,1,2,0:2:0:0:
405,147,366239,53,2,0:2:0:0:
364,48,366408,1,2,0:2:0:0:
405,147,366576,1,2,0:2:0:0:
364,48,366745,1,2,0:2:0:0:
94,60,367082,53,2,0:1:0:0:
150,142,367419,53,2,0:2:0:0:
107,58,367588,1,2,0:2:0:0:
136,143,367925,53,2,0:2:0:0:
120,56,368093,1,2,0:2:0:0:
123,145,368430,53,2,0:2:0:0:
134,55,368599,1,2,0:2:0:0:
109,147,368936,53,2,0:2:0:0:
148,53,369105,1,2,0:2:0:0:
95,148,369442,53,2,0:2:0:0:
97,322,369779,53,2,0:1:0:0:
150,242,370116,53,2,0:2:0:0:
109,322,370284,1,2,0:2:0:0:
137,241,370621,53,2,0:2:0:0:
122,324,370790,1,2,0:2:0:0:
124,240,371127,53,2,0:2:0:0:
135,325,371296,1,2,0:2:0:0:
111,238,371633,53,2,0:2:0:0:
148,327,371801,1,2,0:2:0:0:
111,238,371970,1,2,0:2:0:0:
148,327,372138,1,2,0:2:0:0:
397,319,372475,53,2,0:1:0:0:
346,244,372812,53,2,0:2:0:0:
384,319,372981,1,2,0:2:0:0:
357,243,373318,53,2,0:2:0:0:
372,321,373487,1,2,0:2:0:0:
369,241,373824,53,2,0:2:0:0:
359,322,373992,1,2,0:2:0:0:
382,239,374329,53,2,0:2:0:0:
347,324,374498,1,2,0:2:0:0:
394,239,374835,53,2,0:2:0:0:
346,70,375172,53,2,0:1:0:0:
356,70,375509,53,2,0:2:0:0:
366,145,375678,1,2,0:2:0:0:
377,146,376015,53,2,0:2:0:0:
367,72,376183,1,2,0:2:0:0:
379,73,376520,53,2,0:2:0:0:
388,147,376689,1,2,0:2:0:0:
399,148,377026,53,2,0:2:0:0:
390,74,377194,1,2,0:2:0:0:
399,148,377363,1,2,0:2:0:0:
390,74,377532,1,2,0:2:0:0:
379,73,377869,53,2,0:1:0:0:
367,72,378206,53,2,0:2:0:0:
367,72,378374,1,2,0:2:0:0:
356,70,378711,53,2,0:2:0:0:
356,70,378880,1,2,0:2:0:0:
346,69,379217,53,2,0:2:0:0:
346,69,379385,1,2,0:2:0:0:
334,68,379723,53,2,0:2:0:0:
334,68,379891,1,2,0:2:0:0:
323,66,380228,53,2,0:2:0:0:
