osu file format v14

[General]
AudioFilename: audio.mp3
AudioLeadIn: 0
PreviewTime: 56775
Countdown: 0
SampleSet: Soft
StackLeniency: 0.2
Mode: 0
LetterboxInBreaks: 0
WidescreenStoryboard: 0

[Editor]
DistanceSpacing: 0.1
BeatDivisor: 4
GridSize: 4
TimelineZoom: 1.450014

[Metadata]
Title:TRICK feat. chelly (EGOIST)
TitleUnicode:TRICK feat. chelly (EGOIST)
Artist:TRUSTRICK
ArtistUnicode:TRUSTRICK
Creator:Yohanes
Version:TRICK
Source:
Tags:神田沙也加 Kanda Sayaka supercell Ryo Insane TRICK TRUSTTRICK Japanese Pop JPop J-Pop
BeatmapID:2894142
BeatmapSetID:1403045

[Difficulty]
HPDrainRate:6
CircleSize:4.2
OverallDifficulty:8
ApproachRate:9
SliderMultiplier:1.8
SliderTickRate:1

[Events]
//Background and Video events
0,0,"BG.jpg",0,0
//Break Periods
2,88549,95555
2,104160,106531
2,191965,198970
//Storyboard Layer 0 (Background)
//Storyboard Layer 1 (Fail)
//Storyboard Layer 2 (Pass)
//Storyboard Layer 3 (Foreground)
//Storyboard Layer 4 (Overlay)
//Storyboard Sound Samples

[TimingPoints]
546,487.80487804878,4,2,2,40,1,0
8350,-100,4,2,1,65,0,0
57131,-50,4,2,1,80,0,1
88350,-100,4,2,1,65,0,0
144936,-50,4,2,1,80,0,1
176155,-66.6666666666667,4,2,1,65,0,0
191765,-100,4,2,1,40,0,0
207375,-66.6666666666667,4,2,1,65,0,0
224936,-50,4,2,1,80,0,1
271765,-80,4,2,1,50,0,0

[Colours]
Combo1 : 255,94,55
Combo2 : 173,255,95
Combo3 : 17,254,176
Combo4 : 255,88,100

[HitObjects]
256,48,546,5,2,0:0:0:0:
256,320,1033,1,0,0:0:0:0:
188,264,1277,1,0,0:0:0:0:
324,264,1521,2,0,P|380:276|464:252,1,135,2|0,0:0|0:0,0:0:0:0:
480,220,2009,1,0,0:0:0:0:
376,200,2253,2,0,P|321:182|260:119,1,135,2|0,0:0|0:0,0:0:0:0:
256,48,2741,1,0,0:0:0:0:
172,80,2985,5,0,0:0:0:0:
340,80,3472,1,2,0:0:0:0:
172,80,3716,1,2,0:0:0:0:
256,48,3960,1,2,0:0:0:0:
48,192,4204,2,0,L|28:140,2,45,0|0|2,0:0|0:0|0:0,0:0:0:0:
464,192,4936,5,0,0:0:0:0:
400,256,5180,1,0,0:0:0:0:
336,192,5424,1,2,0:0:0:0:
464,192,5911,1,0,0:0:0:0:
324,276,6155,2,0,P|256:264|188:276,1,135,2|0,0:0|0:0,0:0:0:0:
148,296,6643,1,0,0:0:0:0:
98,218,6887,5,0,0:0:0:0:
196,372,7375,1,2,0:0:0:0:
148,296,7619,1,2,0:0:0:0:
98,218,7863,1,2,0:0:0:0:
196,372,8107,1,0,0:0:0:0:
196,372,8228,1,0,0:0:0:0:
196,372,8350,6,0,L|216:308,1,45,2|0,0:2|0:0,0:0:0:0:
256,192,8594,2,0,L|256:268,1,45,2|0,0:2|0:0,0:0:0:0:
316,372,8838,2,0,L|296:308,1,45,8|0,0:0|0:0,0:0:0:0:
176,224,9082,2,0,L|112:236,1,45,0|0,0:0|0:0,0:0:0:0:
336,224,9326,1,2,0:0:0:0:
256,88,9570,1,8,0:0:0:0:
256,88,9692,1,0,0:0:0:0:
340,136,9936,1,0,0:0:0:0:
340,136,10058,1,8,0:2:0:0:
127,127,10302,6,0,L|172:136,1,45,2|0,0:0|0:0,0:0:0:0:
384,127,10545,2,0,L|340:136,1,45,2|0,0:0|0:0,0:0:0:0:
256,237,10789,2,0,L|256:181,1,45,8|0,0:0|0:0,0:0:0:0:
256,43,11033,2,0,L|256:99,1,45,0|0,0:0|0:0,0:0:0:0:
176,224,11277,1,2,0:0:0:0:
336,224,11521,1,8,0:0:0:0:
336,224,11643,1,0,0:0:0:0:
127,127,11887,1,0,0:0:0:0:
127,127,12009,1,8,0:0:0:0:
384,127,12253,5,2,0:0:0:0:
256,296,12497,1,2,0:0:0:0:
127,127,12741,1,8,0:0:0:0:
384,127,12985,1,0,0:0:0:0:
256,192,13228,1,2,0:0:0:0:
256,43,13472,1,8,0:0:0:0:
256,43,13594,1,0,0:0:0:0:
452,368,13838,1,0,0:0:0:0:
452,368,13960,1,8,0:0:0:0:
159,315,14204,5,2,0:0:0:0:
256,372,14448,1,2,0:0:0:0:
353,315,14691,1,8,0:0:0:0:
452,368,14935,1,0,0:0:0:0:
256,372,15180,1,2,0:0:0:0:
353,315,15424,1,8,0:0:0:0:
353,315,15545,1,0,0:0:0:0:
159,315,15789,1,0,0:0:0:0:
159,315,15911,1,8,0:0:0:0:
60,368,16155,6,0,P|36:304|48:240,1,135,2|0,0:0|0:0,0:0:0:0:
72,208,16643,1,8,0:0:0:0:
256,152,16887,1,0,0:0:0:0:
204,88,17131,2,0,P|164:76|88:80,1,90,2|8,0:0|0:0,0:0:0:0:
276,280,17619,2,0,L|292:224,1,45,0|0,0:0|0:0,0:0:0:0:
176,264,17863,2,0,L|192:208,1,45,0|0,3:0|3:0,0:0:0:0:
312,52,18106,5,2,0:0:0:0:
255,151,18350,1,2,0:0:0:0:
197,52,18594,1,8,0:0:0:0:
340,136,18838,2,0,B|384:124|408:148|436:132,1,90,0|2,0:0|0:0,0:0:0:0:
172,136,19326,2,0,B|128:124|104:148|76:132,1,90,8|0,0:0|0:0,0:0:0:0:
256,178,19814,1,2,0:0:0:0:
256,178,19935,1,2,0:0:0:0:
256,178,20058,6,0,L|256:282,1,90,2|2,0:0|0:0,0:0:0:0:
158,306,20545,1,8,0:0:0:0:
349,220,20789,2,0,P|361:271|340:329,1,90,0|2,0:0|0:0,0:0:0:0:
158,306,21277,2,0,P|151:263|163:220,1,90,8|0,0:0|0:0,0:0:0:0:
256,101,21765,1,0,3:0:0:0:
256,101,21886,1,0,3:0:0:0:
256,101,22009,6,0,L|256:-3,1,90,2|2,0:0|0:0,0:0:0:0:
163,104,22497,2,0,P|120:94|88:64,1,90,8|0,0:0|0:0,0:0:0:0:
256,11,22985,1,2,0:0:0:0:
423,63,23228,2,0,P|391:93|348:103,1,90,8|0,0:0|0:0,0:0:0:0:
473,198,23716,1,2,0:0:0:0:
473,198,23838,1,2,0:0:0:0:
473,198,23960,6,0,P|430:191|387:204,1,90,2|2,0:0|0:0,0:0:0:0:
435,282,24448,1,8,0:0:0:0:
296,168,24692,2,0,L|296:268,1,90,0|2,0:0|0:0,0:0:0:0:
403,366,25180,2,0,P|363:354|299:349,1,90,8|0,0:0|0:0,0:0:0:0:
109,366,25667,1,0,3:0:0:0:
109,366,25789,1,0,3:0:0:0:
109,366,25911,6,0,P|149:354|213:349,1,90,2|2,0:0|0:0,0:0:0:0:
77,282,26399,1,8,0:0:0:0:
216,168,26643,2,0,L|216:258,1,90,0|2,0:0|0:0,0:0:0:0:
38,198,27131,2,0,P|81:191|124:204,1,90,8|0,0:0|0:0,0:0:0:0:
88,64,27619,1,2,0:0:0:0:
88,64,27741,1,2,0:0:0:0:
88,64,27863,6,0,P|120:94|163:104,1,90,2|2,0:0|0:0,0:0:0:0:
423,64,28350,1,8,0:0:0:0:
296,168,28594,2,0,L|296:268,1,90,0|2,0:0|0:0,0:0:0:0:
473,198,29082,2,0,P|430:191|387:204,1,90,8|0,0:0|0:0,0:0:0:0:
296,354,29570,1,0,3:0:0:0:
296,354,29692,1,0,3:0:0:0:
296,354,29814,6,0,P|341:360|384:348,1,90,2|2,0:0|0:0,0:0:0:0:
216,258,30302,2,0,L|216:168,1,90,8|0,0:0|0:0,0:0:0:0:
88,64,30789,1,2,0:0:0:0:
38,198,31033,2,0,P|81:191|124:204,1,90,8|0,0:0|0:0,0:0:0:0:
215,309,31521,1,2,0:0:0:0:
215,309,31643,1,2,0:0:0:0:
215,309,31765,6,0,P|170:303|128:316,1,90,2|2,0:0|0:0,0:0:0:0:
256,132,32253,1,8,0:0:0:0:
256,245,32497,1,0,0:0:0:0:
212,64,32741,2,0,P|256:48|308:72,1,90,2|8,0:0|0:0,0:0:0:0:
192,192,33228,2,0,L|144:192,1,45,0|0,0:0|0:0,0:0:0:0:
320,192,33472,2,0,L|368:192,1,45,0|0,3:0|3:0,0:0:0:0:
256,132,33716,5,2,0:0:0:0:
141,220,33960,1,2,0:0:0:0:
256,308,34204,1,8,0:0:0:0:
371,220,34448,1,0,0:0:0:0:
256,132,34692,1,2,0:0:0:0:
184,288,34936,2,0,P|217:244|259:235,1,90,8|0,0:0|0:0,0:0:0:0:
424,360,35424,1,2,0:0:0:0:
424,360,35545,1,2,0:0:0:0:
424,360,35667,6,0,P|484:364|520:344,1,90,2|2,0:0|0:0,0:0:0:0:
371,220,36155,1,8,0:0:0:0:
460,292,36399,2,0,L|468:192,1,90,0|2,0:0|0:0,0:0:0:0:
385,40,36887,2,0,L|377:140,1,90,8|0,0:0|0:0,0:0:0:0:
134,129,37375,1,0,3:0:0:0:
134,129,37497,1,0,3:0:0:0:
134,129,37619,6,0,L|127:40,1,90,2|2,0:0|0:0,0:0:0:0:
256,132,38106,1,8,0:0:0:0:
141,220,38350,2,0,P|80:216|36:224,1,90,0|2,0:0|0:0,0:0:0:0:
88,360,38838,1,8,0:0:0:0:
184,288,39082,1,0,0:0:0:0:
424,360,39326,1,2,0:0:0:0:
424,360,39448,1,2,0:0:0:0:
424,360,39570,6,0,P|484:364|520:344,1,90,2|2,0:0|0:0,0:0:0:0:
371,220,40058,1,8,0:0:0:0:
256,364,40302,2,0,L|136:360,1,90,0|2,0:0|0:0,0:0:0:0:
4,282,40789,2,0,L|183:287,1,180,8|0,0:0|3:0,0:0:0:0:
227,288,41399,1,0,3:0:0:0:
227,288,41521,5,2,0:0:0:0:
159,163,41765,1,2,0:0:0:0:
284,95,42009,1,8,0:0:0:0:
352,220,42253,1,0,0:0:0:0:
227,288,42497,1,2,0:0:0:0:
197,86,42741,2,0,P|145:82|97:102,1,90,8|0,0:0|0:0,0:0:0:0:
315,298,43228,1,2,0:0:0:0:
315,298,43350,1,2,0:0:0:0:
315,298,43472,6,0,P|367:302|415:282,1,90,2|2,0:0|0:0,0:0:0:0:
284,95,43960,1,8,0:0:0:0:
136,212,44204,2,0,P|184:196|228:224,1,90,0|2,0:0|0:0,0:0:0:0:
376,212,44692,2,0,P|328:196|284:224,1,90,8|0,0:0|0:0,0:0:0:0:
256,352,45180,1,0,3:0:0:0:
256,352,45302,1,0,3:0:0:0:
256,352,45424,5,2,0:0:0:0:
336,280,45667,1,2,0:0:0:0:
428,336,45911,1,8,0:0:0:0:
476,239,46155,1,0,0:0:0:0:
476,239,46277,1,0,0:0:0:0:
476,239,46399,1,2,0:0:0:0:
400,100,46643,2,0,P|344:108|304:88,1,90,8|0,0:0|0:0,0:0:0:0:
112,100,47131,1,2,0:0:0:0:
112,100,47253,1,2,0:0:0:0:
112,100,47375,6,0,P|168:108|208:88,1,90,2|2,0:0|0:0,0:0:0:0:
256,16,47863,1,8,0:0:0:0:
300,192,48106,2,0,L|210:192,1,90,0|2,0:0|0:0,0:0:0:0:
84,336,48594,2,0,P|72:284|88:236,1,90,8|0,0:0|0:0,0:0:0:0:
256,352,49082,1,0,3:0:0:0:
256,352,49204,1,0,3:0:0:0:
256,352,49326,5,2,0:0:0:0:
176,280,49569,1,2,0:0:0:0:
84,336,49813,1,8,0:0:0:0:
36,239,50057,1,0,0:0:0:0:
36,239,50179,1,0,0:0:0:0:
36,239,50301,1,2,0:0:0:0:
212,192,50545,2,0,L|302:192,1,90,8|0,0:0|0:0,0:0:0:0:
476,239,51033,1,0,3:0:0:0:
476,239,51155,1,0,3:0:0:0:
476,239,51277,5,2,0:0:0:0:
336,280,51521,1,2,0:0:0:0:
336,104,51765,1,8,0:0:0:0:
176,104,52009,2,0,L|80:124,1,90,0|2,0:0|0:0,0:0:0:0:
336,104,52497,2,0,L|432:124,1,90,8|0,0:0|0:0,0:0:0:0:
195,305,52985,1,0,3:0:0:0:
256,328,53106,1,0,3:0:0:0:
317,305,53228,1,2,0:0:0:0:
256,192,53350,12,2,55180,0:0:0:0:
256,56,55424,5,2,0:0:0:0:
192,136,55667,1,8,0:0:0:0:
337,223,55911,2,0,P|334:178|320:136,1,90,2|2,0:0|0:0,0:0:0:0:
174,223,56399,1,8,0:0:0:0:
416,160,56887,5,0,0:0:0:0:
416,160,57009,1,0,0:0:0:0:
416,160,57131,2,0,P|424:216|400:276,1,90,2|0,0:0|0:0,0:0:0:0:
312,316,57375,2,0,P|408:328|432:352,1,90,2|2,0:0|0:0,0:0:0:0:
256,384,57619,2,0,L|220:264,1,90,8|0,0:0|0:0,0:0:0:0:
174,223,57863,2,0,P|78:235|54:259,1,90,8|0,0:1|0:0,0:0:0:0:
18,384,58106,5,2,0:0:0:0:
90,380,58228,1,0,0:0:0:0:
162,376,58350,2,0,L|126:256,1,90,8|0,0:0|0:0,0:0:0:0:
60,64,58594,2,0,L|24:168,1,90,8|0,0:1|0:0,0:0:0:0:
136,16,58838,2,0,L|184:114,1,90,8|0,0:1|0:0,0:0:0:0:
256,256,59082,6,0,P|296:220|344:208,1,90,2|0,0:0|0:0,0:0:0:0:
494,368,59326,1,2,0:0:0:0:
422,372,59448,1,2,0:0:0:0:
350,376,59570,2,0,L|386:256,1,90,8|0,0:0|0:0,0:0:0:0:
452,64,59814,2,0,L|488:168,1,90,8|0,0:1|0:0,0:0:0:0:
292,128,60058,6,0,P|356:124|404:136,1,90,2|0,0:0|0:0,0:0:0:0:
212,76,60302,2,0,P|216:140|204:188,1,90,8|0,0:0|0:0,0:0:0:0:
44,204,60545,2,0,P|79:176|121:159,1,90,8|0,0:1|0:0,0:0:0:0:
96,336,60789,2,0,P|101:290|119:249,1,90,8|0,0:1|0:0,0:0:0:0:
300,320,61033,6,0,P|256:310|212:319,1,90,2|0,0:0|0:0,0:0:0:0:
400,264,61277,1,2,0:0:0:0:
416,336,61398,1,2,0:0:0:0:
484,361,61521,2,0,P|508:317|500:257,1,90,8|0,0:0|0:0,0:0:0:0:
392,176,61765,2,0,L|504:204,1,90,8|0,0:1|0:0,0:0:0:0:
429,24,62009,6,0,L|460:134,1,90,2|0,0:0|0:0,0:0:0:0:
278,67,62253,2,0,L|358:-15,1,90,8|0,0:0|0:0,0:0:0:0:
392,176,62497,2,0,L|280:148,1,90,8|0,0:1|0:0,0:0:0:0:
120,176,62741,2,0,L|232:148,1,90,8|0,0:1|0:0,0:0:0:0:
83,24,62985,6,0,L|51:134,1,90,2|0,0:0|0:0,0:0:0:0:
4,220,63228,1,2,0:0:0:0:
0,294,63350,1,2,0:0:0:0:
48,348,63472,2,0,P|125:352|153:348,1,90,8|0,0:0|0:0,0:0:0:0:
300,280,63716,2,0,B|256:272|256:272|212:280,1,90,8|0,0:1|0:0,0:0:0:0:
374,350,63960,6,0,P|419:352|464:348,1,90,2|0,0:0|0:0,0:0:0:0:
484,180,64204,2,0,L|508:292,1,90,8|0,0:0|0:0,0:0:0:0:
315,257,64448,2,0,B|359:265|359:265|403:257,1,90,8|0,0:1|0:0,0:0:0:0:
358,83,64692,1,8,0:1:0:0:
357,156,64814,1,0,0:0:0:0:
420,120,64936,6,0,B|460:100|460:100|504:100,1,90,2|0,0:0|0:0,0:0:0:0:
384,0,65180,2,0,B|381:44|381:44|359:82,1,90,2|2,0:0|0:0,0:0:0:0:
212,16,65424,2,0,L|302:16,1,90,8|0,0:0|0:0,0:0:0:0:
147,110,65667,2,0,L|23:110,1,90,8|0,0:1|0:0,0:0:0:0:
224,96,65911,6,0,L|240:216,1,90,2|0,0:0|0:0,0:0:0:0:
336,140,66155,2,0,L|289:251,1,90,8|0,0:0|0:0,0:0:0:0:
102,234,66399,2,0,L|198:307,1,90,8|0,0:1|0:0,0:0:0:0:
85,352,66643,2,0,L|205:367,1,90,8|0,0:1|0:0,0:0:0:0:
427,352,66887,6,0,L|307:367,1,90,2|0,0:0|0:0,0:0:0:0:
174,288,67131,1,2,0:0:0:0:
211,223,67253,1,2,0:0:0:0:
276,185,67375,2,0,P|340:185|380:197,1,90,8|0,0:0|0:0,0:0:0:0:
440,276,67619,2,0,P|440:212|452:172,1,90,8|0,0:1|0:0,0:0:0:0:
496,36,67863,6,0,P|496:100|484:140,1,90,2|0,0:0|0:0,0:0:0:0:
358,280,68106,2,0,P|358:216|370:176,1,90,8|0,0:0|0:0,0:0:0:0:
416,40,68350,1,8,0:1:0:0:
392,108,68472,1,0,0:0:0:0:
345,53,68594,1,8,0:1:0:0:
321,121,68716,1,0,0:0:0:0:
274,66,68838,6,0,P|228:56|160:68,1,90,2|0,0:0|0:0,0:0:0:0:
30,194,69082,2,0,P|75:204|144:192,1,90,2|2,0:0|0:0,0:0:0:0:
88,8,69326,2,0,P|78:53|90:122,1,90,8|0,0:0|0:0,0:0:0:0:
216,252,69570,2,0,P|226:206|214:138,1,90,8|0,0:1|0:0,0:0:0:0:
392,224,69814,6,0,P|347:214|278:226,1,90,2|0,0:0|0:0,0:0:0:0:
168,340,70058,2,0,P|213:350|282:338,1,90,8|0,0:0|0:0,0:0:0:0:
369,298,70302,1,8,0:1:0:0:
441,284,70424,1,0,0:0:0:0:
511,304,70545,2,0,P|519:260|495:192,1,90,8|0,0:1|0:0,0:0:0:0:
448,28,70789,6,0,P|440:72|464:140,1,90,2|0,0:0|0:0,0:0:0:0:
348,76,71033,2,0,L|148:56,1,180,2|8,0:0|0:0,0:0:0:0:
0,168,71399,1,0,0:0:0:0:
36,234,71521,2,0,L|236:254,1,180,8|2,0:1|0:0,0:0:0:0:
364,162,71887,5,0,0:0:0:0:
348,76,72009,2,0,L|248:66,1,90,8|0,0:0|0:0,0:0:0:0:
36,234,72253,1,8,0:1:0:0:
107,241,72374,1,0,0:0:0:0:
148,183,72497,1,8,0:1:0:0:
118,118,72619,1,0,0:0:0:0:
46,111,72741,6,0,P|16:56|20:4,1,90,2|0,0:0|0:0,0:0:0:0:
278,47,72985,2,0,L|178:37,1,90,2|2,0:0|0:0,0:0:0:0:
263,197,73228,2,0,L|321:115,1,90,8|0,0:0|0:0,0:0:0:0:
140,109,73472,2,0,L|181:200,1,90,8|0,0:1|0:0,0:0:0:0:
308,312,73716,6,0,P|264:308|208:316,1,90,2|0,0:0|0:0,0:0:0:0:
136,355,73960,2,0,P|110:273|27:252,1,180,8|8,0:0|0:1,0:0:0:0:
0,184,74326,1,0,0:0:0:0:
24,116,74448,1,8,0:1:0:0:
84,76,74570,1,0,0:0:0:0:
152,104,74692,6,0,P|200:116|264:108,1,90,2|0,0:0|0:0,0:0:0:0:
456,24,74936,2,0,P|373:21|320:96,1,180,2|8,0:0|0:0,0:0:0:0:
421,215,75302,1,0,0:0:0:0:
421,215,75424,2,0,P|365:191|317:191,1,90,8|0,0:1|0:0,0:0:0:0:
290,338,75667,6,0,P|338:301|362:259,1,90,2|0,0:0|0:0,0:0:0:0:
249,163,75911,2,0,P|256:223|280:265,1,90,8|0,0:0|0:0,0:0:0:0:
373,129,76155,1,8,0:1:0:0:
329,71,76277,1,0,0:0:0:0:
257,55,76399,1,8,0:1:0:0:
185,71,76521,1,0,0:0:0:0:
141,129,76643,6,0,P|80:136|32:124,1,90,2|0,0:0|0:0,0:0:0:0:
176,208,76887,2,0,P|183:269|171:317,1,90,2|2,0:0|0:0,0:0:0:0:
249,163,77131,2,0,P|310:156|358:168,1,90,8|0,0:0|0:0,0:0:0:0:
378,335,77375,2,0,P|317:342|269:330,1,90,8|0,0:1|0:0,0:0:0:0:
428,252,77619,6,0,P|421:191|433:143,1,90,2|0,0:0|0:0,0:0:0:0:
512,24,77863,2,0,P|468:72|348:40,1,180,8|8,0:0|0:1,0:0:0:0:
184,20,78228,1,0,0:0:0:0:
124,60,78350,2,0,P|64:64|20:44,1,90,8|0,0:1|0:0,0:0:0:0:
184,20,78594,6,0,P|212:68|168:188,1,180,2|2,0:0|0:0,0:0:0:0:
60,148,78960,1,2,0:0:0:0:
20,208,79082,2,0,P|20:264|48:308,1,90,8|0,0:0|0:0,0:0:0:0:
265,200,79326,2,0,L|161:176,1,90,8|0,0:1|0:0,0:0:0:0:
208,344,79570,6,0,L|280:265,1,90,2|0,0:0|0:0,0:0:0:0:
111,222,79814,2,0,L|142:324,1,90,8|0,0:0|0:0,0:0:0:0:
265,200,80058,2,0,L|161:176,1,90,8|0,0:1|0:0,0:0:0:0:
208,344,80302,1,8,0:1:0:0:
273,368,80423,1,0,0:0:0:0:
336,336,80545,6,0,P|372:284|500:304,1,180,2|2,0:0|0:0,0:0:0:0:
504,180,80911,1,2,0:0:0:0:
504,180,81033,2,0,P|428:192|384:180,1,90,8|0,0:0|0:0,0:0:0:0:
344,52,81277,2,0,P|356:128|344:172,1,90,8|0,0:1|0:0,0:0:0:0:
216,212,81521,6,0,P|292:200|336:212,1,90,2|0,0:0|0:0,0:0:0:0:
376,340,81765,2,0,P|364:264|376:220,1,90,8|0,0:0|0:0,0:0:0:0:
454,123,82009,1,8,0:1:0:0:
413,65,82130,1,0,0:0:0:0:
344,52,82252,1,8,0:1:0:0:
286,92,82374,1,0,0:0:0:0:
244,152,82497,6,0,P|156:156|76:88,1,180,2|2,0:0|0:0,0:0:0:0:
156,0,82863,1,2,0:0:0:0:
156,0,82985,2,0,P|180:48|176:104,1,90,8|0,0:0|0:0,0:0:0:0:
0,52,83228,2,0,L|100:24,1,90,8|0,0:1|0:0,0:0:0:0:
272,70,83472,6,0,P|268:115|244:152,1,90,2|0,0:0|0:0,0:0:0:0:
352,266,83716,2,0,P|316:241|296:201,1,90,8|0,0:0|0:0,0:0:0:0:
142,238,83960,2,0,P|182:219|227:222,1,90,8|0,0:1|0:0,0:0:0:0:
176,348,84204,1,8,0:1:0:0:
105,351,84325,1,0,0:0:0:0:
47,311,84448,6,0,P|28:216|56:112,1,180,2|2,0:0|0:0,0:0:0:0:
176,56,84814,1,2,0:0:0:0:
176,56,84936,2,0,L|68:40,1,90,8|0,0:0|0:0,0:0:0:0:
246,112,85180,2,0,L|262:4,1,90,8|0,0:1|0:0,0:0:0:0:
120,126,85424,6,0,L|104:234,1,90,2|0,0:0|0:0,0:0:0:0:
279,195,85667,2,0,L|190:182,1,90,8|0,0:0|0:0,0:0:0:0:
256,308,85911,1,8,0:1:0:0:
326,299,86032,1,0,0:0:0:0:
376,252,86154,1,8,0:1:0:0:
391,182,86276,1,0,0:0:0:0:
361,118,86399,6,0,P|356:64|476:64,1,180,2|2,0:0|0:0,0:0:0:0:
444,116,86765,1,2,0:0:0:0:
284,32,86887,2,0,P|236:24|184:32,1,90,8|0,0:0|0:0,0:0:0:0:
100,176,87131,2,0,P|136:96|56:32,1,180,8|2,0:1|0:0,0:0:0:0:
21,186,87497,5,0,0:0:0:0:
21,186,87619,2,0,P|28:143|58:110,1,90,8|0,0:0|0:0,0:0:0:0:
149,239,87863,2,0,P|107:255|64:246,1,90,8|0,0:1|0:0,0:0:0:0:
212,144,88106,1,8,0:1:0:0:
312,232,88227,1,0,0:0:0:0:
260,356,88349,1,2,0:0:0:0:
184,124,96155,6,0,L|124:136,1,45,2|0,0:2|0:0,0:0:0:0:
256,237,96399,2,0,L|256:192,1,45,2|0,0:2|0:0,0:0:0:0:
328,124,96643,2,0,L|388:136,1,45,8|0,0:0|0:0,0:0:0:0:
256,23,96887,2,0,L|256:68,1,45,0|0,0:0|0:0,0:0:0:0:
160,216,97131,1,2,0:0:0:0:
352,216,97375,1,8,0:0:0:0:
352,216,97497,1,0,0:0:0:0:
256,364,97741,1,0,0:0:0:0:
256,364,97863,1,8,0:2:0:0:
332,304,98106,6,0,L|384:316,1,45,2|0,0:0|0:0,0:0:0:0:
180,304,98350,2,0,L|128:316,1,45,2|0,0:0|0:0,0:0:0:0:
256,192,98594,2,0,L|256:260,1,45,8|0,0:0|0:0,0:0:0:0:
149,93,98838,2,0,L|192:108,1,45,0|0,0:0|0:0,0:0:0:0:
362,93,99082,1,2,0:0:0:0:
256,24,99326,1,8,0:0:0:0:
256,24,99448,1,0,0:0:0:0:
149,93,99692,1,0,0:0:0:0:
149,93,99814,1,8,0:0:0:0:
352,216,100058,6,0,L|376:160,1,45,2|0,0:0|0:0,0:0:0:0:
160,216,100302,2,0,L|136:160,1,45,2|0,0:0|0:0,0:0:0:0:
304,312,100545,2,0,L|360:324,1,45,8|0,0:0|0:0,0:0:0:0:
208,312,100789,2,0,L|152:324,1,45,0|0,0:0|0:0,0:0:0:0:
256,192,101033,1,2,0:0:0:0:
92,276,101277,1,8,0:0:0:0:
92,276,101399,1,0,0:0:0:0:
420,276,101643,1,0,0:0:0:0:
420,276,101765,1,8,0:0:0:0:
468,76,102009,6,0,L|480:132,1,45,2|0,0:0|0:0,0:0:0:0:
332,168,102253,2,0,L|332:123,1,45,2|0,0:0|0:0,0:0:0:0:
180,123,102497,2,0,L|180:168,1,45,8|0,0:0|0:0,0:0:0:0:
34,120,102741,2,0,L|44:76,1,45,0|0,0:0|0:0,0:0:0:0:
256,28,102985,1,2,0:0:0:0:
256,192,103228,1,8,0:0:0:0:
256,192,103350,1,0,0:0:0:0:
256,356,103594,1,0,0:0:0:0:
256,356,103716,1,8,0:0:0:0:
256,28,103960,5,0,0:0:0:0:
256,188,107131,5,2,0:0:0:0:
256,88,107375,1,8,0:0:0:0:
256,296,107619,1,0,3:0:0:0:
256,296,107741,1,0,3:0:0:0:
256,296,107863,5,2,0:0:0:0:
346,140,108106,1,2,0:0:0:0:
346,140,108228,1,2,0:0:0:0:
346,140,108350,1,8,0:0:0:0:
164,235,108594,2,0,P|121:224|87:196,1,90,2|0,0:0|0:0,0:0:0:0:
256,88,109082,1,2,0:0:0:0:
346,236,109326,2,0,P|390:224|424:196,1,90,8|0,0:0|3:0,0:0:0:0:
436,160,109692,1,0,3:0:0:0:
436,160,109814,5,2,0:0:0:0:
256,188,110058,1,2,0:0:0:0:
256,296,110302,1,8,0:0:0:0:
164,52,110545,1,2,0:0:0:0:
346,140,110789,1,0,3:0:0:0:
346,140,110911,1,0,3:0:0:0:
346,140,111033,1,2,0:0:0:0:
166,140,111277,1,8,0:0:0:0:
348,52,111521,1,0,3:0:0:0:
348,52,111643,1,0,3:0:0:0:
348,52,111765,6,0,P|393:64|437:112,1,90,2|2,0:0|0:0,0:0:0:0:
436,124,112131,1,0,0:0:0:0:
436,124,112253,1,8,0:0:0:0:
168,236,112497,2,0,L|64:224,1,90,2|0,0:0|0:0,0:0:0:0:
256,376,112985,1,2,0:0:0:0:
367,321,113228,2,0,L|456:332,1,90,8|0,0:0|3:0,0:0:0:0:
496,336,113594,1,0,3:0:0:0:
496,336,113716,5,2,0:0:0:0:
256,296,113960,1,2,0:0:0:0:
256,188,114204,1,8,0:0:0:0:
145,321,114448,2,0,L|56:332,1,90,2|0,0:0|3:0,0:0:0:0:
16,336,114814,1,0,3:0:0:0:
16,336,114936,1,2,0:0:0:0:
158,192,115180,2,0,L|168:236,1,45,8|0,0:0|0:0,0:0:0:0:
344,236,115424,2,0,L|353:192,1,45,0|0,3:0|3:0,0:0:0:0:
256,240,115667,6,0,L|256:340,1,90,2|2,0:0|0:0,0:0:0:0:
256,376,116033,1,2,0:0:0:0:
256,376,116155,1,8,0:0:0:0:
119,93,116399,2,0,P|162:85|206:97,1,90,2|0,0:0|0:0,0:0:0:0:
393,93,116887,2,0,P|349:85|305:97,1,90,2|8,0:0|0:0,0:0:0:0:
158,192,117375,1,0,3:0:0:0:
158,192,117497,1,0,3:0:0:0:
158,192,117619,5,2,0:0:0:0:
354,192,117863,1,2,0:0:0:0:
256,24,118106,1,8,0:0:0:0:
256,244,118350,2,0,L|256:344,1,90,2|0,0:0|3:0,0:0:0:0:
256,376,118716,1,0,3:0:0:0:
256,376,118838,1,2,0:0:0:0:
76,308,119082,2,0,P|127:299|184:312,1,90,8|0,0:0|3:0,0:0:0:0:
347,359,119570,6,0,P|391:364|435:356,1,90,2|0,0:0|0:0,0:0:0:0:
460,324,119936,1,2,0:0:0:0:
460,324,120058,1,8,0:0:0:0:
377,150,120302,1,2,0:0:0:0:
280,242,120545,2,0,L|161:227,1,90,0|2,0:0|0:0,0:0:0:0:
280,112,121033,2,0,L|288:168,1,45,8|0,0:0|0:0,0:0:0:0:
185,99,121277,2,0,L|191:54,1,45,0|0,3:0|3:0,0:0:0:0:
322,25,121521,5,0,0:0:0:0:
190,359,121765,1,2,0:0:0:0:
190,359,122009,1,8,0:0:0:0:
256,296,122253,2,0,P|211:270|144:276,1,90,2|0,0:0|3:0,0:0:0:0:
124,288,122619,1,0,3:0:0:0:
124,288,122741,1,2,0:0:0:0:
60,153,122985,2,0,L|40:257,1,90,8|0,0:0|0:0,0:0:0:0:
178,143,123472,6,0,L|158:39,1,90,2|2,0:0|0:0,0:0:0:0:
153,10,123838,1,2,0:0:0:0:
153,10,123960,1,8,0:0:0:0:
304,196,124204,2,0,L|472:176,1,135,2|0,0:0|0:0,0:0:0:0:
480,176,124692,2,0,L|464:88,1,90,2|8,0:0|0:0,0:0:0:0:
256,296,125180,1,0,3:0:0:0:
256,296,125302,1,0,3:0:0:0:
256,296,125424,6,0,P|301:270|368:276,1,90,2|2,0:0|0:0,0:0:0:0:
428,304,125911,1,8,0:0:0:0:
380,100,126155,2,0,P|335:74|268:80,1,90,2|0,0:0|3:0,0:0:0:0:
256,88,126521,1,0,3:0:0:0:
256,88,126643,1,2,0:0:0:0:
76,218,126887,2,0,L|165:205,1,90,8|0,0:0|3:0,0:0:0:0:
436,218,127375,5,2,0:0:0:0:
256,192,127619,1,2,0:0:0:0:
256,192,127741,1,2,0:0:0:0:
256,192,127863,1,8,0:0:0:0:
158,33,128106,2,0,P|159:78|176:120,1,90,2|0,0:0|0:0,0:0:0:0:
336,120,128594,1,2,0:0:0:0:
256,60,128838,1,8,0:0:0:0:
141,258,129082,1,0,3:0:0:0:
141,258,129204,1,0,3:0:0:0:
141,258,129326,5,2,0:0:0:0:
370,258,129570,1,2,0:0:0:0:
256,60,129814,1,8,0:0:0:0:
141,258,130058,2,0,P|85:258|40:240,1,90,2|0,0:0|0:0,0:0:0:0:
20,216,130424,1,0,3:0:0:0:
20,216,130545,1,2,0:0:0:0:
168,164,130789,1,8,0:0:0:0:
256,292,131033,1,0,3:0:0:0:
256,292,131155,1,0,3:0:0:0:
256,292,131277,5,2,0:0:0:0:
344,164,131521,1,2,0:0:0:0:
344,164,131643,1,2,0:0:0:0:
344,164,131765,1,8,0:0:0:0:
458,247,132009,2,0,P|415:259|371:258,1,90,2|0,0:0|0:0,0:0:0:0:
53,136,132497,2,0,P|96:124|141:126,1,90,2|8,0:0|0:0,0:0:0:0:
168,164,132863,1,0,3:0:0:0:
168,164,132985,6,0,L|202:-12,1,180,0|2,3:0|0:0,0:0:0:0:
344,220,133716,1,8,0:0:0:0:
326,308,133959,1,2,0:0:0:0:
256,248,134204,1,0,3:0:0:0:
256,248,134326,1,0,3:0:0:0:
256,248,134447,1,2,0:0:0:0:
186,308,134692,1,8,0:0:0:0:
168,220,134936,1,0,0:0:0:0:
416,276,135180,6,0,L|516:264,1,90,2|2,0:0|0:0,0:0:0:0:
505,265,135545,1,2,0:0:0:0:
505,265,135667,1,8,0:0:0:0:
388,144,135911,2,0,P|336:132|292:144,1,90,2|0,0:0|0:0,0:0:0:0:
124,296,136399,2,0,P|176:308|220:296,1,90,2|8,0:0|0:0,0:0:0:0:
210,300,136765,1,0,3:0:0:0:
210,300,136887,1,0,3:0:0:0:
168,220,137131,5,2,0:0:0:0:
344,220,137375,1,2,0:0:0:0:
256,68,137619,1,8,0:0:0:0:
256,164,137863,1,2,0:0:0:0:
168,120,138106,1,0,3:0:0:0:
168,120,138228,1,0,3:0:0:0:
168,120,138350,1,2,0:0:0:0:
344,120,138594,1,8,0:0:0:0:
256,272,138838,1,0,3:0:0:0:
78,231,139082,6,0,L|170:219,1,90,2|2,0:0|0:0,0:0:0:0:
167,219,139448,1,2,0:0:0:0:
167,219,139570,1,8,0:0:0:0:
434,231,139814,2,0,L|342:219,1,90,2|0,0:0|0:0,0:0:0:0:
256,24,140302,2,0,L|256:124,1,90,2|8,0:0|0:0,0:0:0:0:
196,336,140789,1,0,3:0:0:0:
256,312,140911,1,0,3:0:0:0:
316,336,141033,1,2,0:0:0:0:
256,192,141155,12,2,142985,0:0:0:0:
256,256,143228,5,2,0:0:0:0:
256,152,143472,1,8,0:0:0:0:
364,248,143716,2,0,P|376:192|360:140,1,90,2|2,0:0|0:0,0:0:0:0:
148,248,144204,1,8,0:0:0:0:
324,48,144692,5,0,0:0:0:0:
324,48,144814,1,0,0:0:0:0:
324,48,144936,2,0,L|440:64,1,90,2|0,0:0|0:0,0:0:0:0:
508,24,145180,2,0,L|496:136,1,90,2|2,0:0|0:0,0:0:0:0:
420,172,145424,2,0,P|452:200|524:208,1,90,8|0,0:0|0:0,0:0:0:0:
328,148,145667,2,0,L|220:168,1,90,8|0,0:1|0:0,0:0:0:0:
8,223,145911,5,2,0:0:0:0:
78,235,146032,1,0,0:0:0:0:
148,248,146155,2,0,L|176:351,1,90,8|0,0:0|0:0,0:0:0:0:
132,160,146399,2,0,L|24:140,1,90,8|0,0:1|0:0,0:0:0:0:
152,64,146643,2,0,L|260:84,1,90,8|0,0:1|0:0,0:0:0:0:
428,24,146887,6,0,P|376:20|332:48,1,90,2|0,0:0|0:0,0:0:0:0:
400,96,147131,1,2,0:0:0:0:
436,160,147253,1,2,0:0:0:0:
468,228,147375,2,0,P|480:316|476:352,1,90,8|0,0:0|0:0,0:0:0:0:
304,232,147619,2,0,P|392:220|428:224,1,90,8|0,0:1|0:0,0:0:0:0:
340,352,147863,6,0,L|208:336,1,90,2|0,0:0|0:0,0:0:0:0:
144,356,148106,2,0,L|54:345,1,90,8|0,0:0|0:0,0:0:0:0:
196,280,148350,2,0,P|188:220|152:176,1,90,8|0,0:1|0:0,0:0:0:0:
237,126,148594,2,0,P|181:102|124:112,1,90,8|0,0:1|0:0,0:0:0:0:
83,201,148838,6,0,L|199:193,1,90,2|0,0:0|0:0,0:0:0:0:
392,140,149082,1,2,0:0:0:0:
424,72,149204,1,2,0:0:0:0:
368,24,149326,2,0,L|252:32,1,90,8|0,0:0|0:0,0:0:0:0:
320,196,149570,2,0,L|312:80,1,90,8|0,0:1|0:0,0:0:0:0:
244,251,149814,6,0,L|252:367,1,90,2|0,0:0|0:0,0:0:0:0:
332,288,150058,2,0,L|448:280,1,90,8|0,0:0|0:0,0:0:0:0:
232,168,150302,1,8,0:1:0:0:
160,172,150423,1,0,0:0:0:0:
88,177,150545,2,0,P|24:104|20:76,1,90,8|0,0:1|0:0,0:0:0:0:
172,20,150789,6,0,P|108:93|104:121,1,90,2|0,0:0|0:0,0:0:0:0:
260,252,151033,1,2,0:0:0:0:
260,252,151155,1,2,0:0:0:0:
260,252,151277,2,0,P|324:179|328:151,1,90,8|0,0:0|0:0,0:0:0:0:
152,268,151521,2,0,P|196:328|272:340,1,90,8|0,0:1|0:0,0:0:0:0:
124,180,151765,6,0,P|60:253|56:281,1,90,2|0,0:0|0:0,0:0:0:0:
408,160,152009,2,0,P|335:96|307:92,1,90,8|0,0:0|0:0,0:0:0:0:
260,252,152253,1,8,0:1:0:0:
244,180,152375,1,0,0:0:0:0:
228,108,152497,2,0,L|207:20,1,90,8|0,0:1|0:0,0:0:0:0:
192,328,152741,6,0,B|288:332|288:332|351:277,1,180,2|2,0:0|0:0,0:0:0:0:
466,329,153106,1,2,0:0:0:0:
466,329,153228,2,0,B|418:327|418:327|386:354,1,90,8|0,0:0|0:0,0:0:0:0:
207,247,153472,2,0,B|254:249|254:249|286:221,1,90,8|0,0:1|0:0,0:0:0:0:
400,210,153716,6,0,L|377:106,1,90,2|0,0:0|0:0,0:0:0:0:
281,93,153960,2,0,L|261:5,1,90,8|0,0:0|0:0,0:0:0:0:
92,123,154204,1,8,0:1:0:0:
153,161,154325,1,0,0:0:0:0:
191,101,154448,1,8,0:1:0:0:
131,62,154570,1,0,0:0:0:0:
70,23,154692,6,0,P|37:65|16:103,1,90,2|0,0:0|0:0,0:0:0:0:
101,231,154936,1,2,0:0:0:0:
101,231,155058,1,2,0:0:0:0:
101,231,155180,2,0,P|59:198|21:177,1,90,8|0,0:0|0:0,0:0:0:0:
230,167,155424,2,0,P|272:200|310:221,1,90,8|0,0:1|0:0,0:0:0:0:
469,108,155667,6,0,L|372:123,1,90,2|0,0:0|0:0,0:0:0:0:
406,297,155911,2,0,L|393:209,1,90,8|0,0:0|0:0,0:0:0:0:
311,28,156155,1,8,0:1:0:0:
281,93,156277,1,0,0:0:0:0:
231,41,156399,1,8,0:1:0:0:
202,107,156521,1,0,0:0:0:0:
153,55,156643,6,0,P|109:56|50:69,1,90,2|0,0:0|0:0,0:0:0:0:
5,141,156887,2,0,P|6:185|19:244,1,90,2|2,0:0|0:0,0:0:0:0:
239,256,157131,2,0,P|238:212|225:153,1,90,8|0,0:0|0:0,0:0:0:0:
101,231,157375,2,0,L|117:322,1,90,8|0,0:1|0:0,0:0:0:0:
262,359,157619,6,0,P|354:331|372:329,1,90,2|0,0:0|0:0,0:0:0:0:
491,213,157863,2,0,P|399:241|381:243,1,90,8|0,0:0|0:0,0:0:0:0:
229,166,158106,1,8,0:1:0:0:
245,96,158228,1,0,0:0:0:0:
297,47,158350,2,0,P|389:19|407:17,1,90,8|0,0:1|0:0,0:0:0:0:
163,114,158594,6,0,L|61:99,1,90,2|0,0:0|0:0,0:0:0:0:
143,226,158838,2,0,P|264:262|319:235,1,180,2|8,0:0|0:0,0:0:0:0:
497,126,159204,1,0,0:0:0:0:
462,64,159326,2,0,P|341:28|286:55,1,180,8|2,0:1|0:0,0:0:0:0:
143,226,159692,5,0,0:0:0:0:
184,292,159814,2,0,L|164:387,1,90,8|0,0:0|0:0,0:0:0:0:
405,281,160058,1,8,0:1:0:0:
406,210,160179,1,0,0:0:0:0:
363,154,160301,1,8,0:1:0:0:
294,139,160423,1,0,0:0:0:0:
231,171,160545,6,0,P|207:133|197:89,1,90,2|0,0:0|0:0,0:0:0:0:
54,242,160789,2,0,L|158:223,1,90,2|2,0:0|0:0,0:0:0:0:
262,359,161033,2,0,L|158:340,1,90,8|0,0:0|0:0,0:0:0:0:
317,226,161277,2,0,L|421:207,1,90,8|0,0:1|0:0,0:0:0:0:
197,89,161521,6,0,L|93:70,1,90,2|0,0:0|0:0,0:0:0:0:
258,22,161765,2,0,P|286:103|234:173,1,180,8|8,0:0|0:1,0:0:0:0:
17,340,162131,1,0,0:0:0:0:
73,293,162253,1,8,0:1:0:0:
145,281,162375,1,0,0:0:0:0:
215,304,162497,6,0,P|268:306|337:289,1,90,2|0,0:0|0:0,0:0:0:0:
501,199,162741,2,0,P|402:209|391:286,1,180,2|8,0:0|0:0,0:0:0:0:
462,258,163106,1,0,0:0:0:0:
306,116,163228,2,0,L|324:241,1,90,8|0,0:1|0:0,0:0:0:0:
437,26,163472,6,0,L|312:44,1,90,2|0,0:0|0:0,0:0:0:0:
144,185,163716,2,0,L|269:167,1,90,8|0,0:0|0:0,0:0:0:0:
37,25,163960,1,8,0:1:0:0:
0,87,164081,1,0,0:0:0:0:
57,136,164204,1,8,0:1:0:0:
21,200,164326,1,0,0:0:0:0:
76,248,164448,6,0,L|95:343,1,90,2|0,0:0|0:0,0:0:0:0:
233,172,164692,1,2,0:0:0:0:
233,172,164814,1,2,0:0:0:0:
233,172,164936,2,0,L|214:77,1,90,8|0,0:0|0:0,0:0:0:0:
167,241,165180,2,0,P|225:267|274:253,1,90,8|0,0:1|0:0,0:0:0:0:
395,140,165424,6,0,P|336:113|287:127,1,90,2|0,0:0|0:0,0:0:0:0:
239,363,165667,2,0,P|292:350|330:204,1,180,8|8,0:0|0:1,0:0:0:0:
215,83,166033,1,0,0:0:0:0:
133,49,166155,2,0,L|40:72,1,90,8|0,0:1|0:0,0:0:0:0:
215,83,166399,6,0,P|317:66|368:-8,1,180,2|2,0:0|0:0,0:0:0:0:
480,192,166765,1,2,0:0:0:0:
467,86,166887,2,0,P|380:154|368:167,1,90,8|0,0:0|0:0,0:0:0:0:
467,298,167131,2,0,P|380:230|368:217,1,90,8|0,0:1|0:0,0:0:0:0:
228,192,167375,6,0,L|338:192,1,90,2|0,0:0|0:0,0:0:0:0:
215,83,167619,2,0,L|105:83,1,90,8|0,0:0|0:0,0:0:0:0:
28,236,167863,1,8,0:1:0:0:
79,284,167984,1,0,0:0:0:0:
143,250,168106,1,8,0:1:0:0:
129,178,168228,1,0,0:0:0:0:
57,170,168350,6,0,P|20:104|20:56,1,90,2|0,0:0|0:0,0:0:0:0:
232,244,168594,1,2,0:0:0:0:
232,244,168716,1,2,0:0:0:0:
232,244,168838,2,0,P|219:287|193:322,1,90,8|0,0:0|0:0,0:0:0:0:
216,160,169082,2,0,L|324:136,1,90,8|0,0:1|0:0,0:0:0:0:
416,248,169326,6,0,L|308:224,1,90,2|0,0:0|0:0,0:0:0:0:
288,48,169570,2,0,L|375:67,1,90,8|0,0:0|0:0,0:0:0:0:
216,160,169814,2,0,L|128:140,1,90,8|0,0:1|0:0,0:0:0:0:
8,324,170058,1,8,0:1:0:0:
76,356,170180,1,0,0:0:0:0:
144,328,170302,6,0,P|244:312|348:352,1,180,2|2,0:0|0:0,0:0:0:0:
75,271,170667,1,2,0:0:0:0:
75,271,170789,2,0,P|56:231|48:187,1,90,8|0,0:0|0:0,0:0:0:0:
92,104,171033,2,0,L|196:80,1,90,8|0,0:1|0:0,0:0:0:0:
280,216,171277,6,0,P|260:175|252:131,1,90,2|0,0:0|0:0,0:0:0:0:
448,232,171521,2,0,P|407:251|363:259,1,90,8|0,0:0|0:0,0:0:0:0:
376,44,171765,1,8,0:1:0:0:
440,80,171887,1,0,0:0:0:0:
404,144,172009,1,8,0:1:0:0:
340,108,172131,1,0,0:0:0:0:
376,44,172253,6,0,L|488:20,1,90,2|0,0:0|0:0,0:0:0:0:
264,16,172497,1,2,0:0:0:0:
264,16,172619,1,2,0:0:0:0:
264,16,172741,2,0,L|252:128,1,90,8|0,0:0|0:0,0:0:0:0:
92,104,172985,2,0,L|2:94,1,90,8|0,0:1|0:0,0:0:0:0:
44,248,173228,6,0,P|132:223|164:228,1,90,2|0,0:0|0:0,0:0:0:0:
272,358,173472,2,0,P|207:293|194:264,1,90,8|0,0:0|0:0,0:0:0:0:
254,105,173716,2,0,P|230:193|211:218,1,90,8|0,0:1|0:0,0:0:0:0:
388,328,173960,1,8,0:1:0:0:
440,276,174082,1,0,0:0:0:0:
456,204,174204,6,0,L|416:12,1,180,2|2,0:0|0:0,0:0:0:0:
348,160,174570,1,2,0:0:0:0:
348,160,174692,2,0,L|366:248,1,90,8|0,0:0|0:0,0:0:0:0:
231,190,174936,2,0,P|196:109|211:22,1,180,8|2,0:1|0:0,0:0:0:0:
336,24,175302,5,0,0:0:0:0:
336,24,175424,2,0,P|272:88|272:96,1,90,8|0,0:0|0:0,0:0:0:0:
428,104,175667,2,0,P|492:40|492:32,1,90,8|0,0:1|0:0,0:0:0:0:
232,191,175911,1,8,0:1:0:0:
280,256,176033,1,0,0:0:0:0:
200,264,176155,6,0,L|40:304,1,135.000005149842,2|2,0:0|0:0,0:0:0:0:
296,321,176521,1,2,0:0:0:0:
296,321,176643,2,0,L|276:241,1,67.5000025749208,8|0,0:0|0:0,0:0:0:0:
136,128,176887,2,0,L|156:208,1,67.5000025749208,8|0,0:1|0:0,0:0:0:0:
323,173,177131,6,0,L|403:153,1,67.5000025749208,2|0,0:0|0:0,0:0:0:0:
287,95,177375,2,0,L|207:115,1,67.5000025749208,8|0,0:0|0:0,0:0:0:0:
364,25,177619,1,8,0:1:0:0:
364,25,177741,1,0,0:0:0:0:
364,25,177863,1,8,0:1:0:0:
364,25,177985,1,0,0:0:0:0:
364,25,178106,6,0,P|424:79|505:84,1,135.000005149842,2|2,0:0|0:0,0:0:0:0:
512,213,178472,1,2,0:0:0:0:
454,270,178594,2,0,P|438:299|429:332,1,67.5000025749208,8|0,0:0|0:0,0:0:0:0:
323,173,178838,2,0,P|299:101|299:85,1,67.5000025749208,8|0,0:1|0:0,0:0:0:0:
300,278,179082,6,0,L|385:264,1,67.5000025749208,2|0,0:0|0:0,0:0:0:0:
234,378,179326,2,0,L|319:364,1,67.5000025749208,8|0,0:0|0:0,0:0:0:0:
184,226,179570,1,8,0:1:0:0:
184,226,179692,1,0,0:0:0:0:
184,226,179814,2,0,L|202:291,1,67.5000025749208,8|0,0:1|0:0,0:0:0:0:
83,366,180058,6,0,L|47:235,1,135.000005149842,2|2,0:0|0:0,0:0:0:0:
79,81,180424,1,2,0:0:0:0:
79,81,180545,2,0,L|96:146,1,67.5000025749208,8|0,0:0|0:0,0:0:0:0:
217,4,180789,2,0,L|151:21,1,67.5000025749208,8|0,0:1|0:0,0:0:0:0:
266,141,181033,5,2,0:0:0:0:
303,74,181155,1,0,0:0:0:0:
339,140,181277,2,0,P|371:152|405:156,1,67.5000025749208,8|0,0:0|0:0,0:0:0:0:
213,222,181521,1,8,0:1:0:0:
213,222,181643,1,0,0:0:0:0:
213,222,181765,1,8,0:1:0:0:
213,222,181887,1,0,0:0:0:0:
213,222,182009,6,0,P|148:253|95:295,1,135.000005149842,2|2,0:0|0:0,0:0:0:0:
297,336,182375,1,2,0:0:0:0:
234,298,182497,2,0,P|199:318|160:346,1,67.5000025749208,8|0,0:0|0:0,0:0:0:0:
360,374,182741,2,0,P|395:354|434:326,1,67.5000025749208,8|0,0:1|0:0,0:0:0:0:
225,295,182985,6,0,P|190:315|151:343,1,67.5000025749208,2|0,0:0|0:0,0:0:0:0:
369,377,183228,2,0,P|404:357|443:329,1,67.5000025749208,8|0,0:0|0:0,0:0:0:0:
303,202,183472,2,0,P|321:230|338:259,1,67.5000025749208,8|0,0:1|0:0,0:0:0:0:
176,208,183716,2,0,P|157:179|140:150,1,67.5000025749208,8|0,0:1|0:0,0:0:0:0:
348,135,183960,6,0,P|322:210|351:276,1,135.000005149842,2|2,0:0|0:0,0:0:0:0:
280,84,184326,1,2,0:0:0:0:
280,84,184448,2,0,P|248:153|246:160,1,67.5000025749208,8|0,0:0|0:0,0:0:0:0:
433,270,184692,2,0,P|401:201|399:194,1,67.5000025749208,8|0,0:1|0:0,0:0:0:0:
428,44,184936,6,0,L|350:60,1,67.5000025749208,2|0,0:0|0:0,0:0:0:0:
221,19,185180,2,0,L|143:35,1,67.5000025749208,8|0,0:0|0:0,0:0:0:0:
29,187,185424,1,8,0:1:0:0:
29,187,185545,1,0,0:0:0:0:
29,187,185667,1,8,0:1:0:0:
29,187,185789,1,0,0:0:0:0:
29,187,185911,6,0,L|161:159,1,135.000005149842,2|2,0:0|0:0,0:0:0:0:
283,228,186277,1,2,0:0:0:0:
283,228,186399,2,0,L|267:150,1,67.5000025749208,8|0,0:0|0:0,0:0:0:0:
153,264,186643,2,0,L|169:342,1,67.5000025749208,8|0,0:1|0:0,0:0:0:0:
95,146,186887,6,0,L|161:159,1,67.5000025749208,2|0,0:0|0:0,0:0:0:0:
341,346,187131,2,0,L|274:332,1,67.5000025749208,8|0,0:0|0:0,0:0:0:0:
218,246,187375,1,8,0:1:0:0:
218,246,187497,1,0,0:0:0:0:
218,246,187619,1,8,0:1:0:0:
218,246,187741,1,0,0:0:0:0:
218,246,187863,6,0,P|256:163|228:93,1,135.000005149842,2|2,0:0|0:0,0:0:0:0:
85,0,188228,1,2,0:0:0:0:
148,39,188350,2,0,P|217:61|225:62,1,67.5000025749208,8|0,0:0|0:0,0:0:0:0:
408,156,188594,2,0,P|377:143|345:135,1,67.5000025749208,8|0,0:1|0:0,0:0:0:0:
12,164,188838,6,0,L|80:172,1,67.5000025749208,2|0,0:0|0:0,0:0:0:0:
145,233,189082,2,0,L|137:300,1,67.5000025749208,8|0,0:0|0:0,0:0:0:0:
141,106,189326,2,0,L|147:38,1,67.5000025749208,8|0,0:1|0:0,0:0:0:0:
273,174,189570,2,0,L|206:167,1,67.5000025749208,8|0,0:1|0:0,0:0:0:0:
345,135,189814,6,0,P|344:218|306:250,1,135.000005149842,2|2,0:0|0:0,0:0:0:0:
278,90,190180,1,2,0:0:0:0:
278,90,190302,2,0,L|263:14,1,67.5000025749208,8|0,0:0|0:0,0:0:0:0:
420,229,190545,2,0,P|427:203|421:144,1,67.5000025749208,8|0,0:1|0:0,0:0:0:0:
206,167,190789,6,0,L|292:176,1,67.5000025749208,2|0,0:0|0:0,0:0:0:0:
68,247,191033,2,0,L|-18:237,1,67.5000025749208,8|0,0:0|0:0,0:0:0:0:
199,359,191277,1,8,0:1:0:0:
199,359,191399,1,0,0:0:0:0:
199,359,191521,1,8,0:1:0:0:
199,359,191643,1,0,0:0:0:0:
199,359,191765,1,0,0:0:0:0:
210,219,199570,5,2,0:0:0:0:
165,142,200058,1,2,0:0:0:0:
210,64,200546,1,2,0:0:0:0:
300,64,201034,1,2,0:0:0:0:
345,298,201521,5,2,0:0:0:0:
435,298,202008,1,2,0:0:0:0:
480,220,202497,1,2,0:0:0:0:
435,142,202985,1,2,0:0:0:0:
75,143,203473,5,2,0:0:0:0:
30,221,203961,1,2,0:0:0:0:
75,299,204449,1,2,0:0:0:0:
165,299,204936,1,2,0:0:0:0:
435,142,205424,5,2,0:0:0:0:
345,142,205911,1,2,0:0:0:0:
300,220,206399,1,2,0:0:0:0:
345,298,206887,1,2,0:0:0:0:
255,141,207375,6,0,P|175:156|139:156,1,67.5000025749208,2|0,0:0|0:0,0:0:0:0:
119,87,207619,1,2,0:0:0:0:
119,87,207741,1,2,0:0:0:0:
119,87,207863,2,0,P|199:72|235:72,1,67.5000025749208,8|0,0:0|0:0,0:0:0:0:
119,206,208106,2,0,P|39:221|3:221,1,67.5000025749208,8|0,0:1|0:0,0:0:0:0:
204,235,208350,6,0,P|219:315|219:351,1,67.5000025749208,2|0,0:0|0:0,0:0:0:0:
326,161,208594,2,0,P|311:81|311:45,1,67.5000025749208,8|0,0:0|0:0,0:0:0:0:
365,258,208838,2,0,L|286:248,1,67.5000025749208,8|0,0:1|0:0,0:0:0:0:
432,167,209082,2,0,L|511:177,1,67.5000025749208,8|0,0:1|0:0,0:0:0:0:
381,44,209326,6,0,P|291:15|226:46,1,135.000005149842,2|2,0:0|0:0,0:0:0:0:
224,49,209692,1,2,0:0:0:0:
224,49,209814,2,0,P|163:47|140:37,1,67.5000025749208,8|0,0:0|0:0,0:0:0:0:
0,65,210058,2,0,P|61:67|84:77,1,67.5000025749208,8|0,0:1|0:0,0:0:0:0:
69,225,210302,6,0,L|-14:232,1,67.5000025749208,2|0,0:0|0:0,0:0:0:0:
185,132,210545,2,0,L|102:139,1,67.5000025749208,8|0,0:0|0:0,0:0:0:0:
269,233,210789,2,0,L|186:240,1,67.5000025749208,8|0,0:1|0:0,0:0:0:0:
312,95,211033,2,0,L|317:162,1,67.5000025749208,8|0,0:1|0:0,0:0:0:0:
344,357,211277,6,0,P|408:328|456:256,1,135.000005149842,2|2,0:0|0:0,0:0:0:0:
456,232,211643,1,2,0:0:0:0:
456,232,211765,2,0,P|530:266|537:265,1,67.5000025749208,8|0,0:0|0:0,0:0:0:0:
325,266,212009,2,0,P|251:232|244:233,1,67.5000025749208,8|0,0:1|0:0,0:0:0:0:
167,368,212253,6,0,L|146:278,1,67.5000025749208,2|0,0:0|0:0,0:0:0:0:
44,256,212497,2,0,L|23:166,1,67.5000025749208,8|0,0:0|0:0,0:0:0:0:
24,20,212741,2,0,L|89:35,1,67.5000025749208,8|0,0:1|0:0,0:0:0:0:
136,142,212985,2,0,L|201:157,1,67.5000025749208,8|0,0:1|0:0,0:0:0:0:
446,72,213228,6,0,L|314:41,1,135.000005149842,2|2,0:0|0:0,0:0:0:0:
270,40,213594,1,2,0:0:0:0:
270,40,213716,2,0,L|289:121,1,67.5000025749208,8|0,0:0|0:0,0:0:0:0:
406,212,213960,2,0,L|387:131,1,67.5000025749208,8|0,0:1|0:0,0:0:0:0:
170,279,214204,6,0,P|203:273|235:261,1,67.5000025749208,2|0,0:0|0:0,0:0:0:0:
411,301,214448,2,0,P|403:334|392:366,1,67.5000025749208,8|0,0:0|0:0,0:0:0:0:
269,353,214692,2,0,P|295:330|318:305,1,67.5000025749208,8|0,0:1|0:0,0:0:0:0:
488,251,214936,2,0,P|500:283|506:316,1,67.5000025749208,8|0,0:1|0:0,0:0:0:0:
406,212,215180,6,0,L|375:80,1,135.000005149842,2|2,0:0|0:0,0:0:0:0:
373,43,215545,1,2,0:0:0:0:
373,43,215667,2,0,P|443:12|459:12,1,67.5000025749208,8|0,0:0|0:0,0:0:0:0:
304,190,215911,2,0,P|234:221|218:221,1,67.5000025749208,8|0,0:1|0:0,0:0:0:0:
259,50,216155,6,0,L|249:155,1,67.5000025749208,2|0,0:0|0:0,0:0:0:0:
140,68,216399,2,0,L|130:173,1,67.5000025749208,8|0,0:0|0:0,0:0:0:0:
244,219,216643,2,0,L|254:324,1,67.5000025749208,8|0,0:1|0:0,0:0:0:0:
363,237,216887,2,0,L|373:342,1,67.5000025749208,8|0,0:1|0:0,0:0:0:0:
181,350,217131,6,0,L|15:360,1,135.000005149842,2|2,0:0|0:0,0:0:0:0:
12,329,217497,1,2,0:0:0:0:
12,329,217619,2,0,P|0:253|3:236,1,67.5000025749208,8|0,0:0|0:0,0:0:0:0:
84,152,217863,2,0,L|104:236,1,67.5000025749208,8|0,0:1|0:0,0:0:0:0:
250,286,218106,6,0,P|262:210|259:193,1,67.5000025749208,2|0,0:0|0:0,0:0:0:0:
198,83,218350,2,0,P|226:102|249:128,1,67.5000025749208,8|0,0:0|0:0,0:0:0:0:
404,250,218594,2,0,P|376:232|354:207,1,67.5000025749208,8|0,0:1|0:0,0:0:0:0:
352,49,218838,2,0,P|342:81|340:114,1,67.5000025749208,8|0,0:1|0:0,0:0:0:0:
475,66,219082,6,0,P|433:137|469:175,1,135.000005149842,2|2,0:0|0:0,0:0:0:0:
486,198,219448,1,2,0:0:0:0:
486,198,219570,2,0,P|506:272|505:286,1,67.5000025749208,8|0,0:0|0:0,0:0:0:0:
384,314,219814,2,0,P|404:240|403:226,1,67.5000025749208,8|0,0:1|0:0,0:0:0:0:
315,138,220058,6,0,L|233:125,1,67.5000025749208,2|0,0:0|0:0,0:0:0:0:
93,206,220302,2,0,L|175:219,1,67.5000025749208,8|0,0:0|0:0,0:0:0:0:
236,290,220545,2,0,L|249:208,1,67.5000025749208,8|0,0:1|0:0,0:0:0:0:
172,54,220789,2,0,L|159:136,1,67.5000025749208,8|0,0:1|0:0,0:0:0:0:
395,55,221033,6,0,L|261:33,1,135.000005149842,2|2,0:0|0:0,0:0:0:0:
399,244,221399,1,2,0:0:0:0:
399,244,221521,2,0,L|409:176,1,67.5000025749208,8|0,0:0|0:0,0:0:0:0:
171,277,221765,2,0,L|304:298,1,135.000005149842,8|2,0:1|0:0,0:0:0:0:
167,88,222131,1,0,0:0:0:0:
167,88,222253,2,0,L|157:156,1,67.5000025749208,8|0,0:0|0:0,0:0:0:0:
328,128,222497,6,0,L|246:115,1,67.5000025749208,8|0,0:1|0:0,0:0:0:0:
11,235,222741,2,0,L|93:248,1,67.5000025749208,8|0,0:1|0:0,0:0:0:0:
341,277,222985,5,2,0:0:0:0:
256,356,223228,1,0,0:0:0:0:
171,277,223472,1,0,0:0:0:0:
256,198,223716,1,0,0:0:0:0:
256,356,223960,1,0,0:0:0:0:
368,180,224204,1,0,0:0:0:0:
368,180,224326,1,0,0:0:0:0:
144,180,224570,1,0,0:0:0:0:
144,180,224692,1,0,0:0:0:0:
276,80,224936,5,2,0:0:0:0:
276,80,225058,1,0,0:0:0:0:
276,80,225180,2,0,L|396:72,1,90,2|2,0:0|0:0,0:0:0:0:
176,4,225424,2,0,L|188:120,1,90,8|0,0:0|0:0,0:0:0:0:
144,180,225668,2,0,P|64:204|16:192,1,90,8|0,0:1|0:0,0:0:0:0:
280,200,225911,5,2,0:0:0:0:
352,212,226033,1,0,0:0:0:0:
424,224,226155,2,0,L|532:244,1,90,8|0,0:0|0:0,0:0:0:0:
416,64,226399,2,0,L|396:172,1,90,8|0,0:1|0:0,0:0:0:0:
289,358,226643,2,0,L|309:250,1,90,8|0,0:1|0:0,0:0:0:0:
256,120,226887,6,0,P|218:143|197:183,1,90,2|0,0:0|0:0,0:0:0:0:
128,364,227131,1,2,0:0:0:0:
112,292,227253,1,2,0:0:0:0:
96,220,227375,2,0,L|72:108,1,90,8|0,0:0|0:0,0:0:0:0:
100,25,227619,2,0,L|12:44,1,90,8|0,0:1|0:0,0:0:0:0:
188,92,227863,6,0,P|230:76|265:49,1,90,2|0,0:0|0:0,0:0:0:0:
461,25,228106,2,0,P|419:40|384:68,1,90,8|0,0:0|0:0,0:0:0:0:
280,200,228350,1,8,0:1:0:0:
350,194,228472,1,0,0:0:0:0:
408,234,228594,1,8,0:1:0:0:
428,301,228716,1,0,0:0:0:0:
400,366,228838,6,0,L|304:358,1,90,2|0,0:0|0:0,0:0:0:0:
112,292,229082,1,2,0:0:0:0:
112,292,229204,1,2,0:0:0:0:
112,292,229326,2,0,L|208:300,1,90,8|0,0:0|0:0,0:0:0:0:
40,113,229570,2,0,L|31:222,1,90,8|0,0:1|0:0,0:0:0:0:
237,173,229814,6,0,P|193:164|154:144,1,90,2|0,0:0|0:0,0:0:0:0:
331,146,230058,2,0,P|346:189|349:233,1,90,8|0,0:0|0:0,0:0:0:0:
267,76,230302,2,0,P|297:42|335:17,1,90,8|0,0:1|0:0,0:0:0:0:
482,244,230545,1,8,0:1:0:0:
434,303,230667,1,0,0:0:0:0:
365,332,230789,6,0,P|303:319|150:323,1,180,2|2,0:0|0:0,0:0:0:0:
435,89,231155,1,2,0:0:0:0:
435,89,231277,2,0,P|431:153|435:197,1,90,8|0,0:0|0:0,0:0:0:0:
277,289,231521,2,0,P|281:225|277:181,1,90,8|0,0:1|0:0,0:0:0:0:
104,84,231765,5,2,0:0:0:0:
172,60,231887,1,0,0:0:0:0:
240,36,232009,2,0,L|340:60,1,90,8|0,0:0|0:0,0:0:0:0:
124,168,232253,2,0,L|24:144,1,90,8|0,0:1|0:0,0:0:0:0:
268,120,232497,2,0,L|368:144,1,90,8|0,0:1|0:0,0:0:0:0:
172,272,232741,6,0,P|88:280|16:208,1,180,2|2,0:0|0:0,0:0:0:0:
196,352,233106,1,2,0:0:0:0:
196,352,233228,2,0,P|296:344|312:348,1,90,8|0,0:0|0:0,0:0:0:0:
244,164,233472,2,0,P|252:264|248:280,1,90,8|0,0:1|0:0,0:0:0:0:
327,57,233716,6,0,L|240:36,1,90,2|0,0:0|0:0,0:0:0:0:
36,146,233960,2,0,L|124:168,1,90,8|0,0:0|0:0,0:0:0:0:
379,219,234204,1,8,0:1:0:0:
324,266,234326,1,0,0:0:0:0:
253,252,234448,1,8,0:1:0:0:
198,300,234570,1,0,0:0:0:0:
127,286,234692,6,0,P|76:288|24:304,1,90,2|0,0:0|0:0,0:0:0:0:
184,216,234936,1,2,0:0:0:0:
184,216,235058,1,2,0:0:0:0:
184,216,235180,2,0,P|194:172|195:127,1,90,8|0,0:0|0:0,0:0:0:0:
324,266,235424,2,0,P|313:309|312:354,1,90,8|0,0:1|0:0,0:0:0:0:
466,298,235667,6,0,L|454:178,1,90,2|0,0:0|0:0,0:0:0:0:
356,38,235911,2,0,L|368:158,1,90,8|0,0:0|0:0,0:0:0:0:
150,76,236155,1,8,0:1:0:0:
222,60,236277,1,0,0:0:0:0:
266,120,236399,1,8,0:1:0:0:
234,184,236521,1,0,0:0:0:0:
162,196,236643,6,0,P|134:292|138:312,1,90,2|0,0:0|0:0,0:0:0:0:
312,354,236887,1,2,0:0:0:0:
312,354,237009,1,2,0:0:0:0:
312,354,237131,2,0,P|216:326|196:330,1,90,8|0,0:0|0:0,0:0:0:0:
416,312,237375,2,0,P|512:340|532:336,1,90,8|0,0:1|0:0,0:0:0:0:
337,263,237619,6,0,L|321:143,1,90,2|0,0:0|0:0,0:0:0:0:
145,196,237863,2,0,L|265:180,1,90,8|0,0:0|0:0,0:0:0:0:
356,0,238106,1,8,0:1:0:0:
284,0,238228,1,0,0:0:0:0:
212,4,238350,2,0,L|228:124,1,90,8|0,0:1|0:0,0:0:0:0:
404,71,238594,6,0,L|284:87,1,90,2|0,0:0|0:0,0:0:0:0:
468,160,238838,2,0,P|504:64|472:-4,1,180,2|8,0:0|0:0,0:0:0:0:
224,92,239204,1,0,0:0:0:0:
156,120,239326,2,0,P|120:216|152:284,1,180,8|2,0:1|0:0,0:0:0:0:
396,224,239692,5,0,0:0:0:0:
324,216,239814,2,0,L|196:200,1,90,8|0,0:0|0:0,0:0:0:0:
16,319,240058,1,8,0:1:0:0:
79,286,240179,1,0,0:0:0:0:
150,281,240301,1,8,0:1:0:0:
218,305,240423,1,0,0:0:0:0:
269,354,240545,6,0,P|306:360|388:350,1,90,2|0,0:0|0:0,0:0:0:0:
470,240,240789,2,0,L|452:344,1,90,2|2,0:0|0:0,0:0:0:0:
298,126,241033,2,0,L|386:141,1,90,8|0,0:0|0:0,0:0:0:0:
197,217,241277,2,0,L|108:201,1,90,8|0,0:1|0:0,0:0:0:0:
212,16,241521,6,0,L|193:128,1,90,2|0,0:0|0:0,0:0:0:0:
158,307,241765,2,0,P|264:288|290:205,1,180,8|8,0:0|0:1,0:0:0:0:
114,112,242131,1,0,0:0:0:0:
47,134,242252,1,8,0:1:0:0:
18,198,242374,1,0,0:0:0:0:
44,263,242497,6,0,P|44:309|26:351,1,90,2|0,0:0|0:0,0:0:0:0:
109,203,242741,2,0,B|206:185|312:173,1,180,2|8,0:0|0:0,0:0:0:0:
441,193,243106,1,0,0:0:0:0:
369,41,243228,2,0,P|369:144|370:151,1,90,8|0,0:1|0:0,0:0:0:0:
414,317,243472,6,0,P|503:264|509:260,1,90,2|0,0:0|0:0,0:0:0:0:
286,175,243716,2,0,P|196:227|190:231,1,90,8|0,0:0|0:0,0:0:0:0:
47,103,243960,1,8,0:1:0:0:
112,67,244082,1,0,0:0:0:0:
146,132,244204,1,8,0:1:0:0:
80,166,244326,1,0,0:0:0:0:
14,200,244448,6,0,P|11:271|26:318,1,90,2|0,0:0|0:0,0:0:0:0:
186,365,244692,1,2,0:0:0:0:
186,365,244814,1,2,0:0:0:0:
186,365,244936,2,0,L|82:353,1,90,8|0,0:0|0:0,0:0:0:0:
306,258,245180,2,0,L|295:347,1,90,8|0,0:1|0:0,0:0:0:0:
135,218,245424,6,0,P|136:150|164:109,1,90,2|0,0:0|0:0,0:0:0:0:
421,114,245667,2,0,L|237:90,1,180,8|8,0:0|0:1,0:0:0:0:
474,175,246033,1,0,0:0:0:0:
499,101,246155,2,0,L|484:-8,1,90,8|0,0:1|0:0,0:0:0:0:
370,204,246399,6,0,P|454:281|525:270,1,180,2|2,0:0|0:0,0:0:0:0:
306,258,246765,1,2,0:0:0:0:
306,258,246887,2,0,P|207:295|192:304,1,90,8|0,0:0|0:0,0:0:0:0:
37,238,247131,2,0,P|136:201|151:192,1,90,8|0,0:1|0:0,0:0:0:0:
298,275,247375,6,0,P|199:312|184:321,1,90,2|0,0:0|0:0,0:0:0:0:
45,221,247619,2,0,P|144:184|159:175,1,90,8|0,0:0|0:0,0:0:0:0:
247,31,247863,1,8,0:1:0:0:
197,85,247985,1,0,0:0:0:0:
268,98,248106,1,8,0:1:0:0:
318,43,248228,1,0,0:0:0:0:
391,27,248350,6,0,P|446:39|498:62,1,90,2|0,0:0|0:0,0:0:0:0:
312,189,248594,1,2,0:0:0:0:
312,189,248716,1,2,0:0:0:0:
312,189,248838,2,0,P|257:177|205:154,1,90,8|0,0:0|0:0,0:0:0:0:
439,143,249082,2,0,L|455:243,1,90,8|0,0:1|0:0,0:0:0:0:
320,350,249326,5,2,0:0:0:0:
249,369,249448,1,0,0:0:0:0:
191,327,249570,2,0,L|91:343,1,90,8|0,0:0|0:0,0:0:0:0:
258,259,249814,2,0,L|174:226,1,90,8|0,0:1|0:0,0:0:0:0:
350,233,250058,2,0,L|286:154,1,90,8|0,0:1|0:0,0:0:0:0:
442,256,250302,6,0,L|413:78,1,180,2|2,0:0|0:0,0:0:0:0:
324,5,250667,1,2,0:0:0:0:
325,6,250789,2,0,L|339:94,1,90,8|0,0:0|0:0,0:0:0:0:
156,81,251033,2,0,L|244:66,1,90,8|0,0:1|0:0,0:0:0:0:
173,226,251277,6,0,P|96:185|-5:195,1,180,2|8,0:0|0:0,0:0:0:0:
6,314,251643,1,0,0:0:0:0:
6,314,251765,2,0,P|84:256|97:258,1,90,8|0,0:1|0:0,0:0:0:0:
254,245,252009,2,0,P|176:303|163:301,1,90,8|0,0:1|0:0,0:0:0:0:
156,81,252253,6,0,P|265:97|340:104,1,180,2|2,0:0|0:0,0:0:0:0:
512,45,252619,1,2,0:0:0:0:
450,86,252741,2,0,P|412:175|411:202,1,90,8|0,0:0|0:0,0:0:0:0:
512,306,252985,2,0,P|423:268|396:267,1,90,8|0,0:1|0:0,0:0:0:0:
269,333,253228,6,0,L|252:234,1,90,2|0,0:0|0:0,0:0:0:0:
53,168,253472,2,0,L|70:267,1,90,8|0,0:0|0:0,0:0:0:0:
343,248,253716,2,0,L|326:149,1,90,8|0,0:1|0:0,0:0:0:0:
127,83,253960,2,0,L|144:182,1,90,8|0,0:1|0:0,0:0:0:0:
373,83,254204,6,0,P|267:101|248:182,1,180,2|2,0:0|0:0,0:0:0:0:
414,157,254570,1,2,0:0:0:0:
414,157,254692,2,0,P|490:189|520:211,1,90,8|0,0:0|0:0,0:0:0:0:
292,334,254936,2,0,P|309:206|330:151,1,180,8|2,0:1|0:0,0:0:0:0:
474,357,255302,5,0,0:0:0:0:
474,357,255424,2,0,P|379:323|365:322,1,90,8|0,0:0|0:0,0:0:0:0:
121,327,255667,2,0,P|216:361|230:362,1,90,8|0,0:1|0:0,0:0:0:0:
326,158,255911,1,8,0:1:0:0:
288,97,256033,1,0,0:0:0:0:
220,121,256155,6,0,P|111:109|53:65,1,180,2|2,0:0|0:0,0:0:0:0:
0,201,256521,1,2,0:0:0:0:
0,201,256643,2,0,P|113:190|139:191,1,90,8|0,0:0|0:0,0:0:0:0:
240,21,256887,2,0,P|127:32|101:31,1,90,8|0,0:1|0:0,0:0:0:0:
326,158,257131,5,2,0:0:0:0:
398,178,257253,1,0,0:0:0:0:
461,139,257375,2,0,P|473:62|464:32,1,90,8|0,0:0|0:0,0:0:0:0:
304,71,257619,2,0,L|394:90,1,90,8|0,0:1|0:0,0:0:0:0:
512,273,257863,2,0,L|422:254,1,90,8|0,0:1|0:0,0:0:0:0:
176,294,258106,6,0,L|352:331,1,180,2|2,0:0|0:0,0:0:0:0:
220,121,258472,1,2,0:0:0:0:
220,121,258594,2,0,L|201:209,1,90,8|0,0:0|0:0,0:0:0:0:
21,71,258838,2,0,L|39:159,1,90,8|0,0:1|0:0,0:0:0:0:
85,370,259082,5,2,0:0:0:0:
23,331,259204,1,0,0:0:0:0:
87,298,259326,2,0,P|188:297|203:303,1,90,8|0,0:0|0:0,0:0:0:0:
352,331,259570,2,0,L|328:220,1,90,8|0,0:1|0:0,0:0:0:0:
200,33,259814,2,0,L|219:120,1,90,8|0,0:1|0:0,0:0:0:0:
477,104,260058,6,0,P|355:110|300:176,1,180,2|2,0:0|0:0,0:0:0:0:
497,203,260424,1,2,0:0:0:0:
497,203,260545,2,0,P|403:170|376:172,1,90,8|0,0:0|0:0,0:0:0:0:
216,296,260789,2,0,P|249:202|247:175,1,90,8|0,0:1|0:0,0:0:0:0:
59,61,261033,5,2,0:0:0:0:
129,47,261154,1,0,0:0:0:0:
200,33,261277,2,0,L|185:151,1,90,8|0,0:0|0:0,0:0:0:0:
0,207,261521,2,0,L|15:89,1,90,8|0,0:1|0:0,0:0:0:0:
248,213,261765,2,0,L|233:331,1,90,8|0,0:1|0:0,0:0:0:0:
4,365,262009,6,0,P|91:338|123:338,1,90,2|0,0:0|0:0,0:0:0:0:
164,261,262253,1,2,0:0:0:0:
164,261,262375,1,2,0:0:0:0:
164,261,262497,2,0,P|77:234|45:234,1,90,8|0,0:0|0:0,0:0:0:0:
296,368,262741,2,0,P|323:281|323:249,1,90,8|0,0:1|0:0,0:0:0:0:
98,130,262985,6,0,L|188:122,1,90,2|0,0:0|0:0,0:0:0:0:
501,92,263228,2,0,L|412:101,1,90,8|0,0:0|0:0,0:0:0:0:
264,115,263472,1,8,0:1:0:0:
306,173,263594,1,0,0:0:0:0:
336,108,263716,1,8,0:1:0:0:
294,50,263838,1,0,0:0:0:0:
229,17,263960,6,0,P|135:18|115:23,1,90,2|0,0:0|0:0,0:0:0:0:
4,141,264204,1,2,0:0:0:0:
4,141,264326,1,2,0:0:0:0:
4,141,264448,2,0,P|3:47|-2:27,1,90,8|0,0:0|0:0,0:0:0:0:
171,213,264692,2,0,P|77:214|57:219,1,90,8|0,0:1|0:0,0:0:0:0:
212,348,264936,5,2,0:0:0:0:
281,325,265058,1,0,0:0:0:0:
350,302,265180,2,0,L|451:317,1,90,8|0,0:0|0:0,0:0:0:0:
282,156,265424,2,0,L|297:257,1,90,8|0,0:1|0:0,0:0:0:0:
455,134,265667,2,0,L|440:33,1,90,8|0,0:1|0:0,0:0:0:0:
173,16,265911,6,0,L|203:218,1,180,2|2,0:0|0:0,0:0:0:0:
99,122,266277,1,2,0:0:0:0:
99,122,266399,2,0,L|-2:137,1,90,8|0,0:0|0:0,0:0:0:0:
282,156,266643,2,0,L|267:55,1,90,8|0,0:1|0:0,0:0:0:0:
100,271,266887,5,2,0:0:0:0:
163,309,267009,1,0,0:0:0:0:
222,266,267131,2,0,P|300:257|354:272,1,90,8|0,0:0|0:0,0:0:0:0:
507,170,267375,2,0,P|429:179|375:164,1,90,8|0,0:1|0:0,0:0:0:0:
416,362,267619,2,0,P|407:284|422:230,1,90,8|0,0:1|0:0,0:0:0:0:
472,70,267863,6,0,L|251:39,1,180,2|2,0:0|0:0,0:0:0:0:
104,54,268228,1,2,0:0:0:0:
104,54,268350,2,0,P|198:34|219:20,1,90,8|0,0:0|0:0,0:0:0:0:
345,188,268594,2,0,P|259:122|196:136,1,180,8|2,0:1|0:0,0:0:0:0:
12,218,268960,5,0,0:0:0:0:
12,218,269082,2,0,P|115:230|131:234,1,90,8|0,0:0|0:0,0:0:0:0:
326,281,269326,1,8,0:1:0:0:
290,346,269448,1,0,0:0:0:0:
226,308,269570,1,8,0:1:0:0:
191,373,269692,1,0,0:0:0:0:
127,336,269814,6,0,P|26:332|12:334,1,90,2|0,0:0|0:0,0:0:0:0:
195,136,270058,1,2,0:0:0:0:
195,136,270180,1,2,0:0:0:0:
195,136,270302,2,0,P|191:237|193:251,1,90,8|0,0:0|0:0,0:0:0:0:
326,281,270545,2,0,P|313:174|327:84,1,180,8|2,0:1|0:0,0:0:0:0:
463,333,270911,5,0,0:0:0:0:
463,333,271033,2,0,P|367:350|355:355,1,90,8|0,0:0|0:0,0:0:0:0:
189,225,271277,2,0,P|285:242|297:247,1,90,8|0,0:1|0:0,0:0:0:0:
490,104,271521,2,0,P|394:121|382:126,1,90,8|0,0:1|0:0,0:0:0:0:
208,19,271765,5,2,0:0:0:0:
96,96,272009,1,2,0:0:0:0:
96,96,272131,1,2,0:0:0:0:
96,96,272253,2,0,L|6:84,1,56.25,8|0,0:0|0:0,0:0:0:0:
193,108,272497,2,0,L|181:198,1,56.25,8|0,0:1|0:0,0:0:0:0:
44,280,272741,5,2,0:0:0:0:
71,275,272862,1,2,0:0:0:0:
99,271,272984,1,8,0:0:0:0:
127,267,273106,1,0,0:0:0:0:
155,262,273228,2,0,L|210:252,1,56.25,8|0,0:1|0:0,0:0:0:0:
286,308,273472,2,0,L|341:298,1,56.25,8|0,0:1|0:0,0:0:0:0:
466,317,273716,6,0,L|436:165,1,112.5,2|2,0:0|0:0,0:0:0:0:
465,66,274082,1,2,0:0:0:0:
465,66,274204,2,0,P|447:88|438:114,1,56.25,8|0,0:0|0:0,0:0:0:0:
334,221,274448,2,0,P|351:198|361:172,1,56.25,8|0,0:1|0:0,0:0:0:0:
194,58,274692,5,2,0:0:0:0:
221,62,274813,1,2,0:0:0:0:
249,65,274935,1,8,0:0:0:0:
277,69,275057,1,0,0:0:0:0:
305,72,275180,2,0,L|287:136,1,56.25,8|0,0:1|0:0,0:0:0:0:
210,172,275424,2,0,L|192:236,1,56.25,8|0,0:1|0:0,0:0:0:0:
266,327,275667,6,0,L|120:341,1,112.5,2|2,0:0|0:0,0:0:0:0:
79,225,276033,1,2,0:0:0:0:
79,225,276155,2,0,L|92:280,1,56.25,8|0,0:0|0:0,0:0:0:0:
12,358,276399,2,0,L|0:304,1,56.25,8|0,0:1|0:0,0:0:0:0:
1,113,276643,5,2,0:0:0:0:
28,118,276764,1,2,0:0:0:0:
56,124,276886,1,8,0:0:0:0:
83,130,277008,1,0,0:0:0:0:
111,136,277131,2,0,L|176:125,1,56.25,8|0,0:1|0:0,0:0:0:0:
224,59,277375,2,0,L|289:48,1,56.25,8|0,0:1|0:0,0:0:0:0:
442,155,277619,6,0,L|304:137,1,112.5,2|2,0:0|0:0,0:0:0:0:
274,246,277985,1,2,0:0:0:0:
274,246,278106,2,0,L|349:240,1,56.25,8|0,0:0|0:0,0:0:0:0:
455,328,278350,2,0,L|380:322,1,56.25,8|0,0:1|0:0,0:0:0:0:
183,365,278594,5,2,0:0:0:0:
177,337,278715,1,2,0:0:0:0:
172,309,278837,1,8,0:0:0:0:
166,282,278959,1,0,0:0:0:0:
161,254,279082,2,0,L|148:174,1,56.25,8|0,0:1|0:0,0:0:0:0:
126,45,279326,2,0,L|136:101,1,56.25,8|0,0:1|0:0,0:0:0:0:
