osu file format v14

[General]
AudioFilename: audio.mp3
AudioLeadIn: 0
PreviewTime: 42563
Countdown: 1
SampleSet: Soft
StackLeniency: 0.7
Mode: 2
LetterboxInBreaks: 0
WidescreenStoryboard: 0

[Editor]
Bookmarks: 11422,21856,32291,37508
DistanceSpacing: 1
BeatDivisor: 4
GridSize: 16
TimelineZoom: 1.8

[Metadata]
Title:Recall THE END
TitleUnicode:Recall THE END
Artist:TRUSTRICK
ArtistUnicode:TRUSTRICK
Creator:examination
Version:Overdose
Source:ダンガンロンパ3-The End of 希望ヶ峰学園- 未来編
Tags:danganronpa dangan ronpa The End of Kibougamine Gakuen Mirai Hen ed ending
BeatmapID:1044942
BeatmapSetID:490231

[Difficulty]
HPDrainRate:7
CircleSize:4
OverallDifficulty:9.3
ApproachRate:9.3
SliderMultiplier:1.93
SliderTickRate:1

[Events]
//Background and Video events
0,0,"bg.png",0,0
//Break Periods
//Storyboard Layer 0 (Background)
//Storyboard Layer 1 (Fail)
//Storyboard Layer 2 (Pass)
//Storyboard Layer 3 (Foreground)
//Storyboard Sound Samples

[TimingPoints]
931,327.868852459016,4,2,0,50,1,0
6176,-100,4,3,0,70,0,0
11422,326.086956521739,4,2,1,30,1,0
21856,-100,4,2,1,50,0,0
32291,-100,4,2,2,70,0,0
41258,-66.6666666666667,4,2,2,70,0,0
42563,-83.3333333333333,4,2,2,80,0,1
84465,-83.3333333333333,4,2,2,80,0,0
88052,-100,4,2,2,80,0,0

[HitObjects]
96,112,931,6,0,L|192:128,1,96.5,4|0,0:0|0:0,0:0:0:0:
48,224,1258,1,0,0:0:0:0:
320,224,1422,2,0,L|416:224,2,96.5,2|0|0,0:0|0:0|0:0,0:0:0:0:
160,224,1914,2,0,L|256:224,2,96.5,2|0|0,0:0|0:0|0:0,0:0:0:0:
448,96,2406,6,0,L|320:96,2,96.5,2|0|0,0:0|0:0|0:0,0:0:0:0:
208,96,2898,2,0,L|80:96,1,96.5,2|0,0:0|0:0,0:0:0:0:
256,192,3226,1,0,3:0:0:0:
16,192,3390,1,0,3:0:0:0:
368,192,3553,6,0,L|480:192,2,96.5,8|0|0,0:3|0:0|0:0,0:0:0:0:
208,192,4045,2,0,L|96:192,2,96.5,2|0|0,0:0|0:0|0:0,0:0:0:0:
464,288,4537,2,0,L|352:288,2,96.5,2|0|0,0:0|0:0|0:0,0:0:0:0:
144,288,5029,6,0,L|256:288,2,96.5,2|0|0,0:0|0:0|0:0,0:0:0:0:
384,192,5521,2,0,L|480:192,1,96.5,2|0,0:0|0:0,0:0:0:0:
160,96,5849,2,0,L|48:96,1,96.5,0|0,3:0|3:0,3:0:0:0:
416,288,6176,5,4,0:0:0:0:
288,288,6340,1,0,0:0:0:0:
160,288,6504,1,0,0:0:0:0:
416,192,6668,1,4,0:0:0:0:
288,192,6832,1,0,0:0:0:0:
416,192,6996,1,0,0:0:0:0:
96,288,7160,5,4,0:0:0:0:
224,288,7324,1,0,0:0:0:0:
352,288,7488,1,0,0:0:0:0:
96,192,7652,1,4,0:0:0:0:
224,192,7816,1,0,0:0:0:0:
96,192,7980,1,0,0:0:0:0:
416,192,8144,5,4,0:0:0:0:
448,64,8308,1,0,0:0:0:0:
96,192,8471,1,4,0:0:0:0:
64,64,8635,1,0,0:0:0:0:
448,304,8799,5,4,0:0:0:0:
304,304,8963,1,0,0:0:0:0:
160,304,9127,1,0,0:0:0:0:
448,192,9291,1,4,0:0:0:0:
304,192,9455,1,0,0:0:0:0:
448,192,9619,1,0,0:0:0:0:
64,304,9783,5,4,0:0:0:0:
208,304,9947,1,0,0:0:0:0:
352,304,10111,1,0,0:0:0:0:
64,192,10275,1,4,0:0:0:0:
208,192,10439,1,0,0:0:0:0:
64,192,10603,1,0,0:0:0:0:
351,192,10767,6,0,L|448:192,1,96.5,4|0,0:0|0:0,0:0:0:0:
161,192,11094,2,0,L|64:192,1,96.5,4|0,0:0|0:0,0:0:0:0:
352,192,11422,6,0,L|384:304,1,96.5,2|0,0:0|0:0,0:0:0:0:
256,224,11748,2,0,L|240:320,1,96.5,8|0,0:0|0:0,0:0:0:0:
352,336,12074,1,0,0:0:0:0:
400,272,12237,1,0,0:0:0:0:
384,192,12400,1,8,0:0:0:0:
256,96,12563,6,0,L|160:96,1,96.5
304,176,12889,2,0,L|400:176,1,96.5,0|8,0:0|0:0,0:0:0:0:
256,256,13215,2,0,L|144:256,1,96.5
304,336,13541,2,0,L|416:336,1,96.5,0|8,0:0|0:0,0:0:0:0:
128,96,13867,6,0,L|32:96,1,96.5
176,176,14193,2,0,L|272:176,1,96.5,0|8,0:0|0:0,0:0:0:0:
128,256,14519,2,0,L|16:256,1,96.5
176,336,14845,2,0,L|288:336,1,96.5,0|8,0:0|0:0,0:0:0:0:
128,336,15171,5,0,0:0:0:0:
80,272,15335,1,0,0:0:0:0:
224,224,15498,2,0,L|256:112,1,96.5,0|8,0:0|0:0,0:0:0:0:
112,128,15824,1,0,0:0:0:0:
256,128,15987,2,0,L|304:224,1,96.5
144,208,16313,2,0,L|112:304,1,96.5,8|0,0:0|0:0,0:0:0:0:
368,128,16639,6,0,L|480:128,1,96.5,4|0,0:0|0:0,0:0:0:0:
320,192,16965,2,0,L|272:320,1,96.5,8|0,0:0|0:0,0:0:0:0:
432,288,17291,2,0,L|464:192,2,96.5,0|0|8,0:0|0:0|0:0,0:0:0:0:
288,288,17780,2,0,L|224:208,1,96.5
368,160,18106,6,0,L|416:64,1,96.5,0|8,0:0|0:0,0:0:0:0:
272,80,18432,2,0,L|160:80,1,96.5
320,192,18758,2,0,L|416:192,1,96.5,0|8,0:0|0:0,0:0:0:0:
272,272,19085,1,0,0:0:0:0:
32,176,19248,6,0,P|16:272|80:368,1,193,2|8,0:0|0:0,0:0:0:0:
208,336,19737,1,0,0:0:0:0:
352,320,19900,1,0,0:0:0:0:
208,192,20063,2,0,L|112:192,2,96.5,0|8|0,0:0|0:0|0:0,0:0:0:0:
480,176,20552,6,0,P|496:272|432:368,1,193,2|8,0:0|0:0,0:0:0:0:
304,352,21041,1,0,0:0:0:0:
160,352,21204,2,0,L|112:256,1,96.5
272,272,21530,2,0,L|304:176,1,96.5,8|0,0:0|0:0,0:0:0:0:
64,192,21856,6,0,L|48:80,1,96.5,2|0,0:0|0:0,0:0:0:0:
208,128,22182,2,0,L|304:128,1,96.5,8|0,0:0|0:0,0:0:0:0:
160,224,22508,2,0,L|32:224,1,96.5
240,272,22835,2,0,L|240:384,1,96.5,8|0,0:0|0:0,0:0:0:0:
480,256,23161,6,0,L|368:256,1,96.5
240,256,23487,2,0,L|144:256,1,96.5,8|0,0:0|0:0,0:0:0:0:
304,192,23813,2,0,L|352:96,1,96.5
176,144,24139,2,0,L|128:48,1,96.5,8|0,0:0|0:0,0:0:0:0:
416,64,24465,6,0,L|464:160,1,96.5
288,192,24791,2,0,L|272:304,1,96.5,8|0,0:0|0:0,0:0:0:0:
112,256,25117,2,0,L|64:368,1,96.5
240,240,25443,2,0,L|336:224,1,96.5,8|0,0:0|0:0,0:0:0:0:
64,96,25769,6,0,L|48:224,1,96.5
208,160,26095,2,0,L|128:96,1,96.5,8|0,0:0|0:0,0:0:0:0:
288,64,26421,2,0,L|368:176,1,96.5
176,272,26748,2,0,L|48:256,1,96.5,8|0,0:0|0:0,0:0:0:0:
432,192,27074,6,0,L|464:288,1,96.5
304,288,27400,2,0,L|192:288,1,96.5,8|0,0:0|0:0,0:0:0:0:
368,160,27726,2,0,L|384:64,1,96.5
208,160,28052,1,8,0:0:0:0:
432,160,28215,6,0,L|480:288,1,96.5
304,256,28541,2,0,L|192:256,1,96.5,0|8,0:0|0:0,0:0:0:0:
368,160,28867,2,0,L|464:160,1,96.5
144,160,29193,2,0,L|48:160,1,96.5,0|8,0:0|0:0,0:0:0:0:
224,64,29519,1,0,0:0:0:0:
464,64,29682,6,0,L|368:64,1,96.5,8|0,3:0|0:0,0:3:0:0:
160,64,30171,1,0,0:0:0:0:
240,112,30335,1,0,0:0:0:0:
288,192,30498,1,0,0:0:0:0:
288,272,30661,1,0,0:0:0:0:
240,336,30824,1,0,0:0:0:0:
16,336,30987,6,0,L|112:336,1,96.5,8|0,3:0|0:0,0:0:0:0:
336,336,31476,1,0,0:0:0:0:
192,336,31639,1,0,0:0:0:0:
165,318,31693,1,0,0:0:0:0:
146,292,31747,1,0,0:0:0:0:
137,261,31802,1,0,0:0:0:0:
139,230,31856,1,0,0:0:0:0:
151,200,31910,1,0,0:0:0:0:
416,192,31965,2,0,L|432:96,1,96.5,0|0,3:0|0:0,0:0:0:0:
288,96,32291,6,0,L|160:96,1,96.5,4|0,0:0|0:0,0:0:0:0:
208,144,32536,1,0,0:0:0:0:
368,192,32617,2,0,L|400:288,1,96.5,4|0,0:0|0:0,0:0:0:0:
352,304,32862,1,0,0:0:0:0:
208,320,32943,2,0,L|160:224,1,96.5,4|0,0:0|0:0,0:0:0:0:
208,192,33188,1,0,0:0:0:0:
416,128,33269,2,0,L|368:224,1,96.5,4|0,0:0|0:0,0:0:0:0:
320,240,33514,1,0,0:0:0:0:
64,240,33595,6,0,L|32:128,1,96.5,4|0,0:0|0:0,0:0:0:0:
96,128,33840,1,0,0:0:0:0:
272,128,33921,2,0,L|176:160,1,96.5,4|0,0:0|0:0,0:0:0:0:
208,192,34166,1,0,0:0:0:0:
368,192,34248,2,0,L|416:304,1,96.5,4|0,0:0|0:0,0:0:0:0:
352,304,34492,1,0,0:0:0:0:
192,304,34574,2,0,L|80:304,1,96.5,4|0,0:0|0:0,0:0:0:0:
112,256,34818,1,0,0:0:0:0:
400,96,34900,6,0,L|448:192,1,96.5,4|0,0:0|0:0,0:0:0:0:
400,208,35144,1,0,0:0:0:0:
208,192,35226,2,0,L|96:192,1,96.5,4|0,0:0|0:0,0:0:0:0:
144,144,35470,1,0,0:0:0:0:
304,192,35552,2,0,L|416:192,1,96.5,4|0,0:0|0:0,0:0:0:0:
368,144,35796,1,0,0:0:0:0:
64,304,35878,6,0,L|256:304,1,193,4|4,0:1|0:0,0:0:0:0:
208,272,36286,1,0,0:0:0:0:
160,240,36367,1,0,0:0:0:0:
320,240,36530,1,4,0:0:0:0:
347,201,36611,1,0,0:0:0:0:
349,153,36693,1,0,0:0:0:0:
323,113,36774,1,0,0:0:0:0:
160,112,36856,2,0,L|48:112,1,96.5,4|0,0:0|0:0,0:0:0:0:
304,192,37182,1,8,0:0:0:0:
352,192,37263,1,0,0:0:0:0:
400,192,37345,1,0,0:0:0:0:
448,192,37426,1,0,0:0:0:0:
160,272,37508,6,0,L|48:272,1,96.5,4|0,0:0|0:0,0:0:0:0:
96,224,37753,1,0,0:0:0:0:
336,112,37835,2,0,L|384:224,1,96.5,8|0,0:0|0:0,0:0:0:0:
320,224,38079,1,0,0:0:0:0:
160,224,38161,2,0,L|256:160,1,96.5,4|0,0:0|0:0,0:0:0:0:
288,176,38405,1,0,0:0:0:0:
480,304,38487,2,0,L|400:240,1,96.5,8|0,0:0|0:0,0:0:0:0:
352,256,38731,1,0,0:0:0:0:
96,320,38813,6,0,L|48:224,1,96.5,4|0,0:0|0:0,0:0:0:0:
112,224,39057,1,0,0:0:0:0:
304,176,39139,2,0,L|192:176,1,96.5,8|0,0:0|0:0,0:0:0:0:
240,128,39383,1,0,0:0:0:0:
432,128,39465,2,0,L|464:224,1,96.5,4|0,0:0|0:0,0:0:0:0:
416,240,39710,1,0,0:0:0:0:
240,304,39791,2,0,L|336:304,1,96.5,8|0,0:0|0:0,0:0:0:0:
304,256,40036,1,0,0:0:0:0:
96,256,40117,6,0,L|32:160,1,96.5,4|0,0:0|0:0,0:0:0:0:
96,160,40362,1,0,0:0:0:0:
304,160,40443,2,0,L|416:160,1,96.5,8|0,0:0|0:0,0:0:0:0:
368,112,40688,1,0,0:0:0:0:
208,160,40769,2,0,L|96:160,1,96.5,4|8,0:0|0:0,0:0:0:0:
400,160,41095,1,8,0:0:0:0:
112,240,41258,6,0,L|416:240,1,289.500011043549,4|0,1:0|0:0,0:0:0:0:
256,336,41748,2,0,L|96:336,1,144.750005521775,8|0,0:0|0:0,0:0:0:0:
400,336,42074,1,4,0:1:0:0:
112,336,42237,1,4,0:1:0:0:
400,128,42563,6,0,L|160:128,1,231.599992932129,4|0,1:0|0:0,0:0:0:0:
336,256,43052,2,0,L|464:256,1,115.799996466065,8|0,0:0|0:0,0:0:0:0:
192,192,43378,2,0,L|144:336,1,115.799996466065,4|0,0:0|0:0,0:0:0:0:
352,304,43704,1,8,0:0:0:0:
64,144,43867,6,0,L|32:272,1,115.799996466065,0|4,0:0|0:0,0:0:0:0:
400,144,44193,2,0,L|432:272,1,115.799996466065,0|8,0:0|0:0,0:0:0:0:
256,256,44519,1,0,0:0:0:0:
432,144,44682,2,0,L|480:32,1,115.799996466065,4|0,0:0|0:0,0:0:0:0:
128,48,45008,1,8,0:0:0:0:
288,48,45171,6,0,L|48:48,1,231.599992932129,4|0,0:0|0:0,0:0:0:0:
240,160,45661,2,0,L|112:160,1,115.799996466065,8|0,0:0|0:0,0:0:0:0:
272,224,45987,1,4,0:0:0:0:
112,224,46150,1,0,0:0:0:0:
352,224,46313,1,8,0:0:0:0:
48,224,46476,6,0,L|32:352,1,115.799996466065,0|4,0:0|0:0,0:0:0:0:
320,320,46802,2,0,L|192:320,1,115.799996466065,0|8,0:0|0:0,0:0:0:0:
384,224,47128,1,0,0:0:0:0:
128,224,47291,1,4,0:0:0:0:
111,169,47372,1,0,0:0:0:0:
124,113,47454,1,0,0:0:0:0:
163,71,47535,1,0,0:0:0:0:
304,80,47617,2,0,L|432:128,1,115.799996466065,8|8,0:0|0:0,0:0:0:0:
368,160,47862,1,0,3:0:0:0:
64,176,47943,6,0,L|32:304,1,115.799996466065,4|0,0:0|0:0,0:0:0:0:
96,304,48188,1,0,0:0:0:0:
352,304,48269,2,0,L|480:256,1,115.799996466065,8|0,0:0|0:0,0:0:0:0:
400,240,48514,1,0,0:0:0:0:
240,240,48595,2,0,L|96:240,1,115.799996466065,4|0,0:0|0:0,0:0:0:0:
160,192,48840,1,0,0:0:0:0:
368,96,48921,2,0,L|256:176,1,115.799996466065,8|0,0:0|0:0,0:0:0:0:
224,160,49166,1,0,0:0:0:0:
48,80,49248,6,0,L|144:144,1,115.799996466065,4|0,0:0|0:0,0:0:0:0:
192,144,49492,1,0,0:0:0:0:
400,144,49574,2,0,L|448:256,1,115.799996466065,8|0,0:0|0:0,0:0:0:0:
400,272,49818,1,0,0:0:0:0:
176,288,49900,2,0,L|304:288,1,115.799996466065,4|0,0:0|0:0,0:0:0:0:
256,240,50144,1,0,0:0:0:0:
80,240,50226,2,0,L|16:128,1,115.799996466065,8|0,0:0|0:0,0:0:0:0:
80,128,50470,1,0,0:0:0:0:
320,128,50552,6,0,L|384:224,1,115.799996466065,4|0,0:0|0:0,0:0:0:0:
336,256,50796,1,0,0:0:0:0:
112,192,50878,2,0,L|240:192,1,115.799996466065,8|0,0:0|0:0,0:0:0:0:
96,304,51204,1,8,0:0:0:0:
432,304,51367,1,4,0:0:0:0:
208,304,51530,1,8,0:0:0:0:
464,112,51693,6,0,L|224:112,1,231.599992932129,4|0,0:0|0:0,0:0:0:0:
112,112,52182,1,8,0:0:0:0:
256,192,52345,1,4,0:0:0:0:
112,256,52508,2,0,L|80:192,1,57.8999982330323,8|0,0:0|0:0,0:0:0:0:
320,256,52671,2,0,L|352:192,1,57.8999982330323,8|0,0:0|0:0,0:0:0:0:
192,256,52835,2,0,L|160:192,1,57.8999982330323
384,256,52998,6,0,L|128:256,1,231.599992932129,4|0,1:0|0:0,0:0:0:0:
320,128,53487,2,0,L|448:128,1,115.799996466065,8|0,0:0|0:0,0:0:0:0:
160,128,53813,2,0,L|80:256,1,115.799996466065,4|0,0:0|0:0,0:0:0:0:
272,224,54139,1,8,0:0:0:0:
448,224,54302,6,0,L|320:224,1,115.799996466065,0|4,0:0|0:0,0:0:0:0:
64,224,54628,2,0,L|192:224,1,115.799996466065,0|8,0:0|0:0,0:0:0:0:
332,224,54954,1,0,0:0:0:0:
464,112,55117,2,0,L|432:64,1,57.8999982330323,4|0,0:0|0:0,0:0:0:0:
192,128,55280,2,0,L|240:192,1,57.8999982330323
400,256,55443,2,0,L|352:320,1,57.8999982330323,8|0,0:0|0:0,0:0:0:0:
112,304,55606,6,0,L|368:304,1,231.599992932129,4|0,0:0|0:0,0:0:0:0:
176,192,56095,2,0,L|32:192,1,115.799996466065,8|0,0:0|0:0,0:0:0:0:
320,80,56421,2,0,L|176:80,1,115.799996466065,4|0,0:0|0:0,0:0:0:0:
352,160,56748,1,8,0:0:0:0:
112,160,56911,6,0,L|80:272,1,115.799996466065,2|4,0:0|0:0,0:0:0:0:
128,336,57155,1,0,0:0:0:0:
400,160,57237,2,0,L|432:272,1,115.799996466065,2|8,0:0|0:0,0:0:0:0:
384,336,57481,1,0,0:0:0:0:
80,96,57563,2,0,L|16:208,1,115.799996466065,2|4,0:0|0:0,0:0:0:0:
96,224,57807,1,0,0:0:0:0:
432,96,57889,2,0,L|496:208,1,115.799996466065,2|8,0:0|0:0,0:0:0:0:
416,224,58133,1,0,0:0:0:0:
336,224,58215,1,8,0:0:0:0:
245,225,58296,1,8,0:0:0:0:
80,128,58378,6,0,L|48:240,1,115.799996466065,4|0,0:0|0:0,0:0:0:0:
96,272,58623,1,0,0:0:0:0:
320,128,58704,2,0,L|192:128,1,115.799996466065,8|0,0:0|0:0,0:0:0:0:
240,176,58949,1,0,0:0:0:0:
432,128,59030,2,0,L|464:240,1,115.799996466065,4|0,0:0|0:0,0:0:0:0:
416,272,59275,1,0,0:0:0:0:
192,128,59356,2,0,L|320:128,1,115.799996466065,8|0,0:0|0:0,0:0:0:0:
272,176,59601,1,0,0:0:0:0:
64,240,59682,6,0,L|176:160,1,115.799996466065,4|0,0:0|0:0,0:0:0:0:
208,192,59927,1,0,0:0:0:0:
448,240,60008,2,0,L|336:160,1,115.799996466065,8|0,0:0|0:0,0:0:0:0:
304,192,60253,1,0,0:0:0:0:
128,336,60335,2,0,L|64:224,1,115.799996466065,4|0,0:0|0:0,0:0:0:0:
144,192,60579,1,0,0:0:0:0:
352,112,60661,2,0,L|432:224,1,115.799996466065,8|0,0:0|0:0,0:0:0:0:
336,240,60905,1,0,0:0:0:0:
80,96,60987,6,0,L|32:240,1,115.799996466065,4|0,0:0|0:0,0:0:0:0:
128,192,61231,1,0,0:0:0:0:
432,96,61313,2,0,L|480:240,1,115.799996466065,8|0,0:0|0:0,0:0:0:0:
384,192,61557,1,0,0:0:0:0:
160,288,61639,1,8,0:0:0:0:
400,288,61802,1,0,0:0:0:0:
80,288,61965,1,8,0:0:0:0:
432,288,62128,6,0,L|176:288,1,231.599992932129,4|0,0:0|0:0,0:0:0:0:
336,112,62617,1,0,0:0:0:0:
378,149,62698,1,0,0:0:0:0:
387,205,62780,1,0,0:0:0:0:
356,252,62861,1,0,0:0:0:0:
160,112,62943,2,0,L|96:176,1,57.8999982330323,8|0,0:0|0:0,0:0:0:0:
320,208,63106,2,0,L|368:256,1,57.8999982330323,8|0,0:0|0:0,0:0:0:0:
112,256,63269,2,0,L|64:304,1,57.8999982330323
352,304,63432,6,0,L|112:304,1,231.599992932129,4|0,1:0|0:0,0:0:0:0:
288,192,63921,2,0,L|432:192,1,115.799996466065,8|0,0:0|0:0,0:0:0:0:
256,96,64248,2,0,L|224:160,1,57.8999982330323,4|0,0:0|0:0,0:0:0:0:
400,160,64411,2,0,L|432:224,1,57.8999982330323
208,208,64574,2,0,L|176:272,1,57.8999982330323,8|0,0:0|0:0,0:0:0:0:
448,176,64737,6,0,P|464:256|432:320,1,115.799996466065,0|4,0:0|0:0,0:0:0:0:
384,336,64981,1,0,0:0:0:0:
64,176,65063,2,0,P|48:256|80:320,1,115.799996466065,0|8,0:0|0:0,0:0:0:0:
128,336,65307,1,0,0:0:0:0:
288,256,65389,2,0,L|160:256,1,115.799996466065,0|4,0:0|0:0,0:0:0:0:
416,144,65715,1,0,0:0:0:0:
96,144,65878,1,8,0:0:0:0:
256,144,66041,6,0,L|496:144,1,231.599992932129,4|0,0:0|0:0,0:0:0:0:
320,272,66530,2,0,L|176:272,1,115.799996466065,8|0,0:0|0:0,0:0:0:0:
352,192,66856,2,0,L|384:128,1,57.8999982330323,4|0,0:0|0:0,0:0:0:0:
160,192,67019,2,0,L|128:128,1,57.8999982330323
384,192,67182,2,0,L|416:128,1,57.8999982330323,8|0,0:0|0:0,0:0:0:0:
80,80,67345,6,0,P|32:192|32:208,1,115.799996466065,4|0,0:0|0:0,0:0:0:0:
64,272,67590,1,0,0:0:0:0:
336,272,67671,2,0,L|192:272,1,115.799996466065,0|8,0:0|0:0,0:0:0:0:
256,192,67916,1,0,0:0:0:0:
448,96,67998,2,0,L|288:96,1,115.799996466065,0|4,0:0|0:0,0:0:0:0:
160,96,68324,1,0,0:0:0:0:
416,192,68487,1,8,0:0:0:0:
256,192,68650,2,0,L|160:192,1,57.8999982330323,8|0,0:0|0:0,0:0:0:0:
448,208,68813,6,0,L|464:336,1,115.799996466065,4|0,0:0|0:0,0:0:0:0:
400,336,69057,1,0,0:0:0:0:
160,320,69139,2,0,L|144:192,1,115.799996466065,8|0,0:0|0:0,0:0:0:0:
208,192,69383,1,0,0:0:0:0:
368,96,69465,2,0,L|256:144,1,115.799996466065,4|0,0:0|0:0,0:0:0:0:
208,144,69710,1,0,0:0:0:0:
32,144,69791,2,0,L|144:192,1,115.799996466065,8|0,0:0|0:0,0:0:0:0:
192,192,70036,1,0,0:0:0:0:
448,192,70117,6,0,L|288:192,1,115.799996466065,4|0,0:0|0:0,0:0:0:0:
304,240,70362,1,0,0:0:0:0:
272,288,70443,1,8,0:0:0:0:
384,288,70606,1,0,0:0:0:0:
112,288,70769,2,0,L|80:176,1,115.799996466065,4|0,0:0|0:0,0:0:0:0:
128,144,71014,1,0,0:0:0:0:
400,288,71095,2,0,L|432:176,1,115.799996466065,8|0,0:0|0:0,0:0:0:0:
384,144,71340,1,0,0:0:0:0:
32,304,71421,6,0,L|48:176,1,115.799996466065,4|0,0:0|0:0,0:0:0:0:
80,144,71666,1,0,0:0:0:0:
480,304,71748,2,0,L|464:176,1,115.799996466065,8|0,0:0|0:0,0:0:0:0:
432,144,71993,1,0,0:0:0:0:
144,144,72074,1,8,0:0:0:0:
368,144,72237,1,8,0:0:0:0:
112,144,72400,1,0,0:0:0:0:
272,144,72563,6,0,L|16:144,1,231.599992932129,4|0,0:0|0:0,0:0:0:0:
192,256,73052,2,0,L|336:256,1,115.799996466065,8|0,0:0|0:0,0:0:0:0:
144,112,73378,2,0,L|192:160,1,57.8999982330323,8|0,0:0|0:0,0:0:0:0:
400,112,73541,2,0,L|352:160,1,57.8999982330323,8|0,0:0|0:0,0:0:0:0:
96,112,73704,2,0,L|144:160,1,57.8999982330323
400,256,73867,6,0,L|144:256,1,231.599992932129,4|0,1:0|0:0,0:0:0:0:
304,160,74356,2,0,L|336:96,1,57.8999982330323,8|0,0:0|0:0,0:0:0:0:
144,160,74519,2,0,L|112:80,1,57.8999982330323
416,128,74682,2,0,L|448:240,1,115.799996466065,4|0,0:0|0:0,0:0:0:0:
272,256,75008,1,8,0:0:0:0:
96,256,75171,6,0,L|48:112,1,115.799996466065,4|0,0:0|0:0,0:0:0:0:
416,256,75498,2,0,L|464:112,1,115.799996466065,0|8,0:0|0:0,0:0:0:0:
272,112,75824,1,0,0:0:0:0:
400,112,75987,2,0,L|432:176,1,57.8999982330323,4|0,0:0|0:0,0:0:0:0:
192,192,76150,2,0,L|160:256,1,57.8999982330323
448,208,76313,2,0,L|480:272,1,57.8999982330323,8|0,0:0|0:0,0:0:0:0:
112,192,76476,6,0,L|352:192,1,231.599992932129,4|0,0:0|0:0,0:0:0:0:
192,304,76965,2,0,L|64:304,1,115.799996466065,8|0,0:0|0:0,0:0:0:0:
368,128,77291,2,0,L|208:128,1,115.799996466065,4|0,0:0|0:0,0:0:0:0:
128,128,77617,1,8,0:0:0:0:
464,128,77780,6,0,L|352:208,1,115.799996466065,2|4,0:0|0:0,0:0:0:0:
320,192,78025,1,0,0:0:0:0:
48,128,78106,2,0,L|160:208,1,115.799996466065,2|8,0:0|0:0,0:0:0:0:
192,192,78351,1,0,0:0:0:0:
464,128,78432,2,0,L|352:208,1,115.799996466065,2|4,0:0|0:0,0:0:0:0:
320,192,78677,1,0,0:0:0:0:
48,128,78758,2,0,L|160:208,1,115.799996466065,2|8,0:0|0:0,0:0:0:0:
192,192,79003,1,0,0:0:0:0:
256,192,79085,1,8,0:0:0:0:
336,192,79166,1,8,0:0:0:0:
480,192,79248,6,0,L|496:336,1,115.799996466065,4|0,0:0|0:0,0:0:0:0:
432,320,79492,1,0,0:0:0:0:
256,304,79574,2,0,L|128:304,1,115.799996466065,8|0,0:0|0:0,0:0:0:0:
176,256,79818,1,0,0:0:0:0:
336,208,79900,2,0,L|464:208,1,115.799996466065,4|0,0:0|0:0,0:0:0:0:
416,160,80144,1,0,0:0:0:0:
192,96,80226,2,0,L|144:224,1,115.799996466065,8|0,0:0|0:0,0:0:0:0:
208,224,80470,1,0,0:0:0:0:
384,80,80552,6,0,L|272:144,1,115.799996466065,4|0,0:0|0:0,0:0:0:0:
240,128,80796,1,0,0:0:0:0:
64,128,80878,2,0,L|0:256,1,115.799996466065,8|0,0:0|0:0,0:0:0:0:
48,272,81123,1,0,0:0:0:0:
256,272,81204,2,0,L|128:272,1,115.799996466065,4|0,0:0|0:0,0:0:0:0:
176,224,81449,1,0,0:0:0:0:
352,176,81530,2,0,L|400:288,1,115.799996466065,8|0,0:0|0:0,0:0:0:0:
352,320,81775,1,0,0:0:0:0:
64,80,81856,6,0,L|32:208,1,115.799996466065,4|0,0:0|0:0,0:0:0:0:
80,240,82101,1,0,0:0:0:0:
288,128,82182,2,0,L|432:128,1,115.799996466065,8|0,0:0|0:0,0:0:0:0:
384,176,82427,1,0,0:0:0:0:
176,192,82508,2,0,L|160:320,1,115.799996466065,4|0,0:0|0:0,0:0:0:0:
224,304,82753,1,0,0:0:0:0:
400,272,82835,2,0,L|240:272,1,115.799996466065,8|0,0:0|0:0,0:0:0:0:
304,224,83079,1,0,0:0:0:0:
480,144,83161,6,0,L|512:288,1,115.799996466065,4|0,0:0|0:0,0:0:0:0:
464,288,83405,1,0,0:0:0:0:
288,224,83487,2,0,L|432:224,1,115.799996466065,8|0,0:0|0:0,0:0:0:0:
368,176,83731,1,0,0:0:0:0:
176,176,83813,2,0,L|144:288,1,115.799996466065,4|0,0:0|0:0,0:0:0:0:
208,288,84057,1,0,0:0:0:0:
400,288,84139,2,0,L|432:160,1,115.799996466065,8|0,0:0|0:0,0:0:0:0:
384,144,84383,1,0,0:0:0:0:
96,80,84465,6,0,L|48:208,1,115.799996466065,4|0,0:0|0:0,0:0:0:0:
96,224,84710,1,0,0:0:0:0:
416,80,84791,2,0,L|464:208,1,115.799996466065,8|0,0:0|0:0,0:0:0:0:
416,224,85036,1,0,0:0:0:0:
208,288,85117,2,0,L|80:288,1,115.799996466065,4|0,0:0|0:0,0:0:0:0:
128,240,85362,1,0,0:0:0:0:
304,288,85443,2,0,L|432:288,1,115.799996466065,8|0,0:0|0:0,0:0:0:0:
384,240,85688,1,0,0:0:0:0:
64,96,85769,6,0,L|32:256,1,115.799996466065,4|0,0:0|0:0,0:0:0:0:
96,240,86014,1,0,0:0:0:0:
288,240,86095,2,0,L|416:240,1,115.799996466065,8|0,0:0|0:0,0:0:0:0:
384,192,86340,1,0,0:0:0:0:
224,240,86421,2,0,L|96:240,1,115.799996466065,4|0,0:0|0:0,0:0:0:0:
128,192,86666,1,0,0:0:0:0:
448,96,86748,2,0,L|480:256,1,115.799996466065,8|0,0:0|0:0,0:0:0:0:
416,240,86993,1,0,0:0:0:0:
144,96,87074,6,0,P|48:144|48:240,1,173.699994699097,4|0,1:0|0:0,0:0:0:0:
64,240,87400,1,0,0:0:0:0:
96,272,87481,1,0,0:0:0:0:
368,96,87563,2,0,P|464:144|464:240,1,173.699994699097,4|0,1:0|0:0,0:0:0:0:
448,240,87889,1,0,0:0:0:0:
416,272,87970,1,0,0:0:0:0:
144,96,88052,5,4,1:0:0:0:
352,96,88541,6,0,L|128:96,1,193
400,96,89356,5,0,0:0:0:0:
