osu file format v14

[General]
AudioFilename: audio.mp3
AudioLeadIn: 0
PreviewTime: 41669
Countdown: 0
SampleSet: Soft
StackLeniency: 0.4
Mode: 0
LetterboxInBreaks: 0
WidescreenStoryboard: 1

[Editor]
DistanceSpacing: 1.3
BeatDivisor: 4
GridSize: 8
TimelineZoom: 2.1

[Metadata]
Title:Recall THE END (TV Size)
TitleUnicode:Recall THE END (TV Size)
Artist:TRUSTRICK
ArtistUnicode:TRUSTRICK
Creator:payney
Version:PotatoDew's Hard
Source:ダンガンロンパ3-The End of 希望ヶ峰学園- 未来編
Tags:dog food door weapon p1twist paul blart potatodew froskya revialink Anime Japanese rock j-rock jrock Kibougamine Gakuen Mirai Hen danganronpa dangan ronpa ending ed version The End of Hope's Peak Academy Side Future Arc
BeatmapID:3207712
BeatmapSetID:1537380

[Difficulty]
HPDrainRate:4
CircleSize:3.5
OverallDifficulty:6
ApproachRate:7.5
SliderMultiplier:1.4
SliderTickRate:1

[Events]
//Background and Video events
0,0,"kiring giring.jpg",0,0
//Break Periods
2,361,1784
2,2973,4560
//Storyboard Layer 0 (Background)
//Storyboard Layer 1 (Fail)
//Storyboard Layer 2 (Pass)
//Storyboard Layer 3 (Foreground)
//Storyboard Layer 4 (Overlay)
//Storyboard Sound Samples

[TimingPoints]
161,326.530612244898,4,2,2,45,1,0
2609,-100,4,2,1,45,0,0
2936,-100,4,2,2,45,0,0
5385,324.324324324324,4,2,1,80,1,0
7655,339.943342776204,4,2,1,80,1,0
7994,326.086956521739,4,2,1,80,1,0
10602,326.975476839237,4,2,2,80,1,0
10602,-125,4,2,2,80,0,0
10928,-125,4,2,2,40,0,0
13217,-125,4,2,2,60,0,0
13381,-125,4,2,2,40,0,0
15833,326.086956521739,4,2,2,60,1,0
15833,-125,4,2,2,60,0,0
16159,-125,4,2,2,40,0,0
18441,-125,4,2,2,60,0,0
18604,-125,4,2,2,40,0,0
19746,-125,4,2,2,60,0,0
19909,-125,4,2,2,40,0,0
21050,-125,4,2,1,60,0,0
21131,-125,4,2,2,40,0,0
23659,-125,4,2,1,60,0,0
23985,-125,4,2,2,40,0,0
25778,-125,4,2,1,60,0,0
25941,-125,4,2,2,40,0,0
26267,-125,4,2,1,60,0,0
26430,-125,4,2,2,40,0,0
28387,-125,4,2,1,60,0,0
28550,-125,4,2,2,40,0,0
28876,-125,4,2,1,60,0,0
29202,-125,4,2,2,40,0,0
29691,-125,4,2,1,60,0,0
29854,-125,4,2,2,60,0,0
30180,-125,4,2,1,60,0,0
30343,-125,4,2,1,40,0,0
31159,-125,4,2,1,40,0,0
31485,325.20325203252,4,2,1,60,1,0
31485,-105.263157894737,4,2,1,60,0,0
36688,324.324324324324,4,2,1,70,1,0
36688,-105.263157894737,4,2,1,70,0,0
38958,333.333333333333,4,2,1,70,1,0
39291,329.67032967033,4,2,1,70,1,0
39291,-105.263157894737,4,2,1,70,0,0
41269,319.148936170213,4,2,1,70,1,0
41588,326.086956521739,4,2,1,70,1,0
41751,-90.9090909090909,4,2,1,80,0,0
41914,326.086956521739,4,2,1,80,1,0
42729,-90.9090909090909,4,2,1,80,0,0
44848,322.58064516129,4,2,1,80,1,0
44848,-90.9090909090909,4,2,1,80,0,0
45493,326.086956521739,4,2,1,80,1,0
45656,-90.9090909090909,4,2,1,80,0,0
45819,326.086956521739,4,2,1,80,1,0
46145,334.075723830735,4,2,1,80,1,0
46145,-90.9090909090909,4,2,1,80,0,0
46479,309.278350515464,4,2,1,80,1,0
46788,326.086956521739,4,2,1,80,1,0
46788,-90.9090909090909,4,2,1,80,0,0
47114,329.67032967033,4,2,1,70,1,0
47114,-90.9090909090909,4,2,1,70,0,0
48432,326.086956521739,4,2,1,70,1,0
48432,-90.9090909090909,4,2,1,70,0,0
48758,337.078651685393,4,2,1,70,1,0
49095,320.855614973262,4,2,1,70,1,0
49095,-90.9090909090909,4,2,1,70,0,0
49736,322.58064516129,4,2,1,70,1,0
49736,-90.9090909090909,4,2,1,70,0,0
50865,312.5,4,2,1,70,1,0
50865,-90.9090909090909,4,2,1,70,0,0
51177,300,4,2,1,70,1,0
51327,322.58064516129,4,2,1,70,1,0
51327,-90.9090909090909,4,2,1,70,0,0
51972,368.098159509202,4,2,1,70,1,0
52156,327.868852459016,4,2,1,80,1,0
52156,-90.9090909090909,4,2,1,80,0,0
52319,327.868852459016,4,2,1,80,1,0
52646,-90.9090909090909,4,2,1,80,0,0
54614,317.460317460317,4,2,1,80,1,0
54772,326.975476839237,4,2,1,80,1,0
54772,-90.9090909090909,4,2,1,80,0,0
54935,326.975476839237,4,2,1,80,1,0
55261,-90.9090909090909,4,2,1,80,0,0
57223,339.943342776204,4,2,1,80,1,0
57223,-90.9090909090909,4,2,1,80,0,0
57562,325.20325203252,4,2,1,70,1,0
57562,-90.9090909090909,4,2,1,70,0,0
62602,326.086956521739,4,2,1,80,1,0
62602,-90.9090909090909,4,2,1,80,0,0
62765,326.086956521739,4,2,1,80,1,0
63091,-90.9090909090909,4,2,1,80,0,0
67982,-90.9090909090909,4,2,1,70,0,0
73036,327.868852459016,4,2,1,80,1,0
73036,-90.9090909090909,4,2,1,80,0,0
73199,327.868852459016,4,2,1,80,1,0
73526,-90.9090909090909,4,2,1,80,0,0
75658,326.086956521739,4,2,1,80,1,0
75658,-90.9090909090909,4,2,1,80,0,0
75821,326.086956521739,4,2,1,80,1,0
76962,324.324324324324,4,2,1,80,1,0
76962,-90.9090909090909,4,2,1,80,0,0
77124,324.324324324324,4,2,1,80,1,0
77448,337.078651685393,4,2,1,80,1,0
77616,-90.9090909090909,4,2,1,80,0,0
77785,320,4,2,1,80,1,0
78105,-90.9090909090909,4,2,1,80,0,0
78425,326.975476839237,4,2,1,70,1,0
78425,-90.9090909090909,4,2,1,70,0,0
81040,325.20325203252,4,2,1,70,1,0
81040,-90.9090909090909,4,2,1,70,0,0
82015,307.692307692308,4,2,1,70,1,0
82168,-90.9090909090909,4,2,1,70,0,0
82328,307.692307692308,4,2,1,70,1,0
82481,338.028169014084,4,2,1,70,1,0
82819,326.086956521739,4,2,1,70,1,0
82819,-90.9090909090909,4,2,1,70,0,0
82982,326.086956521739,4,2,1,70,1,0
83471,337.078651685393,4,2,1,70,1,0
83639,326.086956521739,4,2,1,70,1,0
83639,-90.9090909090909,4,2,1,70,0,0
86247,-90.9090909090909,4,2,1,80,0,0
87715,-90.9090909090909,4,2,1,30,0,0

[Colours]
Combo1 : 196,223,234
Combo2 : 185,159,232
Combo3 : 98,66,151
Combo4 : 74,128,227

[HitObjects]
83,77,161,5,4,1:0:0:0:
296,230,2609,5,0,3:0:0:0:
296,230,2773,1,2,3:2:0:0:
79,68,5385,6,0,P|88:132|86:171,2,70,4|0|0,1:0|3:0|3:0,0:0:0:0:
176,177,5871,2,0,P|185:113|183:74,2,70,10|0|0,0:2|3:0|3:0,0:0:0:0:
273,68,6357,2,0,P|282:132|280:171,2,70,10|0|0,0:2|3:0|3:0,0:0:0:0:
370,177,6844,2,0,P|379:113|377:74,2,70,10|0|0,0:2|3:0|3:0,0:0:0:0:
425,271,7330,5,10,0:2:0:0:
342,325,7493,1,0,3:0:0:0:
283,251,7655,2,0,P|246:243|207:240,1,70,10|0,0:2|3:0,0:0:0:0:
135,314,7994,6,0,L|84:305,4,35,10|0|0|0|0,0:2|3:0|3:0|3:0|3:0,0:0:0:0:
100,222,8483,2,0,L|49:231,4,35,10|0|0|0|0,0:2|3:0|3:0|3:0|3:0,0:0:0:0:
175,159,8972,1,10,0:2:0:0:
175,159,9053,1,0,3:0:0:0:
175,159,9135,2,0,L|235:170,2,35,0|0|0,3:0|3:0|3:0,0:0:0:0:
137,70,9461,1,10,0:2:0:0:
137,70,9542,1,0,3:0:0:0:
137,70,9624,2,0,L|197:59,2,35,0|0|0,3:0|3:0|3:0,0:0:0:0:
241,0,9950,5,10,0:2:0:0:
323,53,10113,1,8,0:2:0:0:
400,13,10276,2,0,L|487:29,1,70,8|8,0:2|0:2,0:0:0:0:
507,97,10602,6,0,P|496:150|493:211,1,112,2|2,3:2|0:3,0:0:0:0:
377,296,11255,2,0,P|324:285|262:279,1,112,2|2,3:2|0:3,0:0:0:0:
218,141,11909,2,0,P|176:138|103:121,1,112,0|2,3:0|0:3,0:0:0:0:
22,241,12563,2,0,P|19:282|-1:357,1,112,0|2,3:0|0:3,0:0:0:0:
80,384,13054,1,2,0:0:0:0:
80,384,13217,6,0,P|141:370|196:362,1,112,2|2,0:0|0:3,0:0:0:0:
313,284,13871,2,0,P|374:270|436:263,1,112,0|2,3:0|0:3,0:0:0:0:
511,147,14525,2,0,P|469:139|393:121,1,112,0|2,3:0|0:3,0:0:0:0:
276,47,15179,2,0,P|234:39|165:20,1,112,0|2,3:0|0:3,0:0:0:0:
101,67,15670,1,0,0:0:0:0:
101,67,15833,6,0,P|105:118|156:145,1,112,2|2,0:0|0:3,0:0:0:0:
81,270,16485,2,0,P|122:299|182:278,1,112,2|2,3:2|0:3,0:0:0:0:
288,377,17137,2,0,P|337:364|355:308,1,112,0|2,3:0|0:3,0:0:0:0:
497,339,17789,2,0,P|519:292|484:239,1,112,0|2,3:0|0:3,0:0:0:0:
490,163,18278,1,2,0:0:0:0:
490,163,18441,6,0,P|491:106|499:38,1,112,2|2,0:0|0:3,0:0:0:0:
358,6,19093,2,0,P|298:11|274:69,1,112,0|2,3:0|0:3,0:0:0:0:
363,166,19746,2,0,P|370:226|374:290,1,112,2|2,0:0|0:3,0:0:0:0:
261,370,20398,2,0,P|218:359|224:282,1,112,0|2,3:0|0:3,0:0:0:0:
61,350,21050,6,0,P|51:282|39:223,1,112,2|2,3:2|0:3,0:0:0:0:
6,170,21539,1,2,0:0:0:0:
53,108,21702,1,2,3:2:0:0:
53,108,21865,2,0,P|92:115|119:115,1,56,2|2,0:0|0:3,0:0:0:0:
164,170,22191,6,0,L|175:240,1,56,2|0,0:0|3:0,0:0:0:0:
241,262,22517,1,2,0:0:0:0:
301,117,22843,2,0,L|312:47,1,56,2|0,0:0|3:0,0:0:0:0:
378,25,23169,1,2,0:0:0:0:
422,181,23496,1,2,0:0:0:0:
422,181,23659,6,0,P|408:230|342:231,1,112,2|2,3:2|0:3,0:0:0:0:
290,283,24148,2,0,L|223:268,1,56,2|0,0:0|3:0,0:0:0:0:
178,216,24474,2,0,L|111:201,1,56,2|2,0:0|0:3,0:0:0:0:
61,252,24800,6,0,P|45:303|39:371,2,112,2|2|2,0:0|0:0|0:0,0:0:0:0:
20,184,25615,2,0,P|22:145|95:108,1,112,0|2,3:0|0:3,0:0:0:0:
212,20,26267,6,0,P|278:38|340:42,1,112,2|2,3:2|0:3,0:0:0:0:
372,101,26756,1,2,0:0:0:0:
322,161,26919,1,2,3:2:0:0:
322,161,27083,2,0,L|311:234,1,56,2|2,0:0|0:3,0:0:0:0:
251,265,27409,6,0,P|209:268|186:260,1,56,2|0,0:0|3:0,0:0:0:0:
129,306,27735,1,2,0:0:0:0:
23,190,28061,2,0,L|31:126,1,56,2|0,0:0|3:0,0:0:0:0:
96,93,28387,2,0,L|104:29,1,56,2|2,3:2|0:3,0:0:0:0:
173,2,28713,1,2,0:0:0:0:
230,77,28876,6,0,P|211:141|157:147,1,112,0|2,3:0|0:3,0:0:0:0:
88,283,29528,2,0,P|158:262|215:255,1,112,2|2,0:0|0:3,0:0:0:0:
342,368,30180,5,2,3:2:0:0:
342,368,31159,1,2,0:0:0:0:
448,214,31485,6,0,P|452:154|461:76,2,133,4|0|0,1:0|3:0|3:0,0:0:0:0:
372,269,32298,1,0,0:0:0:0:
303,206,32460,2,0,P|270:197|226:193,1,66.4999999999999,2|2,3:2|0:0,0:0:0:0:
165,272,32785,6,0,P|103:292|80:369,2,133,2|0|0,1:2|3:0|3:0,0:0:0:0:
241,101,33761,1,2,3:2:0:0:
241,101,33924,1,0,0:0:0:0:
322,167,34086,6,0,L|402:184,1,66.4999999999999,2|0,1:2|0:0,0:0:0:0:
427,265,34411,2,0,L|347:282,1,66.4999999999999,2|0,3:2|0:0,0:0:0:0:
292,353,34737,1,2,3:2:0:0:
156,225,35062,6,0,B|83:202|140:161|35:136,1,133,4|0,1:0|0:0,0:0:0:0:
3,66,35550,1,2,3:2:0:0:
86,13,35712,2,0,P|141:25|171:27,1,66.4999999999999,10|0,0:2|0:0,0:0:0:0:
229,98,36037,1,0,3:0:0:0:
306,45,36200,1,0,3:0:0:0:
375,107,36363,2,0,P|386:149|383:189,1,66.4999999999999,10|0,0:2|0:0,0:0:0:0:
326,254,36688,6,0,P|359:308|435:302,1,133,4|8,1:0|0:2,0:0:0:0:
481,132,37336,2,0,P|482:88|494:50,1,66.4999999999999,2|0,3:2|3:0,0:0:0:0:
416,6,37660,1,8,0:2:0:0:
278,132,37985,6,0,L|186:149,1,66.4999999999999,2|0,3:2|3:0,0:0:0:0:
151,214,38309,1,8,0:2:0:0:
151,214,38471,1,0,3:0:0:0:
228,264,38633,2,0,L|320:247,1,66.4999999999999,2|0,0:0|3:0,0:0:0:0:
367,321,38958,1,8,0:2:0:0:
184,383,39291,6,0,P|145:367|101:360,1,66.4999999999999,2|0,3:2|3:0,0:0:0:0:
54,297,39620,2,0,L|66:221,1,66.4999999999999,8|0,0:2|0:0,0:0:0:0:
8,156,39950,1,0,3:2:0:0:
8,156,40115,1,2,3:2:0:0:
62,80,40280,1,10,0:2:0:0:
152,124,40444,6,0,P|202:104|285:97,1,133,4|0,1:0|3:0,0:0:0:0:
362,141,40939,1,8,0:2:0:0:
312,337,41269,5,12,0:2:0:0:
213,282,41428,1,12,0:2:0:0:
459,234,41751,6,0,P|457:163|476:62,1,154.000004699707,4|2,1:0|3:2,0:0:0:0:
387,28,42240,1,10,0:2:0:0:
222,166,42566,1,2,3:2:0:0:
135,102,42729,2,0,P|81:96|48:95,1,77,2|8,3:2|0:2,0:0:0:0:
1,202,43055,6,0,P|21:254|115:248,1,154,2|2,3:2|3:2,0:0:0:0:
201,313,43544,2,0,P|261:296|301:294,1,77,10|0,0:2|0:0,0:0:0:0:
369,346,43870,1,2,3:2:0:0:
369,346,44033,1,0,3:0:0:0:
436,262,44196,1,8,0:2:0:0:
338,201,44359,6,0,B|261:177|314:133|213:111,1,154,4|2,1:0|3:2,0:0:0:0:
149,28,44848,2,0,P|110:27|72:20,1,77,10|2,0:2|0:0,0:0:0:0:
4,86,45170,1,2,3:2:0:0:
63,163,45331,2,0,P|101:163|139:170,1,77.4774023498536,2|8,3:2|0:2,0:0:0:0:
233,94,45656,6,0,P|260:42|360:43,1,154.000004699707,2|2,3:2|3:2,0:0:0:0:
414,115,46145,2,0,P|403:166|403:215,1,77,8|0,0:2|0:0,0:0:0:0:
314,267,46479,1,2,3:2:0:0:
314,267,46633,1,0,3:0:0:0:
225,214,46788,2,0,P|168:218|118:239,1,77,8|0,0:2|1:2,0:0:0:0:
131,254,47032,1,0,1:2:0:0:
131,254,47114,6,0,P|112:315|24:313,1,154,4|8,1:0|0:2,0:0:0:0:
4,105,47773,2,0,P|59:120|110:124,1,77,2|0,3:2|3:0,0:0:0:0:
164,56,48103,1,8,0:2:0:0:
375,154,48432,6,0,B|293:174|348:222|250:246,1,154.000004699707,2|8,3:2|0:2,0:0:0:0:
175,312,48926,1,2,0:0:0:0:
274,367,49095,2,0,P|334:374|377:382,1,77,2|0,3:2|3:0,0:0:0:0:
445,326,49415,1,8,0:2:0:0:
456,100,49736,6,0,P|425:31|337:33,2,154,2|8|8,3:2|0:2|0:2,0:0:0:0:
372,168,50542,1,2,3:2:0:0:
291,97,50703,1,8,0:2:0:0:
221,196,50865,6,0,P|239:253|257:358,1,154.000004699707,4|0,1:0|3:0,0:0:0:0:
160,377,51327,2,0,P|116:373|97:322,1,77,8|2,0:2|0:0,0:0:0:0:
42,256,51649,2,0,L|-12:245,2,38.5,10|0|0,0:2|3:0|3:0,0:0:0:0:
131,166,51972,1,8,0:2:0:0:
131,166,52064,1,0,0:0:0:0:
131,166,52156,6,0,B|225:138|161:100|257:65,1,153.530304699707,4|2,1:0|3:2,0:0:0:0:
333,11,52646,2,0,P|374:29|418:32,1,77,10|2,0:2|0:0,0:0:0:0:
474,116,52974,1,2,3:2:0:0:
377,163,53138,2,0,P|339:158|304:142,1,77,2|8,3:2|0:2,0:0:0:0:
216,223,53466,6,0,P|199:286|109:289,1,154,2|2,3:2|3:2,0:0:0:0:
47,215,53958,2,0,P|41:159|33:118,1,77,8|0,0:2|0:0,0:0:0:0:
101,51,54286,1,0,3:0:0:0:
101,51,54450,1,0,3:0:0:0:
193,113,54614,1,8,0:2:0:0:
273,27,54772,6,0,P|349:23|384:108,1,154.000004699707,4|2,1:0|3:2,0:0:0:0:
459,161,55261,2,0,P|451:206|453:255,1,77,8|2,0:2|0:0,0:0:0:0:
378,317,55588,1,2,3:2:0:0:
307,235,55752,2,0,P|306:196|298:158,1,77,2|8,3:2|0:2,0:0:0:0:
193,98,56079,6,0,B|102:133|162:169|65:205,1,154,2|2,0:0|3:2,0:0:0:0:
12,280,56569,1,8,0:2:0:0:
93,350,56733,2,0,P|133:334|179:328,1,77,2|0,0:0|3:0,0:0:0:0:
263,375,57060,1,2,3:2:0:0:
330,296,57223,2,0,P|329:221|342:162,1,115.5,8|0,0:2|1:2,0:0:0:0:
357,158,57562,6,0,P|422:157|456:245,1,154,4|10,1:0|0:2,0:0:0:0:
402,320,58049,2,0,P|366:304|329:295,1,77,2|0,0:0|3:0,0:0:0:0:
245,225,58375,2,0,P|209:240|172:249,1,77,2|8,3:2|0:2,0:0:0:0:
88,181,58700,6,0,L|73:93,1,77,2|0,0:0|3:2,0:0:0:0:
130,12,59025,1,2,3:2:0:0:
130,12,59188,1,8,0:2:0:0:
220,70,59350,2,0,L|308:55,1,77,2|0,0:0|3:2,0:0:0:0:
380,124,59675,1,2,3:2:0:0:
446,38,59838,1,8,0:2:0:0:
493,248,60163,6,0,P|403:225|334:220,1,154,2|8,3:2|0:2,0:0:0:0:
241,259,60651,1,0,3:2:0:0:
174,174,60814,1,8,0:2:0:0:
84,233,60976,2,0,P|85:296|91:328,1,77,2|10,3:2|0:2,0:0:0:0:
178,380,61301,6,0,P|247:356|349:349,1,154,4|0,1:0|3:0,0:0:0:0:
431,376,61789,2,0,P|481:363|497:314,1,77,8|0,0:2|3:0,0:0:0:0:
427,260,62114,1,8,0:2:0:0:
496,177,62277,1,8,0:2:0:0:
423,96,62440,1,8,0:2:0:0:
326,163,62602,6,0,B|238:133|306:89|201:57,1,154.000004699707,4|2,1:0|3:2,0:0:0:0:
143,141,63091,2,0,P|136:190|133:233,1,77,8|2,0:2|0:0,0:0:0:0:
58,294,63417,1,2,3:2:0:0:
7,198,63580,2,0,P|10:159|16:121,1,77,2|8,3:2|0:2,0:0:0:0:
84,22,63906,6,0,P|158:14|217:62,1,154,2|2,0:0|3:2,0:0:0:0:
274,152,64395,2,0,P|253:207|249:255,1,77,8|0,0:2|0:0,0:0:0:0:
188,313,64721,1,0,3:0:0:0:
188,313,64884,1,0,3:0:0:0:
276,374,65047,1,8,0:2:0:0:
346,293,65210,6,0,B|433:271|376:232|472:211,1,154,4|2,1:0|0:0,0:0:0:0:
503,109,65699,2,0,P|494:59|506:22,1,77,10|2,0:2|0:0,0:0:0:0:
397,0,66025,1,2,3:2:0:0:
304,55,66188,2,0,P|310:92|301:129,1,77,2|8,3:2|0:2,0:0:0:0:
201,190,66515,6,0,P|161:136|60:145,1,154,2|2,0:0|3:2,0:0:0:0:
17,220,67004,2,0,P|26:277|23:312,1,77,8|0,0:2|0:0,0:0:0:0:
107,365,67330,1,0,3:0:0:0:
107,365,67493,1,0,3:0:0:0:
195,303,67656,2,0,P|246:315|284:318,1,77,8|0,0:2|1:0,0:0:0:0:
298,306,67900,1,0,1:0:0:0:
298,306,67982,6,0,P|296:221|281:133,1,154,4|8,1:0|0:2,0:0:0:0:
114,21,68634,2,0,P|67:28|39:74,1,77,2|0,3:2|3:0,0:0:0:0:
8,148,68960,1,8,0:2:0:0:
125,355,69286,6,0,P|173:331|217:324,1,77,2|0,3:2|3:0,0:0:0:0:
291,374,69612,1,8,0:2:0:0:
360,291,69775,1,2,0:0:0:0:
292,207,69938,2,0,P|280:147|286:109,1,77,2|0,3:2|3:0,0:0:0:0:
342,42,70265,1,8,0:2:0:0:
512,218,70591,6,0,P|457:220|420:231,1,77,2|0,3:2|3:0,0:0:0:0:
360,291,70917,2,0,P|322:298|283:298,1,77,8|0,0:2|3:0,0:0:0:0:
214,380,71243,1,8,0:2:0:0:
121,324,71406,1,2,3:2:0:0:
191,242,71569,1,8,0:2:0:0:
86,191,71732,6,0,P|93:114|113:40,1,154,4|0,1:0|3:0,0:0:0:0:
215,3,72221,2,0,P|257:16|273:66,1,77,8|2,0:2|0:0,0:0:0:0:
354,128,72547,1,10,0:2:0:0:
354,128,72629,1,0,3:0:0:0:
354,128,72710,2,0,L|416:117,3,38.5,0|0|8|0,3:0|3:0|0:2|1:0,0:0:0:0:
425,145,73036,6,0,P|411:217|319:207,1,153.530304699707,4|2,1:0|3:2,0:0:0:0:
263,299,73526,2,0,P|198:299|162:303,1,77,10|2,0:2|0:0,0:0:0:0:
102,230,73854,1,2,3:2:0:0:
172,148,74018,2,0,P|237:148|273:144,1,77,2|8,3:2|0:2,0:0:0:0:
340,225,74346,6,0,B|425:258|364:288|454:327,1,154,2|2,3:2|3:2,0:0:0:0:
509,234,74838,2,0,P|505:186|491:144,1,77,8|0,0:2|0:0,0:0:0:0:
435,75,75166,1,0,3:0:0:0:
435,75,75330,1,0,3:0:0:0:
344,133,75494,1,8,0:2:0:0:
276,32,75658,6,0,P|192:49|108:53,1,154.000004699707,4|2,1:0|3:2,0:0:0:0:
58,126,76147,2,0,P|47:177|60:214,1,70,8|2,0:2|0:0,0:0:0:0:
118,264,76473,1,2,3:2:0:0:
201,213,76636,2,0,P|212:162|199:125,1,70,2|8,3:2|0:2,0:0:0:0:
320,114,76962,6,0,P|389:115|409:212,1,154.000004699707,2|2,0:0|3:2,0:0:0:0:
473,274,77448,1,8,0:2:0:0:
395,347,77616,2,0,P|346:327|298:322,1,77.4568690165203,2|0,0:0|3:0,0:0:0:0:
239,376,77945,1,2,3:2:0:0:
171,304,78105,2,0,B|98:281|152:249|68:227,1,115.5,8|0,0:2|1:2,0:0:0:0:
63,210,78425,6,0,P|70:160|181:140,1,154,4|10,1:0|0:2,0:0:0:0:
234,49,78915,2,0,L|328:36,1,77,2|0,0:0|3:0,0:0:0:0:
391,109,79242,2,0,L|404:203,1,77,2|8,3:2|0:2,0:0:0:0:
322,270,79569,6,0,P|271:255|223:251,1,77,2|0,0:0|3:0,0:0:0:0:
164,319,79896,1,2,3:2:0:0:
164,319,80059,1,8,0:2:0:0:
84,245,80223,2,0,P|99:194|103:146,1,77,2|0,0:0|3:0,0:0:0:0:
35,87,80550,1,2,3:2:0:0:
35,87,80713,1,8,0:2:0:0:
254,13,81040,6,0,B|338:40|274:83|369:115,1,154,6|10,3:2|0:2,0:0:0:0:
391,215,81527,2,0,P|364:248|306:259,1,77,2|0,0:0|3:0,0:0:0:0:
247,327,81853,2,0,P|204:320|166:275,1,77.0000023498536,2|8,3:2|0:2,0:0:0:0:
148,196,82168,6,0,L|159:113,1,80.5035023498536,2|0,0:0|3:0,0:0:0:0:
114,33,82481,1,2,3:2:0:0:
114,33,82650,1,8,0:2:0:0:
27,103,82819,2,0,L|14:191,1,77.0000023498536,2|0,0:0|3:0,0:0:0:0:
74,264,83145,1,2,3:2:0:0:
74,264,83308,2,0,L|90:350,1,70,8|2,0:2|0:0,0:0:0:0:
206,384,83639,6,0,B|294:356|235:311|327:281,1,154,6|10,3:2|0:2,0:0:0:0:
358,177,84128,2,0,P|406:166|458:161,1,77,2|0,3:2|3:0,0:0:0:0:
486,60,84454,2,0,P|438:49|386:44,1,77,2|8,3:2|0:2,0:0:0:0:
288,3,84780,6,0,L|193:15,1,77,2|0,3:2|3:0,0:0:0:0:
138,101,85106,1,2,3:2:0:0:
216,186,85269,1,8,0:2:0:0:
142,274,85432,2,0,L|159:363,1,77,2|0,3:2|3:0,0:0:0:0:
266,383,85758,1,2,3:2:0:0:
360,316,85921,2,0,L|451:334,1,77,8|0,0:2|1:0,0:0:0:0:
505,230,86247,6,0,P|498:185|494:145,2,77,14|0|0,0:2|3:0|3:0,0:0:0:0:
400,116,86736,2,0,P|393:161|389:201,2,77,14|0|0,0:2|3:0|3:0,0:0:0:0:
295,230,87225,2,0,P|288:185|284:145,1,77,14|2,0:2|3:2,0:0:0:0:
