osu file format v14

[General]
AudioFilename: audio.mp3
AudioLeadIn: 0
PreviewTime: 41669
Countdown: 0
SampleSet: Soft
StackLeniency: 0.4
Mode: 0
LetterboxInBreaks: 0
WidescreenStoryboard: 0

[Editor]
DistanceSpacing: 1.1
BeatDivisor: 4
GridSize: 8
TimelineZoom: 2.1

[Metadata]
Title:Recall THE END (TV Size)
TitleUnicode:Recall THE END (TV Size)
Artist:TRUSTRICK
ArtistUnicode:TRUSTRICK
Creator:payney
Version:Mirai
Source:ダンガンロンパ3-The End of 希望ヶ峰学園- 未来編
Tags:dog food door weapon p1twist paul blart potatodew froskya revialink Anime Japanese rock j-rock jrock Kibougamine Gakuen Mirai Hen danganronpa dangan ronpa ending ed version The End of Hope's Peak Academy Side Future Arc
BeatmapID:3143392
BeatmapSetID:1537380

[Difficulty]
HPDrainRate:6
CircleSize:4.2
OverallDifficulty:8.5
ApproachRate:9
SliderMultiplier:1.92
SliderTickRate:1

[Events]
//Background and Video events
0,0,"kiring giring.jpg",0,0
//Break Periods
//Storyboard Layer 0 (Background)
//Storyboard Layer 1 (Fail)
//Storyboard Layer 2 (Pass)
//Storyboard Layer 3 (Foreground)
//Storyboard Layer 4 (Overlay)
//Storyboard Sound Samples

[TimingPoints]
161,326.530612244898,4,2,2,45,1,0
161,-125,4,2,2,45,0,0
2609,-125,4,2,1,45,0,0
2936,-125,4,2,2,45,0,0
3099,-125,4,2,2,45,0,0
5385,324.324324324324,4,2,1,80,1,0
5547,-100,4,2,1,80,0,0
7655,339.943342776204,4,2,1,80,1,0
7994,326.086956521739,4,2,1,80,1,0
9950,-55.5555555555556,4,2,1,80,0,0
10113,-66.6666666666667,4,2,1,80,0,0
10276,-83.3333333333333,4,2,1,80,0,0
10439,-100,4,2,1,80,0,0
10602,326.975476839237,4,2,2,80,1,0
10928,-125,4,2,2,40,0,0
13217,-125,4,2,2,60,0,0
13380,-125,4,2,2,40,0,0
15833,326.086956521739,4,2,2,60,1,0
16159,-125,4,2,2,40,0,0
18441,-125,4,2,2,60,0,0
18604,-125,4,2,2,40,0,0
19746,-125,4,2,2,60,0,0
19909,-125,4,2,2,40,0,0
21050,-125,4,2,1,60,0,0
21131,-125,4,2,2,40,0,0
21376,-125,4,2,2,40,0,0
23659,-125,4,2,1,60,0,0
23985,-125,4,2,2,40,0,0
25778,-125,4,2,1,60,0,0
25941,-125,4,2,2,40,0,0
26267,-125,4,2,1,60,0,0
26430,-125,4,2,2,40,0,0
26593,-125,4,2,2,40,0,0
28387,-125,4,2,1,60,0,0
28550,-125,4,2,2,40,0,0
28794,-125,4,2,2,5,0,0
28876,-125,4,2,1,60,0,0
29202,-125,4,2,2,40,0,0
29691,-125,4,2,1,60,0,0
29854,-125,4,2,2,60,0,0
30180,-200,4,2,1,60,0,0
30343,-200,4,2,1,40,0,0
31077,-200,4,2,1,5,0,0
31159,-200,4,2,1,40,0,0
31485,325.20325203252,4,2,1,60,1,0
35955,-100,4,2,1,5,0,0
36037,-100,4,2,1,60,0,0
36688,324.324324324324,4,2,1,70,1,0
38958,333.333333333333,4,2,1,70,1,0
39291,329.67032967033,4,2,1,70,1,0
40444,-133.333333333333,4,2,1,70,0,0
40691,-133.333333333333,4,2,1,5,0,0
40774,-133.333333333333,4,2,1,70,0,0
41269,319.148936170213,4,2,1,70,1,0
41588,326.086956521739,4,2,1,70,1,0
41751,-90.9090909090909,4,2,1,80,0,1
41914,326.086956521739,4,2,1,80,1,1
41995,-100,4,2,1,5,0,1
42077,-100,4,2,1,80,0,1
42240,-90.9090909090909,4,2,1,80,0,1
43788,-90.9090909090909,4,2,1,5,0,1
43870,-90.9090909090909,4,2,1,80,0,1
44603,-90.9090909090909,4,2,1,5,0,1
44685,-90.9090909090909,4,2,1,80,0,1
44848,322.58064516129,4,2,1,80,1,1
45331,-90.9090909090909,4,2,1,80,0,1
45493,326.086956521739,4,2,1,80,1,1
45656,-90.9090909090909,4,2,1,80,0,1
45819,326.086956521739,4,2,1,80,1,1
45982,-90.9090909090909,4,2,1,80,0,1
46145,334.075723830735,4,2,1,80,1,1
46479,309.278350515464,4,2,1,80,1,1
46788,326.086956521739,4,2,1,80,1,1
47114,329.67032967033,4,2,1,70,1,1
47114,-90.9090909090909,4,2,1,70,0,1
48432,326.086956521739,4,2,1,70,1,1
48432,-90.9090909090909,4,2,1,70,0,1
48758,337.078651685393,4,2,1,70,1,1
49095,320.855614973262,4,2,1,70,1,1
49095,-90.9090909090909,4,2,1,70,0,1
49656,-90.9090909090909,4,2,1,5,0,1
49736,322.58064516129,4,2,1,70,1,1
50865,312.5,4,2,1,70,1,1
50865,-90.9090909090909,4,2,1,70,0,1
51177,300,4,2,1,70,1,1
51327,322.58064516129,4,2,1,70,1,1
51972,368.098159509202,4,2,1,70,1,1
51972,-90.9090909090909,4,2,1,70,0,1
52156,327.868852459016,4,2,1,80,1,1
52156,-90.9090909090909,4,2,1,80,0,1
52319,327.868852459016,4,2,1,80,1,1
52646,-90.9090909090909,4,2,1,80,0,1
54203,-90.9090909090909,4,2,1,5,0,1
54286,-90.9090909090909,4,2,1,80,0,1
54614,317.460317460317,4,2,1,80,1,1
54772,326.975476839237,4,2,1,80,1,1
54935,326.975476839237,4,2,1,80,1,1
55016,-100,4,2,1,5,0,1
55098,-100,4,2,1,80,0,1
55752,-90.9090909090909,4,2,1,80,0,1
57223,339.943342776204,4,2,1,80,1,1
57562,325.20325203252,4,2,1,70,1,0
57562,-90.9090909090909,4,2,1,70,0,0
57805,-90.9090909090909,4,2,1,5,0,0
57887,-90.9090909090909,4,2,1,70,0,0
60406,-90.9090909090909,4,2,1,5,0,0
60488,-90.9090909090909,4,2,1,70,0,0
61544,-90.9090909090909,4,2,1,5,0,0
61627,-90.9090909090909,4,2,1,70,0,0
62602,326.086956521739,4,2,1,80,1,1
62602,-90.9090909090909,4,2,1,80,0,1
62765,326.086956521739,4,2,1,80,1,1
62846,-100,4,2,1,5,0,1
62928,-90.9090909090909,4,2,1,80,0,1
64639,-90.9090909090909,4,2,1,5,0,1
64721,-90.9090909090909,4,2,1,80,0,1
65454,-90.9090909090909,4,2,1,5,0,1
65536,-90.9090909090909,4,2,1,80,0,1
67982,-90.9090909090909,4,2,1,70,0,1
70509,-90.9090909090909,4,2,1,5,0,1
70591,-90.9090909090909,4,2,1,70,0,1
71976,-90.9090909090909,4,2,1,5,0,1
72058,-90.9090909090909,4,2,1,70,0,1
73036,327.868852459016,4,2,1,80,1,1
73036,-90.9090909090909,4,2,1,80,0,1
73199,327.868852459016,4,2,1,80,1,1
73280,-100,4,2,1,5,0,1
73362,-100,4,2,1,80,0,1
73526,-90.9090909090909,4,2,1,80,0,1
75083,-90.9090909090909,4,2,1,5,0,1
75166,-90.9090909090909,4,2,1,80,0,1
75658,326.086956521739,4,2,1,80,1,1
75658,-90.9090909090909,4,2,1,80,0,1
75821,326.086956521739,4,2,1,80,1,1
75984,-90.9090909090909,4,2,1,80,0,1
76228,-90.9090909090909,4,2,1,80,0,1
76310,-90.9090909090909,4,2,1,80,0,1
76962,324.324324324324,4,2,1,80,1,1
76962,-90.9090909090909,4,2,1,80,0,1
77124,324.324324324324,4,2,1,80,1,1
77286,-90.9090909090909,4,2,1,80,0,1
77448,337.078651685393,4,2,1,80,1,1
77616,-90.9090909090909,4,2,1,80,0,1
77785,320,4,2,1,80,1,1
78425,326.975476839237,4,2,1,70,1,0
78425,-90.9090909090909,4,2,1,70,0,0
78670,-90.9090909090909,4,2,1,5,0,0
78751,-90.9090909090909,4,2,1,70,0,0
81040,325.20325203252,4,2,1,70,1,0
81040,-90.9090909090909,4,2,1,70,0,0
81283,-90.9090909090909,4,2,1,5,0,0
81365,-90.9090909090909,4,2,1,70,0,0
82015,307.692307692308,4,2,1,70,1,0
82168,-90.9090909090909,4,2,1,70,0,0
82328,307.692307692308,4,2,1,70,1,0
82481,338.028169014084,4,2,1,70,1,0
82819,326.086956521739,4,2,1,70,1,0
82819,-90.9090909090909,4,2,1,70,0,0
82982,326.086956521739,4,2,1,70,1,0
83308,-90.9090909090909,4,2,1,70,0,0
83471,337.078651685393,4,2,1,70,1,0
83639,326.086956521739,4,2,1,70,1,0
83639,-90.9090909090909,4,2,1,70,0,0
83883,-90.9090909090909,4,2,1,5,0,0
83965,-90.9090909090909,4,2,1,70,0,0
86247,-90.9090909090909,4,2,1,80,0,1
87389,-90.9090909090909,4,2,1,80,0,0
87715,-90.9090909090909,4,2,1,30,0,0
88041,-303.030303030303,4,2,1,30,0,0
88448,-303.030303030303,4,2,1,5,0,0
88530,-303.030303030303,4,2,1,30,0,0

[Colours]
Combo1 : 196,223,234
Combo2 : 185,159,232
Combo3 : 98,66,151
Combo4 : 74,128,227

[HitObjects]
104,95,161,6,0,L|93:179,1,76.8,4|2,1:0|0:0,0:0:0:0:
189,272,487,1,2,0:3:0:0:
189,272,650,2,0,L|208:104,1,153.6,2|0,0:0|0:0,0:0:0:0:
278,47,1140,2,0,P|351:60|360:144,1,153.6,2|0,0:3|0:0,0:0:0:0:
293,209,1630,2,0,B|387:195|350:256|445:244,1,153.6,2|0,0:0|0:0,0:0:0:0:
512,326,2120,1,2,0:0:0:0:
512,326,2283,2,0,P|439:349|368:325,1,153.6,0|0,0:0|3:0,0:0:0:0:
291,285,2773,6,0,L|293:208,1,76.8,2|0,3:2|0:0,0:0:0:0:
182,100,3099,1,2,0:3:0:0:
182,100,3263,2,0,P|191:175|235:129,1,153.6,2|0,0:0|0:0,0:0:0:0:
255,27,3752,2,0,B|181:11|181:11|104:31,1,153.6,2|0,0:3|0:0,0:0:0:0:
23,108,4242,2,0,B|19:172|19:172|30:190|30:190|24:263,1,153.6,2|0,0:0|0:0,0:0:0:0:
108,330,4732,1,2,0:0:0:0:
108,330,4895,2,0,B|205:313|165:366|262:350,1,153.6
450,274,5385,5,4,1:0:0:0:
283,177,5547,1,0,3:0:0:0:
372,355,5709,1,0,3:0:0:0:
459,134,5871,5,10,0:2:0:0:
271,269,6033,1,0,3:0:0:0:
469,142,6195,1,0,3:0:0:0:
267,67,6357,6,0,L|274:165,1,96,10|0,0:2|3:0,0:0:0:0:
367,363,6682,1,0,3:0:0:0:
473,117,6844,2,0,L|466:215,1,96,10|0,0:2|3:0,0:0:0:0:
364,375,7168,1,0,3:0:0:0:
267,151,7330,5,10,0:2:0:0:
211,325,7493,1,0,3:0:0:0:
376,189,7655,1,10,0:2:0:0:
191,124,7824,1,0,3:0:0:0:
283,38,7994,5,10,0:2:0:0:
283,38,8075,1,0,3:0:0:0:
283,38,8157,2,0,L|346:53,3,48,0|0|0|0,3:0|3:0|3:0|3:0,0:0:0:0:
194,108,8483,5,10,0:2:0:0:
165,118,8564,1,0,3:0:0:0:
136,127,8646,2,0,L|81:145,3,48,0|0|0|0,3:0|3:0|3:0|3:0,0:0:0:0:
297,180,8972,5,10,0:2:0:0:
330,192,9053,1,0,3:0:0:0:
364,204,9135,2,0,L|427:229,3,48,0|0|0|0,3:0|3:0|3:0|3:0,0:0:0:0:
180,258,9461,5,10,0:2:0:0:
139,271,9542,1,0,3:0:0:0:
97,284,9624,2,0,L|38:303,3,48,0|0|0|0,3:0|3:0|3:0|3:0,0:0:0:0:
375,331,9950,6,0,L|290:302,1,86.3999999999999,10|0,0:2|3:0,0:0:0:0:
139,271,10113,6,0,L|214:247,1,72,8|0,0:2|3:0,0:0:0:0:
330,192,10276,6,0,L|253:166,1,57.6,8|0,0:2|3:0,0:0:0:0:
165,118,10439,6,0,L|213:102,1,48,8|0,0:2|3:0,0:0:0:0:
283,38,10602,5,2,3:2:0:0:
283,38,10928,2,0,P|317:31|361:40,2,76.8,2|2|2,0:3|0:0|3:2,0:0:0:0:
445,20,11419,2,0,P|448:64|423:99,1,76.8,2|2,0:0|0:3,0:0:0:0:
341,143,11746,2,0,B|311:235|311:235|351:289,1,153.6,2|2,0:0|0:0,0:0:0:0:
491,353,12400,2,0,B|405:340|422:392|341:382,1,153.6,2|2,0:0|0:0,0:0:0:0:
218,342,12890,1,2,0:3:0:0:
261,271,13054,6,0,B|225:258|225:258|186:265,1,76.8,2|2,0:0|0:0,0:0:0:0:
93,364,13381,2,0,L|101:268,1,76.8,2|2,0:0|0:3,0:0:0:0:
43,183,13708,2,0,P|-7:242|8:324,1,153.6,2|2,0:0|0:0,0:0:0:0:
99,287,14198,1,2,0:3:0:0:
137,183,14362,2,0,P|136:146|114:116,1,76.8,2|0,0:0|3:0,0:0:0:0:
26,27,14689,2,0,B|15:63|15:63|37:95,1,76.8,2|2,0:0|0:3,0:0:0:0:
254,30,15016,2,0,B|215:-11|145:-6|114:41|114:41|161:43|180:84,1,230.4,2|2,0:0|0:3,0:0:0:0:
342,72,15833,5,2,0:0:0:0:
342,72,16159,2,0,L|418:76,2,76.8,2|2|2,0:3|0:0|3:2,0:0:0:0:
260,148,16648,1,2,0:0:0:0:
260,148,16974,2,0,L|179:143,1,76.8,2|0,0:0|3:0,0:0:0:0:
104,249,17300,2,0,L|95:172,1,76.8,2|2,0:0|0:3,0:0:0:0:
42,306,17626,2,0,P|68:329|119:333,1,76.8,2|0,0:0|3:0,0:0:0:0:
250,269,17952,2,0,P|225:247|174:243,1,76.8,2|2,0:0|0:3,0:0:0:0:
236,374,18278,1,2,0:0:0:0:
236,374,18441,6,0,B|282:317|346:335|346:335|379:385|441:380,1,230.4,2|0,0:0|0:0,0:0:0:0:
362,237,19256,1,2,0:0:0:0:
429,198,19419,1,2,0:3:0:0:
431,276,19583,1,2,0:0:0:0:
360,160,19746,2,0,B|336:135|350:103|350:103|399:76|439:114,1,153.6,2|2,0:0|0:3,0:0:0:0:
362,237,20235,2,0,B|195:251,1,153.6
99,263,20724,2,0,P|81:303|98:345,1,76.8,2|0,0:3|0:0,0:0:0:0:
208,249,21050,5,2,3:2:0:0:
208,249,21376,2,0,L|212:172,2,76.8,2|2|2,0:3|0:0|3:2,0:0:0:0:
88,333,21865,2,0,L|165:337,1,76.8,2|2,0:0|0:3,0:0:0:0:
280,312,22191,2,0,P|308:276|302:234,1,76.8,2|0,0:0|3:0,0:0:0:0:
240,107,22517,2,0,P|211:142|217:184,1,76.8,2|2,0:0|0:3,0:0:0:0:
362,194,22843,2,0,P|328:163|286:165,1,76.8,2|0,0:0|3:0,0:0:0:0:
157,225,23169,2,0,P|190:256|232:253,1,76.8,2|2,0:0|0:3,0:0:0:0:
105,126,23496,6,0,P|47:161|43:257,1,153.6,2|2,0:0|3:2,0:0:0:0:
132,293,23985,1,2,0:3:0:0:
230,179,24148,2,0,L|241:96,1,76.8,2|0,0:0|3:0,0:0:0:0:
114,49,24474,2,0,L|103:138,1,76.8,2|2,0:0|0:3,0:0:0:0:
313,56,24800,2,0,B|273:40|256:6|256:6|228:34|184:37,1,153.6,2|2,0:0|0:0,0:0:0:0:
383,12,25289,1,2,0:3:0:0:
457,108,25452,2,0,L|449:269,1,153.6,2|0,0:0|3:0,0:0:0:0:
276,199,25941,2,0,L|279:122,1,76.8,2|0,0:3|0:0,0:0:0:0:
383,12,26267,5,2,3:2:0:0:
383,12,26593,2,0,L|379:91,1,76.8,2|2,0:3|0:0,0:0:0:0:
349,217,26919,1,2,3:2:0:0:
206,118,27082,2,0,B|244:107|244:107|279:122,1,76.8,2|2,0:0|0:3,0:0:0:0:
273,275,27409,2,0,L|276:198,1,76.8,2|0,0:0|3:0,0:0:0:0:
182,255,27735,2,0,P|180:309|200:338,1,76.8,2|2,0:0|0:3,0:0:0:0:
345,273,28061,2,0,B|311:261|311:261|265:277,1,76.8,2|0,0:0|3:0,0:0:0:0:
112,346,28387,1,2,3:2:0:0:
112,346,28468,1,0,0:0:0:0:
112,346,28550,2,0,P|93:294|115:220,1,115.2,2|0,0:3|0:0,0:0:0:0:
115,221,28876,5,0,3:0:0:0:
256,192,28958,12,0,30017,0:0:0:0:
461,331,30180,6,0,B|298:271|298:271|345:292|355:337,1,264,2|0,3:2|0:0,0:0:0:0:
280,344,31159,1,2,0:0:0:0:
29,143,31485,6,0,B|78:125|139:142|102:173|164:193|217:176,1,192,4|0,1:0|3:0,0:0:0:0:
351,88,31972,1,0,0:0:0:0:
277,48,32135,2,0,P|261:91|289:146,1,96,0|0,3:0|0:0,0:0:0:0:
386,214,32460,1,2,3:2:0:0:
428,132,32623,1,2,0:0:0:0:
344,291,32785,6,0,B|221:253|221:253|196:280|162:292,1,192,2|0,1:2|3:0,0:0:0:0:
0,368,33273,1,0,0:0:0:0:
83,233,33436,2,0,L|80:328,1,96,0|0,3:0|0:0,0:0:0:0:
5,176,33761,2,0,L|8:81,1,96,2|0,3:2|0:0,0:0:0:0:
198,35,34086,6,0,B|154:42|154:42|142:49|142:49|101:56,1,96,2|0,1:2|0:0,0:0:0:0:
313,124,34411,2,0,B|356:131|356:131|368:138|368:138|407:145,1,96,2|0,3:2|0:0,0:0:0:0:
185,197,34737,1,2,3:2:0:0:
185,197,35062,6,0,B|146:227|144:278|183:307|183:307|191:272|226:258,1,192,4|0,1:0|0:0,0:0:0:0:
412,337,35550,1,2,3:2:0:0:
302,364,35712,2,0,B|288:328|303:290|320:309|333:263|312:225,1,144,10|0,0:2|0:0,0:0:0:0:
308,210,36037,1,0,3:0:0:0:
199,119,36200,1,0,3:0:0:0:
316,53,36363,2,0,B|432:44,1,96,10|0,0:2|0:0,0:0:0:0:
163,7,36688,6,0,L|173:208,1,192,4|8,1:0|0:2,0:0:0:0:
105,361,37174,1,0,0:0:0:0:
228,269,37336,1,2,3:2:0:0:
70,230,37498,1,0,3:0:0:0:
237,373,37660,2,0,L|223:270,1,96,8|0,0:2|0:0,0:0:0:0:
113,115,37985,6,0,B|193:122|193:122|221:146|221:146|301:156,1,192,2|8,3:2|0:2,0:0:0:0:
462,176,38471,1,0,3:0:0:0:
305,282,38633,1,2,0:0:0:0:
467,352,38796,1,0,3:0:0:0:
378,200,38958,2,0,L|389:304,1,96,8|0,0:2|0:0,0:0:0:0:
203,376,39291,5,2,3:2:0:0:
405,290,39455,1,0,3:0:0:0:
222,180,39620,5,8,0:2:0:0:
344,367,39785,1,0,0:0:0:0:
369,121,39950,5,0,3:2:0:0:
214,283,40115,1,2,3:2:0:0:
379,113,40280,1,10,0:2:0:0:
130,65,40444,6,0,L|143:176,1,108,4|0,1:0|0:0,0:0:0:0:
146,188,40774,1,0,3:0:0:0:
390,108,40939,1,8,0:2:0:0:
399,103,41269,5,12,0:2:0:0:
299,332,41428,1,12,0:2:0:0:
297,346,41751,6,0,B|252:336|213:355|230:371|191:391|145:380,1,158.400004833985,4|0,1:0|0:0,0:0:0:0:
85,333,42077,1,2,3:2:0:0:
0,200,42240,2,0,P|52:215|71:259,1,105.6,10|0,0:2|0:0,0:0:0:0:
10,382,42566,1,2,3:2:0:0:
185,257,42729,1,2,3:2:0:0:
129,196,42892,1,8,0:2:0:0:
192,83,43055,6,0,B|244:66|244:66|301:87,1,105.6,2|0,3:2|0:0,0:0:0:0:
426,180,43381,1,2,3:2:0:0:
349,209,43544,2,0,B|331:112|392:159|369:45,1,158.4,10|0,0:2|0:0,0:0:0:0:
329,0,43870,1,2,3:2:0:0:
431,192,44033,1,0,3:0:0:0:
246,144,44196,1,8,0:2:0:0:
465,122,44359,6,0,B|511:160|511:160|490:274,1,158.4,4|0,1:0|0:0,0:0:0:0:
476,325,44685,1,2,3:2:0:0:
323,351,44848,1,10,0:2:0:0:
262,300,45009,1,2,0:0:0:0:
150,374,45170,1,2,3:2:0:0:
340,257,45331,2,0,P|310:221|248:211,1,106.254723222656,2|8,3:2|0:2,0:0:0:0:
51,256,45656,6,0,B|102:276|102:276|152:257,1,105.600003222656,2|2,3:2|0:0,0:0:0:0:
242,119,45982,1,2,3:2:0:0:
93,78,46145,2,0,P|81:123|105:183,1,96,8|0,0:2|0:0,0:0:0:0:
294,19,46479,1,2,3:2:0:0:
253,209,46633,1,0,3:0:0:0:
160,36,46788,1,8,0:2:0:0:
358,158,46951,1,0,1:2:0:0:
394,168,47032,1,0,1:2:0:0:
434,156,47114,6,0,B|489:105|448:28|448:28|428:69|391:79,1,211.2,4|8,1:0|0:2,0:0:0:0:
242,119,47608,1,0,0:0:0:0:
362,246,47773,2,0,B|479:269,1,105.6,2|0,3:2|3:0,0:0:0:0:
328,325,48103,1,8,0:2:0:0:
112,375,48267,1,0,0:0:0:0:
198,230,48432,6,0,B|259:188|259:188|227:343,1,211.200006445313,2|8,3:2|0:2,0:0:0:0:
58,245,48926,1,2,0:0:0:0:
130,89,49095,2,0,L|123:194,1,105.6,2|0,3:2|3:0,0:0:0:0:
224,0,49415,2,0,P|307:12|321:101,1,158.400004833985,8|0,0:2|0:0,0:0:0:0:
295,142,49736,5,2,3:2:0:0:
491,43,49897,1,0,0:0:0:0:
473,196,50058,5,8,0:2:0:0:
321,64,50219,1,0,0:0:0:0:
251,244,50381,5,8,0:2:0:0:
430,114,50542,1,2,3:2:0:0:
240,260,50703,1,8,0:2:0:0:
424,371,50865,6,0,B|367:376|332:325|332:325|297:375|238:371,1,211.200006445313,4|0,1:0|3:0,0:0:0:0:
75,300,51327,1,8,0:2:0:0:
196,174,51488,1,2,0:0:0:0:
229,164,51568,1,0,1:0:0:0:
264,166,51649,1,10,0:2:0:0:
295,182,51730,1,0,3:0:0:0:
325,200,51810,1,0,3:0:0:0:
360,205,51891,1,0,1:0:0:0:
394,198,51972,2,0,P|414:168|413:139,1,52.8,8|0,0:2|0:0,0:0:0:0:
377,59,52156,6,0,B|290:42|290:42|254:59|254:59|169:44,1,210.555846445313,4|2,1:0|3:2,0:0:0:0:
13,13,52646,2,0,L|23:123,1,105.6,10|2,0:2|0:0,0:0:0:0:
191,213,52974,1,2,3:2:0:0:
47,327,53138,1,2,3:2:0:0:
38,246,53302,1,8,0:2:0:0:
243,140,53466,6,0,P|280:180|278:240,1,105.6,2|0,3:2|0:0,0:0:0:0:
209,383,53794,1,2,3:2:0:0:
201,297,53958,2,0,B|298:284|256:338|351:330,1,158.4,8|0,0:2|0:0,0:0:0:0:
409,291,54286,1,0,3:0:0:0:
499,160,54450,1,0,3:0:0:0:
325,96,54614,1,8,0:2:0:0:
479,350,54772,6,0,P|511:287|460:225,1,143.4128,4|0,1:0|0:0,0:0:0:0:
422,179,55098,1,2,3:2:0:0:
301,80,55261,1,8,0:2:0:0:
220,98,55425,1,2,0:0:0:0:
108,259,55588,1,2,3:2:0:0:
191,236,55752,2,0,B|216:282|216:282|185:339,1,105.6,2|8,3:2|0:2,0:0:0:0:
59,136,56079,6,0,P|116:118|160:140,1,105.6,2|0,0:0|0:0,0:0:0:0:
349,170,56406,2,0,P|292:188|248:166,1,105.6,2|8,3:2|0:2,0:0:0:0:
426,109,56733,2,0,B|460:136|460:136|465:172|440:198,1,105.6,2|0,0:0|3:0,0:0:0:0:
394,315,57060,1,2,3:2:0:0:
337,371,57223,1,8,0:2:0:0:
164,272,57392,1,0,1:2:0:0:
202,266,57477,1,0,1:2:0:0:
241,259,57562,6,0,B|347:239|347:239|319:252|311:281,1,158.4,4|0,1:0|0:0,0:0:0:0:
267,331,57887,1,10,0:2:0:0:
108,323,58049,2,0,B|69:287|69:287|102:229,1,105.6,2|0,0:0|3:0,0:0:0:0:
200,94,58375,1,2,3:2:0:0:
164,272,58537,1,8,0:2:0:0:
19,149,58700,6,0,B|65:151|65:151|75:159|75:159|132:163,1,105.6,2|0,0:0|3:2,0:0:0:0:
340,171,59025,1,2,3:2:0:0:
161,285,59188,1,8,0:2:0:0:
267,53,59350,2,0,P|280:111|246:157,1,105.6,2|0,0:0|3:2,0:0:0:0:
97,85,59675,1,2,3:2:0:0:
356,31,59838,1,8,0:2:0:0:
256,285,60001,1,0,0:0:0:0:
256,258,60082,1,0,0:0:0:0:
256,230,60163,6,0,B|350:219|317:270|407:263,1,158.4,2|0,3:2|0:0,0:0:0:0:
471,231,60488,1,8,0:2:0:0:
299,140,60651,1,0,3:2:0:0:
242,79,60814,5,8,0:2:0:0:
474,11,60976,1,2,3:2:0:0:
512,125,61139,5,10,0:2:0:0:
251,2,61301,2,0,B|158:1|198:60|111:63,1,158.4,4|0,1:0|0:0,0:0:0:0:
47,34,61627,1,0,3:0:0:0:
14,169,61789,2,0,L|31:287,1,105.6,8|0,0:2|3:0,0:0:0:0:
214,350,62114,1,8,0:2:0:0:
101,188,62277,1,8,0:2:0:0:
45,379,62440,1,8,0:2:0:0:
199,208,62602,6,0,B|268:216|268:216|282:229|282:229|360:240,1,158.400004833985,4|0,1:0|0:0,0:0:0:0:
426,251,62928,2,0,P|463:212|444:159,1,105.6,2|8,3:2|0:2,0:0:0:0:
324,20,63254,1,2,0:0:0:0:
247,45,63417,1,2,3:2:0:0:
69,116,63580,2,0,B|115:121|115:121|124:130|124:130|177:138,1,105.6,2|8,3:2|0:2,0:0:0:0:
288,188,63906,6,0,L|282:295,1,105.6,2|0,0:0|3:0,0:0:0:0:
181,380,64232,1,2,3:2:0:0:
27,269,64395,2,0,B|134:239|134:239|113:255|108:282,1,158.4,8|0,0:2|0:0,0:0:0:0:
177,296,64721,1,0,3:0:0:0:
318,377,64884,1,0,3:0:0:0:
436,265,65047,1,8,0:2:0:0:
288,188,65210,6,0,B|263:94|263:94|312:41,1,158.4,4|0,1:0|0:0,0:0:0:0:
359,4,65536,1,2,0:0:0:0:
484,121,65699,1,10,0:2:0:0:
425,183,65862,1,2,0:0:0:0:
483,331,66025,1,2,3:2:0:0:
361,241,66188,2,0,B|312:222|312:222|254:245,1,105.6,2|8,3:2|0:2,0:0:0:0:
85,284,66515,6,0,B|134:303|134:303|192:280,1,105.6,2|0,0:0|3:0,0:0:0:0:
18,233,66841,1,2,3:2:0:0:
116,116,67004,2,0,B|145:150|145:150|134:229,1,105.600003222656,8|0,0:2|0:0,0:0:0:0:
16,61,67330,1,0,3:0:0:0:
232,129,67493,1,0,3:0:0:0:
28,223,67656,1,8,0:2:0:0:
205,15,67819,1,0,1:0:0:0:
246,18,67900,1,0,1:0:0:0:
288,22,67982,6,0,B|330:44|377:21|377:21|398:30|398:30|445:8|491:30,1,211.200006445313,4|8,1:0|0:2,0:0:0:0:
444,203,68471,1,0,0:0:0:0:
306,111,68634,2,0,B|354:115|354:115|365:123|365:123|412:127,1,105.6,2|0,3:2|3:0,0:0:0:0:
212,190,68960,1,8,0:2:0:0:
148,241,69123,1,0,0:0:0:0:
297,367,69286,6,0,B|361:320|315:247|315:247|294:287|256:298,1,211.2,2|8,3:2|0:2,0:0:0:0:
80,190,69775,1,2,0:0:0:0:
145,346,69938,2,0,L|148:237,1,105.6,2|0,3:2|3:0,0:0:0:0:
155,38,70265,2,0,P|223:52|240:141,1,158.400004833985,8|0,0:2|0:0,0:0:0:0:
208,194,70591,5,2,3:2:0:0:
24,101,70754,1,0,3:0:0:0:
4,241,70917,5,8,0:2:0:0:
221,68,71080,1,0,3:0:0:0:
50,15,71243,5,8,0:2:0:0:
218,204,71406,1,2,3:2:0:0:
39,3,71569,1,8,0:2:0:0:
318,104,71732,6,0,B|359:90|402:113|386:130|429:152|470:138,1,158.400004833985,4|0,1:0|0:0,0:0:0:0:
512,88,72058,1,0,3:0:0:0:
318,18,72221,1,8,0:2:0:0:
486,216,72384,1,2,0:0:0:0:
451,212,72466,1,0,0:0:0:0:
417,221,72547,1,10,0:2:0:0:
390,244,72629,1,0,3:0:0:0:
363,266,72710,1,0,3:0:0:0:
330,276,72792,1,0,3:0:0:0:
295,276,72873,2,0,P|265:259|247:232,1,52.8,8|0,0:2|1:0,0:0:0:0:
194,168,73036,6,0,B|123:132|123:132|45:175,1,157.755844833985,4|0,1:0|0:0,0:0:0:0:
0,220,73362,1,2,3:2:0:0:
292,142,73526,2,0,B|254:122|254:122|244:109|244:109|203:89,1,105.6,10|2,0:2|0:0,0:0:0:0:
12,7,73854,1,2,3:2:0:0:
86,59,74018,1,2,3:2:0:0:
126,245,74182,1,8,0:2:0:0:
75,334,74346,6,0,B|127:317|127:317|181:337,1,105.6,2|0,3:2|0:0,0:0:0:0:
292,381,74674,1,2,3:2:0:0:
431,261,74838,2,0,B|341:243|366:304|278:288,1,158.4,8|0,0:2|0:0,0:0:0:0:
223,246,75166,1,0,3:0:0:0:
327,114,75330,1,0,3:0:0:0:
125,57,75494,1,8,0:2:0:0:
291,189,75658,6,0,P|343:198|392:169,1,105.600003222656,4|0,1:0|0:0,0:0:0:0:
214,130,75984,1,2,3:2:0:0:
366,35,76147,2,0,P|314:26|265:55,1,105.600003222656,8|2,0:2|0:0,0:0:0:0:
2,36,76473,1,2,3:2:0:0:
45,119,76636,2,0,L|33:243,1,105.600003222656,2|8,3:2|0:2,0:0:0:0:
18,369,76962,6,0,B|63:361|63:361|74:351|74:351|130:341,1,105.600003222656,2|0,0:0|3:0,0:0:0:0:
323,283,77286,2,0,B|277:275|277:275|266:265|266:265|210:255,1,105.600003222656,2|8,3:2|0:2,0:0:0:0:
175,53,77616,2,0,B|140:80|140:80|128:112|159:141,1,106.226563222656,2|0,0:0|3:0,0:0:0:0:
329,148,77945,1,2,3:2:0:0:
252,100,78105,1,8,0:2:0:0:
401,33,78265,1,0,1:2:0:0:
436,19,78345,1,0,1:2:0:0:
470,4,78425,6,0,B|493:96|493:96|455:147,1,158.4,4|0,1:0|0:0,0:0:0:0:
410,201,78751,1,10,0:2:0:0:
511,330,78915,2,0,B|461:349|461:349|405:325,1,105.6,2|0,0:0|3:0,0:0:0:0:
274,268,79242,1,2,3:2:0:0:
202,304,79405,1,8,0:2:0:0:
27,235,79569,6,0,P|88:220|135:240,1,105.6,2|0,0:0|3:0,0:0:0:0:
264,349,79896,1,2,3:2:0:0:
78,315,80059,1,8,0:2:0:0:
196,198,80223,2,0,L|202:312,1,105.6,2|0,0:0|3:0,0:0:0:0:
131,158,80550,1,2,3:2:0:0:
276,65,80713,2,0,B|309:87|309:87|316:124|282:150,1,105.6,8|0,0:2|0:0,0:0:0:0:
169,23,81040,6,0,B|66:0|66:0|101:17|110:57,1,158.4,6|0,3:2|0:0,0:0:0:0:
150,91,81365,1,10,0:2:0:0:
339,13,81527,2,0,B|385:18|385:18|398:27|398:27|452:37,1,105.6,2|0,0:0|3:0,0:0:0:0:
395,167,81853,1,2,3:2:0:0:
457,233,82015,1,8,0:2:0:0:
358,362,82168,6,0,L|364:250,1,110.404803222656,2|0,0:0|3:0,0:0:0:0:
486,144,82481,1,2,3:2:0:0:
430,324,82650,1,8,0:2:0:0:
304,191,82819,2,0,P|269:241|281:291,1,105.600003222656,2|0,0:0|3:0,0:0:0:0:
430,324,83145,1,2,3:2:0:0:
266,373,83308,2,0,B|218:353|218:353|166:373,1,105.600003222656,8|2,0:2|0:0,0:0:0:0:
7,263,83639,6,0,B|103:240|67:300|164:281,1,158.4,6|0,3:2|0:0,0:0:0:0:
199,223,83965,1,10,0:2:0:0:
41,87,84128,2,0,B|6:116|6:116|5:150|48:179,1,105.6,2|0,3:2|3:0,0:0:0:0:
249,25,84454,1,2,3:2:0:0:
319,74,84617,1,8,0:2:0:0:
112,31,84780,6,0,L|124:138,1,105.6,2|0,3:2|3:0,0:0:0:0:
276,264,85106,1,2,3:2:0:0:
195,104,85269,1,8,0:2:0:0:
141,276,85432,2,0,P|100:294|35:285,1,105.6,2|0,3:2|3:0,0:0:0:0:
218,192,85758,2,0,P|259:174|324:183,1,105.6,2|8,3:2|0:2,0:0:0:0:
282,319,86084,1,0,1:0:0:0:
285,334,86166,1,0,1:0:0:0:
288,349,86247,5,14,0:2:0:0:
435,164,86410,1,0,3:0:0:0:
293,369,86573,1,0,3:0:0:0:
511,273,86736,5,14,0:2:0:0:
342,117,86899,1,0,3:0:0:0:
397,355,87062,1,0,3:0:0:0:
500,99,87225,5,14,0:2:0:0:
264,227,87389,1,2,3:2:0:0:
253,236,87715,5,2,0:0:0:0:
183,148,88041,2,0,L|275:152,1,79.2,2|0,0:0|0:0,0:0:0:0:
281,152,88530,1,2,0:2:0:0:
