osu file format v14

[General]
AudioFilename: audio.mp3
AudioLeadIn: 0
PreviewTime: 41751
Countdown: 0
SampleSet: Soft
StackLeniency: 0.3
Mode: 0
LetterboxInBreaks: 0
WidescreenStoryboard: 1

[Editor]
DistanceSpacing: 1
BeatDivisor: 4
GridSize: 4
TimelineZoom: 1

[Metadata]
Title:Recall THE END (TV Size)
TitleUnicode:Recall THE END (TV Size)
Artist:TRUSTRICK
ArtistUnicode:TRUSTRICK
Creator:Andrea
Version:Normal
Source:ダンガンロンパ3-The End of 希望ヶ峰学園- 未来編
Tags:Anime Japanese Kibougamine Gakuen Mirai Hen danganronpa dangan ronpa ending The End of Hope's Peak Academy osuplayer111
BeatmapID:2134404
BeatmapSetID:1020042

[Difficulty]
HPDrainRate:3
CircleSize:3.5
OverallDifficulty:4
ApproachRate:5
SliderMultiplier:1
SliderTickRate:1

[Events]
//Background and Video events
0,0,"BG.jpg",0,0
Video,-2000,"Video.mp4"
//Break Periods
//Storyboard Layer 0 (Background)
//Storyboard Layer 1 (Fail)
//Storyboard Layer 2 (Pass)
//Storyboard Layer 3 (Foreground)
//Storyboard Layer 4 (Overlay)
//Storyboard Sound Samples

[TimingPoints]
161,326.530612244898,4,2,1,60,1,0
5385,324.324324324324,4,2,1,70,1,0
7655,339.943342776204,4,2,1,70,1,0
7994,326.086956521739,4,2,1,70,1,0
10602,326.975476839237,4,2,1,50,1,0
15833,326.086956521739,4,2,1,50,1,0
31485,325.20325203252,4,2,1,60,1,0
36688,324.324324324324,4,2,1,60,1,0
38958,333.333333333333,4,2,1,60,1,0
39291,329.67032967033,4,2,1,60,1,0
41269,319.148936170213,4,2,1,70,1,0
41588,326.086956521739,4,2,1,70,1,0
41751,-100,4,2,1,70,0,1
41914,326.086956521739,4,2,1,70,1,1
44848,322.58064516129,4,2,1,70,1,1
45493,326.086956521739,4,2,1,70,1,1
45819,326.086956521739,4,2,1,70,1,1
46145,334.075723830735,4,2,1,70,1,1
46479,309.278350515464,4,2,1,70,1,1
46788,326.086956521739,4,2,1,70,1,1
47114,329.67032967033,4,2,1,70,1,1
48432,326.086956521739,4,2,1,70,1,1
48758,337.078651685393,4,2,1,70,1,1
49095,320.855614973262,4,2,1,70,1,1
49736,322.58064516129,4,2,1,70,1,1
50865,312.5,4,2,1,70,1,1
51177,300,4,2,1,70,1,1
51327,322.58064516129,4,2,1,70,1,1
51972,368.098159509202,4,2,1,70,1,1
52064,-100,4,2,1,70,0,0
52156,327.868852459016,4,2,1,70,1,1
52319,327.868852459016,4,2,1,70,1,1
54614,317.460317460317,4,2,1,70,1,1
54772,326.975476839237,4,2,1,70,1,1
54935,326.975476839237,4,2,1,70,1,1
57223,339.943342776204,4,2,1,70,1,1
57562,325.20325203252,4,2,1,70,1,1
62521,-100,4,2,1,70,0,0
62602,326.086956521739,4,2,1,80,1,1
62765,326.086956521739,4,2,1,80,1,1
72955,-100,4,2,1,80,0,0
73036,327.868852459016,4,2,1,80,1,1
73037,-100,4,2,1,80,0,1
73199,327.868852459016,4,2,1,80,1,1
75658,326.086956521739,4,2,1,80,1,1
75821,326.086956521739,4,2,1,80,1,1
76962,324.324324324324,4,2,1,80,1,1
77124,324.324324324324,4,2,1,80,1,1
77448,337.078651685393,4,2,1,80,1,1
77785,320,4,2,1,80,1,1
78425,326.975476839237,4,2,1,80,1,1
81040,325.20325203252,4,2,1,80,1,1
82015,307.692307692308,4,2,1,80,1,1
82328,307.692307692308,4,2,1,80,1,1
82481,338.028169014084,4,2,1,80,1,1
82819,326.086956521739,4,2,1,80,1,1
82982,326.086956521739,4,2,1,80,1,1
83471,337.078651685393,4,2,1,80,1,1
83639,326.086956521739,4,2,1,80,1,1
86247,-100,4,2,1,60,0,0
87552,-100,4,2,1,40,0,0
88856,-100,4,2,1,20,0,0

[Colours]
Combo1 : 226,199,199
Combo2 : 170,170,255
Combo3 : 213,0,0
Combo4 : 255,198,170

[HitObjects]
116,56,161,6,0,P|172:56|208:84,1,100,4|0,0:0|0:0,0:0:0:0:
256,80,650,1,2,0:0:0:0:
306,81,814,2,0,P|346:53|396:56,1,100,0|2,0:0|0:0,0:0:0:0:
428,152,1467,1,0,0:0:0:0:
444,200,1630,2,0,L|492:348,1,150,2|2,0:0|0:0,0:0:0:0:
392,332,2446,2,0,L|376:284,1,50,0|0,0:0|3:0,0:0:0:0:
360,236,2773,6,0,P|304:236|272:268,1,100,2|0,3:2|0:0,0:0:0:0:
244,304,3263,1,2,0:0:0:0:
212,344,3426,2,0,L|128:288,1,100,0|2,0:0|0:0,0:0:0:0:
40,240,4079,1,0,0:0:0:0:
40,192,4242,2,0,P|40:132|104:68,1,150,2|2,0:0|0:0,0:0:0:0:
192,32,5058,1,0,0:0:0:0:
292,32,5385,6,0,P|336:12|380:32,1,100,12|0,3:2|0:0,0:0:0:0:
392,80,5871,2,0,L|432:184,1,100,8|0,0:0|0:0,0:0:0:0:
444,220,6357,1,8,0:0:0:0:
324,312,6844,2,0,P|256:340|188:312,1,150,8|8,0:0|0:0,0:0:0:0:
112,252,7655,1,8,0:0:0:0:
32,192,7994,6,0,B|32:144|32:144|60:96,1,100,8|0,0:0|0:0,0:0:0:0:
88,60,8483,2,0,B|136:60|136:60|184:88,1,100,8|0,0:0|0:0,0:0:0:0:
224,108,8972,1,8,0:0:0:0:
368,156,9461,2,0,P|420:156|456:192,1,100,8|0,0:0|0:0,0:0:0:0:
448,236,9950,2,0,L|432:288,1,50,8|0,0:0|0:0,0:0:0:0:
384,288,10276,2,0,L|368:340,1,50,8|0,0:0|3:0,0:0:0:0:
220,312,10928,6,0,P|172:312|132:280,1,100,2|0,0:0|0:0,0:0:0:0:
84,192,11582,1,2,0:0:0:0:
132,103,11909,2,0,P|170:72|220:72,1,100,0|2,0:0|0:0,0:0:0:0:
320,72,12563,2,0,L|380:152,1,100,0|2,0:0|0:0,0:0:0:0:
412,192,13054,1,0,0:0:0:0:
436,236,13217,6,0,B|383:272|383:272|318:284|318:284|259:325,1,200,2|0,0:0|0:0,0:0:0:0:
176,376,14198,1,2,0:0:0:0:
88,324,14525,2,0,P|68:280|88:236,1,100,0|2,0:0|0:0,0:0:0:0:
172,180,15179,2,0,P|192:135|172:91,1,100,0|2,0:0|0:0,0:0:0:0:
256,36,15833,6,0,P|356:36|428:104,1,200,2|0,0:0|0:0,0:0:0:0:
468,192,16811,1,2,0:0:0:0:
426,284,17137,2,0,B|382:308|382:308|338:284,1,100,0|2,0:0|0:0,0:0:0:0:
244,248,17789,2,0,B|200:224|200:224|156:248,1,100,0|2,0:0|0:0,0:0:0:0:
106,248,18278,1,0,0:0:0:0:
56,248,18441,6,0,P|72:128|208:24,1,300,2|2,0:0|0:0,0:0:0:0:
256,40,19583,1,0,0:0:0:0:
304,24,19746,2,0,P|426:104|456:248,1,300,2|2,0:0|0:0,0:0:0:0:
396,328,21050,6,0,B|344:328|344:328|304:360,1,100,0|2,3:0|0:0,0:0:0:0:
256,356,21539,1,0,0:0:0:0:
208,356,21702,2,0,B|170:326|170:326|118:326,1,100,0|2,0:0|0:0,0:0:0:0:
76,236,22354,2,0,P|55:191|75:147,1,100,0|2,0:0|0:0,0:0:0:0:
118,57,23006,2,0,B|170:57|170:57|208:28,1,100,2|2,0:0|0:0,0:0:0:0:
256,28,23496,1,0,0:0:0:0:
304,28,23659,6,0,B|341:57|341:57|393:57,1,100,0|2,3:0|0:0,0:0:0:0:
436,147,24311,2,0,P|456:191|436:236,1,100,0|2,0:0|0:0,0:0:0:0:
336,244,24963,2,0,P|315:288|335:332,1,100,0|2,0:0|0:0,0:0:0:0:
240,360,25615,2,0,L|140:360,1,100,2|2,0:0|0:0,0:0:0:0:
64,292,26267,6,0,B|64:220|64:220|40:172|40:172|40:96,1,200,2|0,0:0|0:0,0:0:0:0:
116,32,27246,1,2,0:0:0:0:
216,32,27572,2,0,P|268:32|308:64,1,100,2|2,0:0|0:0,0:0:0:0:
344,92,28061,1,0,0:0:0:0:
380,128,28224,2,0,P|419:156|469:155,1,100,2|0,0:0|3:0,0:0:0:0:
464,256,28876,6,0,B|308:200|308:300|172:256,1,300,0|2,3:0|0:0,0:0:0:0:
96,320,30180,2,0,B|52:184|152:184|96:28,1,300,0|2,3:0|0:0,0:0:0:0:
196,24,31485,6,0,B|248:24|248:24|288:52,1,100,4|0,0:0|3:0,0:0:0:0:
364,115,32135,2,0,B|416:115|416:115|456:143,1,100,0|0,0:0|3:0,0:0:0:0:
456,192,32623,1,0,0:0:0:0:
456,241,32785,2,0,B|416:269|416:269|364:269,1,100,0|0,0:0|3:0,0:0:0:0:
288,332,33436,2,0,B|248:360|248:360|196:360,1,100,2|0,0:0|3:0,0:0:0:0:
140,276,34086,6,0,L|80:184,1,100,0|0,3:0|3:0,0:0:0:0:
20,116,34737,1,2,0:0:0:0:
72,28,35062,2,0,B|128:80|180:80|180:80|260:80,1,200,12|8,0:0|0:0,0:0:0:0:
356,80,36037,2,0,P|408:80|444:116,1,100,2|8,3:2|0:0,0:0:0:0:
496,192,36688,5,4,0:0:0:0:
441,273,37012,1,8,0:0:0:0:
392,360,37336,2,0,P|340:360|304:332,1,100,0|8,3:0|0:0,0:0:0:0:
208,331,37985,2,0,P|169:361|120:360,1,100,2|8,0:0|0:0,0:0:0:0:
56,284,38633,2,0,L|56:184,1,100,0|8,3:0|0:0,0:0:0:0:
56,80,39291,6,0,P|144:40|232:80,1,200,0|0,3:0|0:0,0:0:0:0:
308,148,40280,1,8,0:0:0:0:
348,180,40444,2,0,L|472:280,1,150,0|8,3:0|0:0,0:0:0:0:
404,356,41269,2,0,L|360:320,1,50,8|8,0:0|0:0,0:0:0:0:
280,276,41751,6,0,P|224:276|184:304,1,100,4|0,0:0|0:0,0:0:0:0:
144,328,42240,1,8,0:0:0:0:
104,236,42566,2,0,L|64:140,1,100,0|8,3:0|0:0,0:0:0:0:
48,96,43055,2,0,B|120:64|120:120|196:96,1,150,0|8,3:0|0:0,0:0:0:0:
288,60,43870,2,0,L|336:84,1,50,2|0,3:2|3:0,0:0:0:0:
424,128,44359,6,0,B|456:200|400:200|424:276,1,150,0|8,3:0|0:0,0:0:0:0:
340,328,45170,2,0,P|288:328|256:296,1,100,0|8,3:0|0:0,0:0:0:0:
224,256,45656,2,0,L|64:256,1,150,0|8,3:0|0:0,0:0:0:0:
24,164,46479,1,2,3:2:0:0:
88,93,46788,1,8,0:0:0:0:
160,28,47114,6,0,P|212:28|248:64,1,100,4|8,0:0|0:0,0:0:0:0:
332,112,47773,2,0,P|368:144|417:142,1,100,0|8,3:0|0:0,0:0:0:0:
417,241,48432,2,0,P|368:239|332:272,1,100,0|8,3:0|0:0,0:0:0:0:
288,296,48926,1,0,0:0:0:0:
245,325,49095,2,0,P|208:357|160:356,1,100,0|8,3:0|0:0,0:0:0:0:
104,272,49736,6,0,L|52:176,1,100,0|8,3:0|0:0,0:0:0:0:
96,92,50381,2,0,L|152:92,1,50,8|0,0:0|3:0,0:0:0:0:
232,36,50865,2,0,P|288:36|324:64,1,100,0|0,3:0|3:0,0:0:0:0:
360,88,51327,1,8,0:0:0:0:
440,148,51649,2,0,L|376:224,1,100,8|8,3:2|0:0,0:0:0:0:
340,260,52156,6,0,P|268:260|204:212,1,150,4|8,0:0|0:0,0:0:0:0:
124,164,52974,2,0,P|103:119|123:75,1,100,0|8,3:0|0:0,0:0:0:0:
164,44,53466,2,0,P|236:44|300:92,1,150,0|8,3:0|0:0,0:0:0:0:
364,160,54286,2,0,L|408:204,1,50,0|0,3:0|3:0,0:0:0:0:
492,156,54772,6,0,L|384:48,1,150,0|8,3:0|0:0,0:0:0:0:
288,24,55588,2,0,B|236:24|236:24|192:56,1,100,0|8,3:0|0:0,0:0:0:0:
156,80,56079,2,0,L|32:176,1,150,0|8,3:0|0:0,0:0:0:0:
96,256,56896,1,0,0:0:0:0:
156,336,57223,1,8,0:0:0:0:
256,336,57562,6,0,P|308:336|340:304,1,100,4|8,0:0|0:0,0:0:0:0:
360,260,58049,2,0,P|395:226|444:227,1,100,0|0,0:0|3:0,0:0:0:0:
492,236,58537,1,8,0:0:0:0:
492,136,58862,2,0,B|448:112|448:112|396:112,1,100,0|8,0:0|0:0,0:0:0:0:
348,116,59350,2,0,B|298:116|298:116|254:92,1,100,0|0,0:0|3:0,0:0:0:0:
208,68,59838,1,8,0:0:0:0:
112,100,60163,6,0,P|91:144|112:188,1,100,0|8,3:0|0:0,0:0:0:0:
208,212,60814,2,0,P|228:256|208:300,1,100,0|8,3:0|0:0,0:0:0:0:
244,336,61301,2,0,L|400:336,1,150,0|8,3:0|0:0,0:0:0:0:
444,248,62114,2,0,L|468:200,2,50,8|8|4,0:3|0:0|0:3,0:0:0:0:
396,232,62602,6,0,L|304:184,1,100,4|0,0:0|3:0,0:0:0:0:
264,164,63091,1,8,0:0:0:0:
172,120,63417,2,0,P|120:120|80:152,1,100,0|8,3:0|0:0,0:0:0:0:
44,176,63906,2,0,L|116:312,1,150,0|8,3:0|0:0,0:0:0:0:
208,272,64721,1,2,3:2:0:0:
304,272,65047,1,8,0:0:0:0:
332,312,65210,6,0,P|384:312|420:280,1,100,0|0,3:0|3:0,0:0:0:0:
432,232,65699,1,8,0:0:0:0:
420,132,66025,2,0,P|382:100|333:102,1,100,0|8,3:0|0:0,0:0:0:0:
288,120,66515,2,0,P|216:140|152:100,1,150,0|8,3:0|0:0,0:0:0:0:
80,36,67330,1,2,3:2:0:0:
40,128,67656,1,8,0:0:0:0:
80,220,67982,6,0,B|80:272|80:272|112:316,1,100,4|8,0:0|0:0,0:0:0:0:
200,268,68634,2,0,B|200:216|200:216|171:177,1,100,0|8,3:0|0:0,0:0:0:0:
100,108,69286,2,0,B|71:69|71:69|71:17,1,100,0|8,3:0|0:0,0:0:0:0:
172,16,69938,1,0,3:0:0:0:
256,68,70265,1,8,0:0:0:0:
340,16,70591,6,0,P|392:16|432:44,1,100,0|8,3:0|0:0,0:0:0:0:
468,136,71243,2,0,L|440:184,1,50,8|0,0:0|3:0,0:0:0:0:
384,260,71732,2,0,B|340:284|340:284|240:284,1,150,0|8,3:0|0:0,0:0:0:0:
173,206,72547,2,0,B|129:230|129:230|85:206,1,100,10|8,3:2|0:0,0:0:0:0:
52,168,73036,6,0,L|52:64,1,100,4|0,0:0|3:0,0:0:0:0:
88,36,73526,1,8,0:0:0:0:
176,84,73854,1,0,3:0:0:0:
264,36,74182,1,8,0:0:0:0:
312,36,74346,2,0,P|368:36|440:92,1,150,0|8,3:0|0:0,0:0:0:0:
416,188,75166,2,0,L|384:288,1,100,0|8,3:0|0:0,0:0:0:0:
368,332,75658,6,0,B|316:332|316:332|272:312|272:312|220:312,1,150,0|8,3:0|0:0,0:0:0:0:
140,256,76473,2,0,B|140:204|140:204|168:160,1,100,0|8,3:0|0:0,0:0:0:0:
188,120,76962,2,0,P|255:92|323:120,1,150,0|8,3:0|0:0,0:0:0:0:
396,188,77785,2,0,P|416:232|395:276,1,100,0|8,3:0|0:0,0:0:0:0:
348,292,78265,1,8,0:0:0:0:
300,308,78425,6,0,P|255:328|211:307,1,100,2|8,0:0|0:0,0:0:0:0:
164,292,78915,2,0,P|143:247|164:203,1,100,0|0,3:0|3:0,0:0:0:0:
192,164,79405,1,8,0:0:0:0:
256,88,79732,2,0,P|308:88|348:116,1,100,2|8,0:0|0:0,0:0:0:0:
384,148,80223,2,0,L|344:252,1,100,0|0,0:0|3:0,0:0:0:0:
328,288,80713,1,8,0:0:0:0:
244,344,81040,6,0,B|192:344|192:344|152:316,1,100,2|8,3:2|0:0,0:0:0:0:
140,268,81527,2,0,B|100:240|100:240|48:240,1,100,0|0,0:0|3:0,0:0:0:0:
20,200,82015,1,8,0:0:0:0:
100,136,82328,1,2,0:0:0:0:
176,80,82650,1,8,0:0:0:0:
208,120,82819,2,0,L|284:196,1,100,0|0,0:0|3:0,0:0:0:0:
316,224,83308,1,8,0:0:0:0:
396,164,83639,6,0,L|320:84,1,100,2|8,3:2|0:0,0:0:0:0:
304,48,84128,2,0,B|256:32|256:32|208:48,1,100,0|0,0:0|3:0,0:0:0:0:
185,91,84617,1,8,0:0:0:0:
124,168,84943,2,0,L|56:256,1,100,2|8,0:0|0:0,0:0:0:0:
100,280,85432,2,0,L|168:192,1,100,0|0,0:0|3:0,0:0:0:0:
200,232,85921,1,8,0:0:0:0:
292,272,86247,6,0,P|271:316|291:360,1,100,12|0,0:0|0:0,0:0:0:0:
340,364,86736,2,0,L|440:364,1,100,8|0,0:0|0:0,0:0:0:0:
472,324,87225,2,0,L|496:272,1,50,8|8,0:0|0:0,0:0:0:0:
444,192,87715,6,0,P|396:192|352:164,1,100,2|0,0:0|0:0,0:0:0:0:
228,84,88530,2,0,P|186:57|136:57,1,100,2|0,0:0|0:0,0:0:0:0:
