osu file format v14

[General]
AudioFilename: audio.mp3
AudioLeadIn: 0
PreviewTime: 41751
Countdown: 0
SampleSet: Soft
StackLeniency: 0.3
Mode: 0
LetterboxInBreaks: 0
WidescreenStoryboard: 1

[Editor]
DistanceSpacing: 1.4
BeatDivisor: 4
GridSize: 4
TimelineZoom: 1

[Metadata]
Title:Recall THE END (TV Size)
TitleUnicode:Recall THE END (TV Size)
Artist:TRUSTRICK
ArtistUnicode:TRUSTRICK
Creator:Andrea
Version:Hard
Source:ダンガンロンパ3-The End of 希望ヶ峰学園- 未来編
Tags:Anime Japanese Kibougamine Gakuen Mirai Hen danganronpa dangan ronpa ending The End of Hope's Peak Academy osuplayer111
BeatmapID:2134402
BeatmapSetID:1020042

[Difficulty]
HPDrainRate:6
CircleSize:4
OverallDifficulty:7
ApproachRate:8
SliderMultiplier:1.5
SliderTickRate:1

[Events]
//Background and Video events
0,0,"BG.jpg",0,0
Video,-2000,"Video.mp4"
//Break Periods
//Storyboard Layer 0 (Background)
//Storyboard Layer 1 (Fail)
//Storyboard Layer 2 (Pass)
//Storyboard Layer 3 (Foreground)
//Storyboard Layer 4 (Overlay)
//Storyboard Sound Samples

[TimingPoints]
161,326.530612244898,4,2,1,60,1,0
161,-133.333333333333,4,2,1,60,0,0
5385,324.324324324324,4,2,1,70,1,0
5385,-105.263157894737,4,2,1,70,0,0
7655,339.943342776204,4,2,1,70,1,0
7994,326.086956521739,4,2,1,70,1,0
10602,326.975476839237,4,2,1,50,1,0
10602,-133.333333333333,4,2,1,50,0,0
15833,326.086956521739,4,2,1,50,1,0
15833,-133.333333333333,4,2,1,50,0,0
30832,-117.647058823529,4,2,1,50,0,0
31485,325.20325203252,4,2,1,60,1,0
31485,-117.647058823529,4,2,1,60,0,0
34980,-117.647058823529,4,2,1,5,0,0
35062,-117.647058823529,4,2,1,60,0,0
36606,-117.647058823529,4,2,1,5,0,0
36688,324.324324324324,4,2,1,60,1,0
38958,333.333333333333,4,2,1,60,1,0
39291,329.67032967033,4,2,1,60,1,0
41189,-100,4,2,1,5,0,0
41269,319.148936170213,4,2,1,70,1,0
41588,326.086956521739,4,2,1,70,1,0
41751,-100,4,2,1,70,0,1
41914,326.086956521739,4,2,1,70,1,1
44848,322.58064516129,4,2,1,70,1,1
45493,326.086956521739,4,2,1,70,1,1
45819,326.086956521739,4,2,1,70,1,1
46145,334.075723830735,4,2,1,70,1,1
46479,309.278350515464,4,2,1,70,1,1
46788,326.086956521739,4,2,1,70,1,1
47114,329.67032967033,4,2,1,70,1,1
48432,326.086956521739,4,2,1,70,1,1
48758,337.078651685393,4,2,1,70,1,1
49095,320.855614973262,4,2,1,70,1,1
49736,322.58064516129,4,2,1,70,1,1
50865,312.5,4,2,1,70,1,1
51177,300,4,2,1,70,1,1
51327,322.58064516129,4,2,1,70,1,1
51972,368.098159509202,4,2,1,70,1,1
52064,-100,4,2,1,70,0,0
52156,327.868852459016,4,2,1,70,1,1
52319,327.868852459016,4,2,1,70,1,1
54614,317.460317460317,4,2,1,70,1,1
54772,326.975476839237,4,2,1,70,1,1
54935,326.975476839237,4,2,1,70,1,1
57223,339.943342776204,4,2,1,70,1,1
57562,325.20325203252,4,2,1,70,1,1
62521,-100,4,2,1,70,0,0
62602,326.086956521739,4,2,1,80,1,1
62765,326.086956521739,4,2,1,80,1,1
72955,-100,4,2,1,80,0,0
73036,327.868852459016,4,2,1,80,1,1
73199,327.868852459016,4,2,1,80,1,1
75658,326.086956521739,4,2,1,80,1,1
75821,326.086956521739,4,2,1,80,1,1
76962,324.324324324324,4,2,1,80,1,1
77124,324.324324324324,4,2,1,80,1,1
77448,337.078651685393,4,2,1,80,1,1
77785,320,4,2,1,80,1,1
78425,326.975476839237,4,2,1,80,1,1
81040,325.20325203252,4,2,1,80,1,1
82015,307.692307692308,4,2,1,80,1,1
82168,-102.040816326531,4,2,1,80,0,1
82328,307.692307692308,4,2,1,80,1,1
82328,-102.040816326531,4,2,1,80,0,1
82481,338.028169014084,4,2,1,80,1,1
82819,326.086956521739,4,2,1,80,1,1
82982,326.086956521739,4,2,1,80,1,1
83471,337.078651685393,4,2,1,80,1,1
83639,326.086956521739,4,2,1,80,1,1
86247,-100,4,2,1,60,0,0
87552,-153.846153846153,4,2,1,40,0,0
88856,-153.846153846153,4,2,1,20,0,0

[Colours]
Combo1 : 226,199,199
Combo2 : 170,170,255
Combo3 : 213,0,0
Combo4 : 255,198,170

[HitObjects]
256,36,161,6,0,L|256:100,1,56.2500021457673,4|0,0:0|0:0,0:0:0:0:
204,164,487,1,0,0:0:0:0:
204,164,650,2,0,P|256:184|308:164,1,112.500004291535,2|0,0:0|0:0,0:0:0:0:
392,136,1140,2,0,P|443:116|494:135,1,112.500004291535,2|0,0:0|0:0,0:0:0:0:
494,248,1630,2,0,P|443:267|392:248,1,112.500004291535,2|0,0:0|0:0,0:0:0:0:
304,248,2120,2,0,L|304:316,1,56.2500021457673,2|0,0:0|0:0,0:0:0:0:
208,304,2446,2,0,L|208:248,1,56.2500021457673,0|0,0:0|3:0,0:0:0:0:
120,248,2773,6,0,P|68:267|17:248,1,112.500004291535,2|0,3:2|0:0,0:0:0:0:
69,176,3263,2,0,L|69:64,1,112.500004291535,2|0,0:0|0:0,0:0:0:0:
160,60,3752,2,0,B|204:60|204:60|232:44|232:44|268:44,1,112.500004291535,2|0,0:0|0:0,0:0:0:0:
256,132,4242,2,0,B|300:132|300:132|328:116|328:116|364:116,1,112.500004291535,2|0,0:0|0:0,0:0:0:0:
456,116,4732,2,0,L|496:168,1,56.2500021457673,2|0,0:0|0:0,0:0:0:0:
468,264,5058,2,0,L|428:212,1,56.2500021457673,0|0,0:0|0:0,0:0:0:0:
348,300,5385,6,0,B|300:300|300:300|256:276|256:276|212:276,1,142.49999619484,12|0,3:2|0:0,0:0:0:0:
92,328,5871,2,0,B|140:328|140:328|184:352|184:352|228:352,1,142.49999619484,8|0,0:0|0:0,0:0:0:0:
348,300,6357,2,0,P|376:236|348:172,1,142.49999619484,8|0,0:0|0:0,0:0:0:0:
236,172,6844,2,0,P|208:108|236:44,1,142.49999619484,8|0,0:0|0:0,0:0:0:0:
352,44,7330,2,0,P|392:44|416:64,1,71.2499980974198,8|0,0:0|0:0,0:0:0:0:
384,168,7655,2,0,P|344:168|316:148,1,75,8|0,0:0|0:0,0:0:0:0:
236,44,7994,6,0,B|184:44|160:8|160:8|96:8,1,150,8|0,0:0|0:0,0:0:0:0:
68,124,8483,2,0,B|120:124|144:160|144:160|208:160,1,150,8|0,0:0|0:0,0:0:0:0:
305,160,8972,2,0,B|368:160|368:160|392:124|444:124,1,150,8|0,0:0|3:0,0:0:0:0:
392,232,9461,2,0,L|392:68,1,150,8|0,0:0|0:0,0:0:0:0:
288,20,9950,2,0,B|248:20|248:20|220:40,1,75,8|0,0:0|0:0,0:0:0:0:
112,100,10276,2,0,B|84:120|84:120|44:120,1,75,8|0,0:0|3:0,0:0:0:0:
40,212,10602,6,0,L|84:320,1,112.500004291535,2|2,0:0|0:0,0:0:0:0:
168,284,11092,1,0,0:0:0:0:
168,284,11255,2,0,L|144:232,1,56.2500021457673,0|0,0:0|0:0,0:0:0:0:
212,176,11582,1,2,0:0:0:0:
300,176,11746,2,0,P|360:176|400:140,1,112.500004291535,0|0,0:0|0:0,0:0:0:0:
352,44,12236,1,2,0:0:0:0:
352,44,12400,2,0,P|292:44|252:80,1,112.500004291535,0|0,0:0|0:0,0:0:0:0:
196,144,12890,2,0,L|160:188,1,56.2500021457673,2|0,0:0|0:0,0:0:0:0:
207,264,13217,6,0,L|171:308,1,56.2500021457673,2|0,0:0|0:0,0:0:0:0:
256,340,13544,1,2,0:0:0:0:
341,307,13708,2,0,P|401:307|437:263,1,112.500004291535,0|0,0:0|0:0,0:0:0:0:
476,192,14198,1,2,0:0:0:0:
434,113,14362,2,0,P|395:74|341:77,1,112.500004291535,0|0,0:0|0:0,0:0:0:0:
360,164,14852,1,2,0:0:0:0:
360,164,15016,2,0,L|304:272,1,112.500004291535,0|0,0:0|0:0,0:0:0:0:
203,263,15506,6,0,L|152:164,1,112.500004291535,2|2,0:0|0:0,0:0:0:0:
256,16,16159,2,0,P|248:44|256:72,1,56.2500021457673,2|0,0:0|0:0,0:0:0:0:
340,120,16485,2,0,P|348:92|340:64,1,56.2500021457673,0|0,0:0|0:0,0:0:0:0:
416,16,16811,1,2,0:0:0:0:
416,16,16974,2,0,L|476:112,1,112.500004291535,0|0,0:0|0:0,0:0:0:0:
399,215,17463,1,2,0:0:0:0:
399,215,17626,2,0,L|339:119,1,112.500004291535,0|0,0:0|0:0,0:0:0:0:
284,48,18115,1,2,0:0:0:0:
208,96,18278,1,0,0:0:0:0:
260,172,18441,6,0,L|320:268,1,112.500004291535,2|2,0:0|0:0,0:0:0:0:
368,344,18930,2,0,P|316:363|265:344,1,112.500004291535,0|0,0:0|0:0,0:0:0:0:
192,292,19419,2,0,L|144:252,1,56.2500021457673,2|0,0:0|0:0,0:0:0:0:
80,200,19746,2,0,P|60:148|79:96,1,112.500004291535,2|2,0:0|0:0,0:0:0:0:
156,148,20235,2,0,P|175:96|155:44,1,112.500004291535,0|0,0:0|0:0,0:0:0:0:
240,12,20724,2,0,L|296:12,1,56.2500021457673,2|0,0:0|0:0,0:0:0:0:
372,60,21050,6,0,B|372:100|372:100|392:128|392:128|392:176,1,112.500004291535,0|2,3:0|0:0,0:0:0:0:
392,256,21539,1,0,0:0:0:0:
392,344,21702,2,0,P|364:344|336:328,1,56.2500021457673,0|0,0:0|0:0,0:0:0:0:
256,296,22028,1,2,0:0:0:0:
173,331,22191,2,0,P|113:331|73:291,1,112.500004291535,0|0,0:0|0:0,0:0:0:0:
172,204,22680,2,0,L|152:256,1,56.2500021457673,2|0,0:0|0:0,0:0:0:0:
96,176,23006,2,0,L|144:72,1,112.500004291535,2|2,0:0|0:0,0:0:0:0:
204,8,23496,1,0,0:0:0:0:
256,80,23659,5,0,3:0:0:0:
308,8,23822,2,0,B|368:8|368:8|416:40,1,112.500004291535,0|0,3:0|0:0,0:0:0:0:
359,109,24311,2,0,B|299:109|299:109|251:77,1,112.500004291535,0|2,0:0|0:0,0:0:0:0:
164,80,24800,2,0,P|108:80|68:116,1,112.500004291535,0|0,0:0|0:0,0:0:0:0:
108,196,25289,2,0,L|136:252,1,56.2500021457673,2|0,0:0|0:0,0:0:0:0:
208,296,25615,2,0,B|240:296|256:272|256:272|272:296|304:296,1,112.500004291535,2|2,0:0|0:0,0:0:0:0:
379,246,26104,1,0,0:0:0:0:
379,246,26267,6,0,L|428:144,1,112.500004291535,2|2,0:0|0:0,0:0:0:0:
460,60,26756,1,0,0:0:0:0:
380,20,26919,2,0,B|352:20|352:20|324:36,1,56.2500021457673,0|0,0:0|0:0,0:0:0:0:
256,88,27246,1,2,0:0:0:0:
185,34,27409,2,0,P|129:34|89:74,1,112.500004291535
120,184,27898,1,2,0:0:0:0:
120,184,28061,2,0,P|176:184|216:144,1,112.500004291535,0|0,0:0|3:0,0:0:0:0:
297,146,28550,6,0,P|337:184|392:184,1,112.500004291535,2|0,0:0|3:0,0:0:0:0:
256,296,29202,1,2,0:0:0:0:
308,368,29365,2,0,P|256:387|204:368,1,112.500004291535,0|0,0:0|3:0,0:0:0:0:
256,296,29854,2,0,L|256:232,1,56.2500021457673,2|0,0:0|0:0,0:0:0:0:
204,164,30180,2,0,P|255:145|307:164,1,112.500004291535,0|2,3:0|0:0,0:0:0:0:
420,268,30832,2,0,L|436:280,8,15.9375003039837,0|0|0|0|0|0|0|0|0,3:0|0:0|3:0|0:0|3:0|0:0|3:0|0:0|3:0,0:0:0:0:
420,88,31485,6,0,P|376:44|312:44,1,127.50000243187,4|0,0:0|3:0,0:0:0:0:
256,112,31972,1,0,0:0:0:0:
198,43,32135,2,0,P|135:44|92:88,1,127.50000243187,0|0,0:0|3:0,0:0:0:0:
36,156,32623,1,0,0:0:0:0:
36,156,32785,2,0,L|120:256,1,127.50000243187,0|0,0:0|3:0,0:0:0:0:
228,248,33273,1,0,0:0:0:0:
228,248,33436,6,0,L|144:148,1,127.50000243187,2|0,0:0|3:0,0:0:0:0:
88,80,33924,1,0,0:0:0:0:
160,24,34086,2,0,B|208:24|208:24|240:44|240:44|292:44,1,127.50000243187,0|0,3:0|3:0,0:0:0:0:
364,92,34574,1,0,0:0:0:0:
446,139,34737,2,0,P|466:179|446:223,1,95.6250018239022,2|0,0:0|0:0,0:0:0:0:
432,223,35062,6,0,P|368:223|324:267,1,127.50000243187,12|0,0:0|0:0,0:0:0:0:
256,320,35550,1,0,3:0:0:0:
187,265,35712,2,0,P|142:222|80:223,1,127.50000243187,8|2,0:0|3:2,0:0:0:0:
20,144,36200,1,0,3:0:0:0:
20,144,36363,2,0,L|20:48,1,95.6250018239022,8|0,0:0|0:0,0:0:0:0:
36,48,36688,6,0,L|112:48,1,75,4|0,0:0|0:0,0:0:0:0:
196,108,37012,1,8,0:0:0:0:
196,108,37174,1,0,0:0:0:0:
284,164,37336,2,0,L|360:164,1,75,0|0,3:0|3:0,0:0:0:0:
440,232,37660,1,8,0:0:0:0:
440,232,37823,1,0,0:0:0:0:
360,300,37985,6,0,B|304:300|304:300|260:320|260:320|212:320,1,150,2|8,0:0|0:0,0:0:0:0:
100,260,38471,1,0,0:0:0:0:
100,260,38633,2,0,B|156:260|156:260|200:240|200:240|248:240,1,150,0|8,3:0|0:0,0:0:0:0:
352,240,39124,1,0,0:0:0:0:
324,132,39291,6,0,P|256:104|188:132,1,150,0|8,3:0|0:0,0:0:0:0:
256,212,39785,2,0,L|256:56,1,150,0|0,0:0|0:0,0:0:0:0:
156,24,40280,1,8,0:0:0:0:
156,24,40444,2,0,P|80:24|24:68,1,150,0|0,3:0|0:0,0:0:0:0:
84,156,40939,2,0,P|144:156|184:124,1,112.5,8|0,0:0|0:0,0:0:0:0:
183,124,41269,5,8,0:0:0:0:
256,256,41428,1,8,0:0:0:0:
432,76,41751,6,0,P|352:76|304:28,1,150,4|0,0:0|0:0,0:0:0:0:
208,29,42240,2,0,B|168:29|168:29|132:53,1,75,8|0,0:0|0:0,0:0:0:0:
140,156,42566,2,0,B|110:175|110:175|70:175,1,75,0|0,3:0|3:0,0:0:0:0:
60,280,42892,1,8,0:0:0:0:
60,280,43055,2,0,B|120:280|120:280|156:300|156:300|204:300,1,150,0|0,3:0|3:0,0:0:0:0:
308,300,43544,2,0,B|356:300|356:300|392:280|392:280|452:280,1,150,8|2,0:0|3:2,0:0:0:0:
508,192,44033,1,0,3:0:0:0:
452,104,44196,1,8,0:0:0:0:
348,104,44359,6,0,B|296:56|252:56|252:56|204:56,1,150,0|0,3:0|3:0,0:0:0:0:
132,124,44848,2,0,B|92:124|92:124|60:144,1,75,8|0,0:0|0:0,0:0:0:0:
62,241,45170,2,0,B|92:260|92:260|132:260,1,75,0|0,3:0|3:0,0:0:0:0:
204,340,45493,1,8,0:0:0:0:
308,340,45656,2,0,P|384:340|428:284,1,150,0|0,3:0|3:0,0:0:0:0:
376,176,46145,2,0,P|300:176|256:232,1,150,8|2,0:0|3:2,0:0:0:0:
188,308,46633,1,0,3:0:0:0:
112,236,46788,1,8,0:0:0:0:
36,164,46951,1,8,0:0:0:0:
36,164,47032,1,8,0:0:0:0:
36,164,47114,6,0,B|36:112|36:112|60:72|60:72|60:16,1,150,4|8,0:0|0:0,0:0:0:0:
120,128,47608,1,0,0:0:0:0:
120,128,47773,2,0,B|120:180|120:180|96:220|96:220|96:276,1,150,0|8,3:0|0:0,0:0:0:0:
152,384,48267,1,0,0:0:0:0:
152,384,48432,2,0,B|152:332|152:332|176:292|176:292|176:236,1,150,0|8,3:0|0:0,0:0:0:0:
256,172,48926,1,0,0:0:0:0:
336,240,49095,2,0,B|336:292|336:292|360:332|360:332|360:384,1,150,0|8,3:0|0:0,0:0:0:0:
416,271,49576,1,0,0:0:0:0:
416,271,49736,6,0,B|416:220|416:220|392:180|392:180|392:128,1,150,0|8,3:0|0:0,0:0:0:0:
468,76,50219,1,0,3:0:0:0:
468,76,50381,2,0,L|468:152,1,75,8|0,0:0|3:0,0:0:0:0:
392,40,50703,1,8,0:0:0:0:
392,40,50865,2,0,B|340:40|340:40|300:64|300:64|248:64,1,150,0|0,3:0|3:0,0:0:0:0:
164,124,51327,1,8,0:0:0:0:
80,188,51488,1,0,0:0:0:0:
80,188,51568,1,8,0:0:0:0:
80,188,51649,2,0,L|112:228,4,37.5,8|8|0|8|8,3:2|0:0|0:0|0:0|0:0,0:0:0:0:
164,124,52156,6,0,B|204:80|248:80|248:80|304:80,1,150,4|0,0:0|3:0,0:0:0:0:
404,80,52646,2,0,L|452:140,1,75,8|0,0:0|0:0,0:0:0:0:
436,260,52974,2,0,L|388:200,1,75,0|0,3:0|3:0,0:0:0:0:
320,280,53302,1,8,0:0:0:0:
320,280,53466,2,0,B|256:320|256:320|192:280,1,150,0|0,3:0|3:0,0:0:0:0:
256,196,53958,2,0,B|228:128|288:128|256:52,1,150,8|0,0:0|3:0,0:0:0:0:
160,12,54450,1,0,3:0:0:0:
64,52,54614,1,8,0:0:0:0:
64,156,54772,6,0,P|26:216|64:276,1,150,0|0,3:0|3:0,0:0:0:0:
160,316,55261,2,0,B|200:316|200:316|232:336,1,75,8|0,0:0|0:0,0:0:0:0:
344,272,55588,2,0,B|304:272|304:272|272:252,1,75,0|0,3:0|3:0,0:0:0:0:
184,196,55915,1,8,0:0:0:0:
184,196,56079,2,0,B|184:140|184:140|164:104|164:104|164:52,1,150,0|0,3:0|3:0,0:0:0:0:
256,100,56569,1,8,0:0:0:0:
348,52,56733,2,0,B|348:104|348:104|328:140|328:140|328:196,1,150,0|0,0:0|3:0,0:0:0:0:
256,272,57223,1,8,0:0:0:0:
184,196,57392,1,8,0:0:0:0:
184,196,57477,1,8,0:0:0:0:
184,196,57562,6,0,P|145:136|183:75,1,150,4|8,0:0|0:0,0:0:0:0:
268,136,58049,2,0,L|420:136,1,150,0|0,0:0|3:0,0:0:0:0:
508,192,58537,1,8,0:0:0:0:
418,248,58700,2,0,L|268:248,1,150,0|0,3:0|3:0,0:0:0:0:
184,308,59188,1,8,0:0:0:0:
184,308,59350,2,0,P|104:308|60:260,1,150,0|0,0:0|3:0,0:0:0:0:
168,164,59838,2,0,L|140:236,1,75,8|0,0:0|0:0,0:0:0:0:
128,92,60163,6,0,P|208:92|252:140,1,150,0|8,3:0|0:0,0:0:0:0:
300,236,60651,1,0,0:0:0:0:
300,236,60814,2,0,L|332:312,1,75,0|0,3:0|3:0,0:0:0:0:
236,352,61139,1,8,0:0:0:0:
236,352,61301,2,0,B|180:352|180:352|144:336|144:336|88:336,1,150,0|0,3:0|3:0,0:0:0:0:
36,248,61789,2,0,B|36:193|36:193|52:157|52:157|52:101,1,150,8|8,0:0|0:3,0:0:0:0:
120,24,62277,1,8,0:0:0:0:
196,96,62440,1,4,0:3:0:0:
272,24,62602,6,0,P|348:24|400:72,1,150,4|0,0:0|3:0,0:0:0:0:
464,156,63091,2,0,P|476:192|464:228,1,75,8|0,0:0|0:0,0:0:0:0:
399,313,63417,2,0,P|363:325|327:313,1,75,0|0,3:0|3:0,0:0:0:0:
256,240,63743,1,8,0:0:0:0:
184,314,63906,2,0,P|108:314|60:262,1,150,0|0,3:0|3:0,0:0:0:0:
60,121,64395,2,0,P|111:68|184:70,1,150,8|2,0:0|3:2,0:0:0:0:
256,144,64884,1,0,3:0:0:0:
329,69,65047,1,8,0:0:0:0:
404,144,65210,6,0,B|404:200|404:200|424:236|424:236|424:296,1,150,0|0,3:0|3:0,0:0:0:0:
480,176,65699,2,0,L|480:100,1,75,8|0,0:0|0:0,0:0:0:0:
348,260,66025,2,0,L|348:336,1,75,0|0,3:0|3:0,0:0:0:0:
256,284,66351,1,8,0:0:0:0:
164,335,66515,2,0,P|88:335|40:283,1,150,0|0,3:0|3:0,0:0:0:0:
92,192,67004,2,0,L|176:64,1,150,8|2,0:0|3:2,0:0:0:0:
256,136,67493,1,0,3:0:0:0:
256,136,67656,1,8,0:0:0:0:
337,66,67819,1,8,0:0:0:0:
337,66,67900,1,8,0:0:0:0:
337,66,67982,6,0,L|420:192,1,150,4|8,0:0|0:0,0:0:0:0:
338,261,68471,1,0,0:0:0:0:
338,261,68634,2,0,L|255:135,1,150,0|8,3:0|0:0,0:0:0:0:
164,192,69123,1,0,0:0:0:0:
164,192,69286,2,0,L|246:317,1,150,0|8,3:0|0:0,0:0:0:0:
338,261,69775,1,0,0:0:0:0:
338,261,69938,2,0,P|414:261|466:209,1,150,0|8,3:0|0:0,0:0:0:0:
424,116,70428,1,0,0:0:0:0:
380,20,70591,6,0,B|344:8|344:8|308:20,1,75,0|0,3:0|3:0,0:0:0:0:
292,124,70917,2,0,B|256:136|256:136|220:124,1,75,8|0,0:0|0:0,0:0:0:0:
204,20,71243,2,0,B|168:8|168:8|132:20,1,75,8|0,0:0|3:0,0:0:0:0:
44,76,71569,1,8,0:0:0:0:
44,76,71732,2,0,L|108:212,1,150,0|0,3:0|3:0,0:0:0:0:
164,300,72221,1,8,0:0:0:0:
256,352,72384,1,2,0:0:0:0:
348,300,72547,2,0,L|392:300,5,37.5,10|8|8|0|8|8,3:2|0:0|0:0|0:0|0:0|0:0,0:0:0:0:
420,260,73036,6,0,B|420:224|448:192|448:192|420:156|420:124,1,150,4|0,0:0|3:0,0:0:0:0:
380,28,73526,2,0,P|344:20|308:28,1,75,8|0,0:0|0:0,0:0:0:0:
204,28,73854,2,0,P|168:20|132:28,1,75,0|0,3:0|3:0,0:0:0:0:
168,128,74182,1,8,0:0:0:0:
168,128,74346,2,0,B|144:196|196:196|168:276,1,150,0|0,3:0|3:0,0:0:0:0:
256,164,74838,2,0,B|280:96|228:96|256:16,1,150,8|0,0:0|3:0,0:0:0:0:
344,128,75330,1,0,3:0:0:0:
424,192,75494,1,8,0:0:0:0:
344,256,75658,6,0,B|296:296|252:296|252:296|204:296,1,150,0|0,3:0|3:0,0:0:0:0:
104,264,76147,2,0,P|60:264|28:240,1,75,8|0,0:0|0:0,0:0:0:0:
34,136,76473,2,0,P|67:117|104:120,1,75,0|0,3:0|3:0,0:0:0:0:
180,192,76799,1,8,0:0:0:0:
180,192,76962,2,0,B|248:216|248:164|328:192,1,150,0|0,3:0|3:0,0:0:0:0:
408,128,77448,5,8,0:0:0:0:
492,192,77616,1,0,0:0:0:0:
408,256,77785,2,0,L|348:304,1,75,0|0,3:0|0:0,0:0:0:0:
256,348,78105,1,8,0:0:0:0:
163,302,78265,1,8,0:0:0:0:
163,302,78345,1,8,0:0:0:0:
163,302,78425,6,0,P|87:302|39:250,1,150,2|8,0:0|0:0,0:0:0:0:
39,133,78915,2,0,P|90:80|163:82,1,150,0|0,3:0|3:0,0:0:0:0:
256,132,79405,1,8,0:0:0:0:
349,81,79569,2,0,P|421:80|472:133,1,150,0|0,0:0|0:0,0:0:0:0:
472,250,80059,1,8,0:0:0:0:
472,250,80223,2,0,P|421:303|349:302,1,150,0|0,0:0|3:0,0:0:0:0:
324,200,80713,6,0,B|288:200|256:172|256:172|220:200|188:200,1,150,8|2,0:0|3:2,0:0:0:0:
104,264,81202,1,0,0:0:0:0:
28,192,81365,1,8,0:0:0:0:
104,120,81527,2,0,B|133:77|133:77|170:59|170:59|205:10,1,150,0|0,0:0|3:0,0:0:0:0:
256,104,82015,1,8,0:0:0:0:
308,12,82168,6,0,B|341:59|341:59|378:77|378:77|408:120,1,150,0|0,3:0|3:0,0:0:0:0:
424,248,82650,1,8,0:0:0:0:
424,248,82819,2,0,B|391:201|391:201|354:183|354:183|324:140,1,150,0|0,0:0|3:0,0:0:0:0:
256,220,83308,1,8,0:0:0:0:
187,140,83471,1,0,3:0:0:0:
187,140,83555,1,0,0:0:0:0:
187,140,83639,6,0,B|157:183|157:183|120:201|120:201|88:248,1,150,2|8,3:2|0:0,0:0:0:0:
80,372,84128,2,0,B|109:329|109:329|146:311|146:311|179:264,1,150,0|0,0:0|3:0,0:0:0:0:
256,336,84617,1,8,0:0:0:0:
332,264,84780,2,0,B|365:311|365:311|402:329|402:329|432:372,1,150,0|0,3:0|0:0,0:0:0:0:
412,240,85269,2,0,L|368:176,1,75,8|0,0:0|0:0,0:0:0:0:
292,108,85595,2,0,P|256:100|220:108,1,75,0|0,3:0|3:0,0:0:0:0:
142,178,85921,2,0,L|100:240,1,75,8|0,0:0|3:0,0:0:0:0:
72,284,86166,1,8,0:0:0:0:
72,284,86247,6,0,B|112:336|160:336|160:336|204:336,1,150,12|0,0:0|0:0,0:0:0:0:
308,336,86736,2,0,B|352:336|352:336|400:336|440:284,1,150,8|0,0:0|0:0,0:0:0:0:
492,192,87225,1,8,0:0:0:0:
439,100,87389,1,8,0:0:0:0:
296,100,87715,6,0,P|256:76|216:100,1,97.4999955368044,2|0,0:0|0:0,0:0:0:0:
216,284,88530,2,0,P|256:307|296:284,1,97.4999955368044,2|0,0:0|0:0,0:0:0:0:
