osu file format v14

[General]
AudioFilename: audio.mp3
AudioLeadIn: 0
PreviewTime: 42554
Countdown: 0
SampleSet: Soft
StackLeniency: 0.7
Mode: 0
LetterboxInBreaks: 0
WidescreenStoryboard: 0

[Editor]
DistanceSpacing: 1.4
BeatDivisor: 4
GridSize: 4
TimelineZoom: 1.8

[Metadata]
Title:Recall THE END (Anime ED Version)
TitleUnicode:Recall THE END (Anime ED Version)
Artist:TRUSTRICK
ArtistUnicode:TRUSTRICK
Creator:Chaoslitz
Version:Karen's Insane
Source:ダンガンロンパ3-The End of 希望ヶ峰学園- 未来編
Tags:-Kazuto gokugohan12468 KittyAdventure No_Gu Karen Kibougamine Gakuen Mirai Hen danganronpa dangan ronpa ed The End of Hope's Peak Academy
BeatmapID:1159569
BeatmapSetID:509808

[Difficulty]
HPDrainRate:5
CircleSize:4
OverallDifficulty:7
ApproachRate:9
SliderMultiplier:1.6
SliderTickRate:1

[Events]
//Background and Video events
0,0,"bg.jpg",0,0
//Break Periods
//Storyboard Layer 0 (Background)
//Storyboard Layer 1 (Fail)
//Storyboard Layer 2 (Pass)
//Storyboard Layer 3 (Foreground)
//Storyboard Sound Samples

[TimingPoints]
960,326.26427406199,4,2,1,60,1,0
960,-133.333333333333,4,2,1,60,0,0
6180,-105.263157894737,4,2,1,70,0,0
8790,327.868852459016,4,2,1,70,1,0
11414,326.086956521739,4,2,1,50,1,0
11414,-133.333333333333,4,2,1,50,0,0
32285,325.644504748982,4,2,1,60,1,0
32285,-117.647058823529,4,2,1,60,0,0
35582,-117.647058823529,4,2,1,10,0,0
35867,-117.647058823529,4,2,1,60,0,0
36518,-117.647058823529,4,2,2,60,0,0
36844,-117.647058823529,4,2,1,60,0,0
37169,-117.647058823529,4,2,2,60,0,0
37485,325.644504748982,4,2,2,70,1,0
38136,-100,4,2,1,70,0,0
38461,-100,4,2,2,70,0,0
39438,-100,4,2,1,70,0,0
39601,-100,4,2,2,70,0,0
40100,326.086956521739,4,2,1,70,1,0
40426,-100,4,2,2,70,0,0
40752,-100,4,2,1,70,0,0
41078,-100,4,2,2,70,0,0
41241,-100,4,2,1,70,0,0
41730,-100,4,2,2,70,0,0
42056,-100,4,2,1,70,0,0
42219,-100,4,2,2,70,0,0
42554,325.644504748982,4,2,1,80,1,0
42717,325.644504748982,4,2,1,80,1,0
51672,324.324324324324,4,2,1,80,1,0
51834,324.324324324324,4,2,1,80,1,0
52969,326.086956521739,4,2,1,80,1,0
53132,326.086956521739,4,2,1,80,1,0
63403,-100,4,2,1,80,0,1
73349,-100,4,2,1,80,0,0
73838,-100,4,2,1,80,0,1
79222,326.26427406199,4,2,1,80,1,1
87052,-100,4,2,1,60,0,0
88357,-153.846153846153,4,2,1,40,0,0

[Colours]
Combo1 : 225,165,112
Combo2 : 255,0,155
Combo3 : 216,149,255

[HitObjects]
106,168,960,6,0,P|164:150|217:198,1,120.000004577637,4|0,0:0|0:0,0:0:0:0:
201,264,1449,2,0,L|326:252,1,120.000004577637,2|0,0:0|0:0,0:0:0:0:
380,193,1938,2,0,L|388:133,2,60.0000022888184,2|0|0,0:0|0:0|0:0,0:0:0:0:
372,322,2428,2,0,L|442:320,2,60.0000022888184,2|0|0,0:0|0:0|0:0,0:0:0:0:
247,305,2917,2,0,L|219:247,2,60.0000022888184,2|0|0,0:0|0:0|0:0,0:0:0:0:
320,252,3406,1,0,3:0:0:0:
320,252,3570,6,0,P|303:189|339:136,1,120.000004577637,2|0,3:2|0:0,0:0:0:0:
391,89,4059,2,0,L|252:93,1,120.000004577637,2|0,0:0|0:0,0:0:0:0:
190,67,4548,2,0,P|184:31|168:4,2,60.0000022888184,2|0|0,0:0|0:0|0:0,0:0:0:0:
82,6,5038,2,0,P|64:30|57:59,2,60.0000022888184,2|0|0,0:0|0:0|0:0,0:0:0:0:
86,136,5527,2,0,P|115:141|145:136,2,60.0000022888184,2|0|0,0:0|0:0|0:0,0:0:0:0:
25,195,6017,1,0,3:0:0:0:
74,311,6180,6,0,L|170:305,1,75.9999979705811,4|0,3:2|0:0,0:0:0:0:
212,240,6506,1,0,0:0:0:0:
90,333,6669,2,0,L|186:327,1,75.9999979705811,8|0,0:0|0:0,0:0:0:0:
228,262,6995,1,0,0:0:0:0:
106,353,7159,2,0,L|202:347,1,75.9999979705811,8|0,0:0|0:0,0:0:0:0:
244,282,7485,1,0,0:0:0:0:
331,347,7648,6,0,L|336:259,1,75.9999979705811,8|0,0:0|0:0,0:0:0:0:
318,181,7974,1,0,0:0:0:0:
422,299,8137,1,8,0:0:0:0:
422,299,8300,1,0,0:0:0:0:
487,208,8464,2,0,L|401:206,1,75.9999979705811,8|0,0:3|0:0,0:0:0:0:
353,19,8790,5,8,0:0:0:0:
415,90,8953,1,0,0:0:0:0:
510,99,9117,1,0,0:0:0:0:
339,35,9281,1,8,0:0:0:0:
415,90,9444,1,0,0:0:0:0:
509,77,9608,1,0,0:0:0:0:
329,54,9773,1,8,0:0:0:0:
415,90,9936,1,0,0:0:0:0:
504,56,10100,1,0,3:0:0:0:
415,181,10265,6,0,L|328:175,1,80,8|2,0:0|0:0,0:0:0:0:
203,153,10593,1,2,0:0:0:0:
203,153,10675,1,8,0:0:0:0:
203,153,10757,1,8,0:0:0:0:
317,266,10921,1,8,0:0:0:0:
120,198,11085,2,0,P|108:149|131:101,1,80,8|0,0:0|3:0,0:0:0:0:
199,247,11414,6,0,L|199:372,1,120.000004577637,0|2,0:0|0:0,0:0:0:0:
98,290,11903,1,0,0:0:0:0:
98,290,12066,2,0,L|109:366,1,60.0000022888184,0|0,0:0|0:0,0:0:0:0:
280,322,12392,1,2,0:0:0:0:
280,322,12555,6,0,P|335:346|408:312,1,120.000004577637,0|0,0:0|0:0,0:0:0:0:
436,259,13044,1,2,0:0:0:0:
391,187,13207,2,0,L|386:109,1,60.0000022888184,0|0,0:0|0:0,0:0:0:0:
422,50,13533,1,0,0:0:0:0:
422,50,13696,2,0,P|451:44|488:55,1,60.0000022888184,2|0,0:0|0:0,0:0:0:0:
309,95,14022,6,0,P|248:113|183:79,1,120.000004577637,0|2,0:0|0:0,0:0:0:0:
102,20,14511,2,0,P|120:67|92:144,1,120.000004577637
78,212,15000,2,0,L|151:210,1,60.0000022888184,2|0,0:0|0:0,0:0:0:0:
222,235,15327,5,0,0:0:0:0:
222,235,15490,1,0,0:0:0:0:
292,188,15653,2,0,P|297:160|291:117,1,60.0000022888184,2|0,0:0|0:0,0:0:0:0:
245,60,15979,2,0,P|291:84|364:59,1,120.000004577637,0|2,0:0|0:0,0:0:0:0:
407,3,16468,1,0,0:0:0:0:
484,132,16631,6,0,P|429:118|375:158,1,120.000004577637,2|2,0:0|0:0,0:0:0:0:
352,230,17120,1,0,0:0:0:0:
411,288,17283,2,0,L|485:278,1,60.0000022888184
483,362,17609,1,2,0:0:0:0:
362,370,17772,6,0,P|303:352|225:380,1,120.000004577637
278,255,18261,2,0,P|286:217|274:175,1,60.0000022888184,2|0,0:0|0:0,0:0:0:0:
186,220,18587,2,0,L|106:218,1,60.0000022888184,0|0,0:0|0:0,0:0:0:0:
85,144,18913,1,2,0:0:0:0:
85,144,19077,1,0,0:0:0:0:
51,264,19240,6,0,P|100:264|148:318,1,120.000004577637,2|2,0:0|0:0,0:0:0:0:
186,220,19729,2,0,L|106:218,1,60.0000022888184,2|0,0:0|0:0,0:0:0:0:
69,345,20055,1,0,0:0:0:0:
147,311,20218,1,2,0:0:0:0:
223,344,20381,1,0,0:0:0:0:
316,284,20544,6,0,L|305:149,1,120.000004577637,2|2,0:0|0:0,0:0:0:0:
399,243,21033,2,0,L|410:168,1,60.0000022888184,2|0,0:0|0:0,0:0:0:0:
371,107,21359,1,0,0:0:0:0:
490,172,21522,2,0,L|481:231,1,60.0000022888184,2|0,0:0|0:0,0:0:0:0:
422,366,21848,6,0,L|497:352,1,60.0000022888184,0|0,3:0|0:0,0:0:0:0:
351,291,22174,2,0,L|426:277,1,60.0000022888184,2|0,0:0|0:0,0:0:0:0:
490,172,22500,2,0,L|481:231,1,60.0000022888184,0|0,0:0|0:0,0:0:0:0:
412,136,22827,2,0,L|403:195,1,60.0000022888184,2|0,0:0|0:0,0:0:0:0:
288,345,23153,6,0,P|308:290|281:225,1,120.000004577637,0|2,0:0|0:0,0:0:0:0:
209,205,23642,1,0,0:0:0:0:
164,300,23805,2,0,L|235:288,1,60.0000022888184,0|0,0:0|0:0,0:0:0:0:
279,147,24131,1,2,0:0:0:0:
279,147,24294,1,0,0:0:0:0:
348,237,24457,6,0,L|276:233,1,60.0000022888184,0|0,3:0|3:0,0:0:0:0:
218,89,24783,1,2,0:0:0:0:
218,89,24946,2,0,P|273:105|326:78,1,120.000004577637,2|0,0:0|0:0,0:0:0:0:
355,0,25435,1,2,0:0:0:0:
359,156,25598,1,0,0:0:0:0:
266,21,25761,5,0,0:0:0:0:
409,83,25924,1,0,0:0:0:0:
266,21,26087,2,0,L|192:25,1,60.0000022888184,2|0,0:0|0:0,0:0:0:0:
195,126,26413,1,2,0:0:0:0:
338,188,26576,1,0,0:0:0:0:
195,126,26739,2,0,L|121:130,1,60.0000022888184,2|0,0:0|0:0,0:0:0:0:
68,181,27066,6,0,P|92:138|58:57,1,120.000004577637,2|2,0:0|0:0,0:0:0:0:
8,124,27555,1,0,0:0:0:0:
43,272,27718,2,0,L|110:259,1,60.0000022888184,0|0,0:0|0:0,0:0:0:0:
215,181,28044,2,0,L|156:192,1,60.0000022888184,2|0,0:0|0:0,0:0:0:0:
180,328,28370,6,0,P|187:296|182:261,1,60.0000022888184,0|0,0:0|0:0,0:0:0:0:
80,120,28696,2,0,P|73:152|78:187,1,60.0000022888184,2|0,0:0|0:0,0:0:0:0:
184,269,29022,1,0,0:0:0:0:
246,212,29185,1,0,3:0:0:0:
246,212,29267,1,0,3:0:0:0:
246,212,29348,2,0,L|326:213,1,60.0000022888184,0|0,3:0|0:0,0:0:0:0:
460,139,29674,5,0,3:0:0:0:
453,222,29837,1,0,3:0:0:0:
460,139,30000,2,0,L|464:67,1,60.0000022888184,2|0,0:0|0:0,0:0:0:0:
381,177,30327,1,0,0:0:0:0:
374,260,30490,1,0,3:0:0:0:
381,177,30653,2,0,L|385:105,1,60.0000022888184,2|0,0:0|0:0,0:0:0:0:
291,20,30979,5,0,3:0:0:0:
291,20,31142,1,0,3:0:0:0:
236,83,31305,1,0,0:0:0:0:
236,83,31468,1,0,0:0:0:0:
271,158,31631,1,0,3:0:0:0:
274,172,31712,1,0,3:0:0:0:
274,187,31794,1,0,3:0:0:0:
271,201,31875,1,0,3:0:0:0:
265,214,31957,1,0,3:0:0:0:
265,214,32285,6,0,P|325:188|402:232,1,136.000002593994,4|0,0:0|3:0,0:0:0:0:
416,289,32773,1,0,0:0:0:0:
473,152,32936,2,0,L|467:227,1,68.0000012969971,0|0,0:0|0:0,0:0:0:0:
418,375,33261,1,0,3:0:0:0:
418,375,33424,1,0,0:0:0:0:
330,272,33587,6,0,P|337:234|324:182,1,68.0000012969971,0|0,0:0|0:0,0:0:0:0:
189,277,33913,2,0,P|213:300|243:315,1,68.0000012969971,0|0,3:0|0:0,0:0:0:0:
256,152,34238,2,0,P|223:162|195:181,1,68.0000012969971,2|0,0:0|0:0,0:0:0:0:
257,235,34564,1,0,3:0:0:0:
257,235,34727,1,0,0:0:0:0:
205,78,34890,6,0,P|256:104|332:68,1,136.000002593994,0|0,3:0|3:0,0:0:0:0:
359,150,35378,1,0,0:0:0:0:
366,10,35541,1,2,0:0:0:0:
366,10,35867,6,0,P|425:-17|486:8,1,136.000002593994,4|0,0:0|0:0,0:0:0:0:
496,89,36355,1,0,3:0:0:0:
359,150,36518,2,0,L|284:145,1,68.0000012969971,8|0,0:0|0:0,0:0:0:0:
151,116,36844,1,2,3:2:0:0:
151,116,37006,1,0,3:0:0:0:
202,247,37169,2,0,P|213:213|205:162,1,68.0000012969971,8|0,0:0|0:0,0:0:0:0:
187,34,37485,6,0,L|18:36,1,160,4|8,0:0|0:0,0:0:0:0:
151,116,37973,1,0,0:0:0:0:
106,0,38136,1,0,3:0:0:0:
106,0,38299,1,0,3:0:0:0:
115,202,38461,2,0,L|219:199,1,80,8|0,0:0|0:0,0:0:0:0:
113,291,38787,6,0,P|59:273|35:241,1,80,2|0,0:0|0:0,0:0:0:0:
151,116,39113,1,8,0:0:0:0:
151,116,39276,1,0,0:0:0:0:
202,285,39438,1,0,3:0:0:0:
275,157,39601,1,8,0:0:0:0:
108,247,39764,2,0,L|121:344,1,80,8|0,0:0|0:0,0:0:0:0:
261,355,40100,5,0,3:0:0:0:
356,343,40263,1,0,3:0:0:0:
489,378,40426,2,0,L|496:286,1,80,8|0,0:0|0:0,0:0:0:0:
382,172,40752,1,0,3:0:0:0:
409,263,40915,1,0,0:0:0:0:
510,146,41078,1,8,0:0:0:0:
325,100,41241,6,0,P|293:170|322:243,1,160,0|0,3:0|0:0,0:0:0:0:
504,57,41730,1,8,0:0:0:0:
504,57,42056,2,0,L|447:51,1,40,0|0,3:0|0:0,0:0:0:0:
316,14,42219,1,8,0:0:0:0:
316,14,42554,6,0,P|329:92|273:152,1,160,4|0,0:0|3:0,0:0:0:0:
163,79,43042,2,0,L|251:68,1,80,8|0,0:0|0:0,0:0:0:0:
261,240,43368,1,0,3:0:0:0:
261,240,43531,2,0,L|161:224,1,80,0|8,3:0|0:0,0:0:0:0:
41,134,43856,6,0,B|3:152|3:152|13:282,1,160,0|0,3:0|3:0,0:0:0:0:
101,384,44345,2,0,L|93:285,1,80,8|0,0:0|0:0,0:0:0:0:
161,133,44670,1,2,3:2:0:0:
94,304,44833,1,0,3:0:0:0:
182,227,44996,1,8,0:0:0:0:
100,74,45159,6,0,B|134:109|134:109|279:102,1,160,0|0,3:0|3:0,0:0:0:0:
424,28,45647,1,8,0:0:0:0:
336,172,45810,1,0,0:0:0:0:
308,8,45973,1,0,3:0:0:0:
439,136,46136,2,0,L|437:215,1,80,0|8,3:0|0:0,0:0:0:0:
512,342,46461,6,0,B|486:302|486:302|370:303,1,160,0|0,3:0|3:0,0:0:0:0:
225,366,46950,2,0,L|228:276,1,80,8|0,0:0|0:0,0:0:0:0:
112,167,47276,1,2,3:2:0:0:
138,333,47438,1,0,3:0:0:0:
240,194,47601,1,8,0:0:0:0:
55,245,47764,1,8,0:0:0:0:
55,245,47845,1,8,0:0:0:0:
55,245,47927,6,0,P|82:171|25:86,1,160,4|8,0:0|0:0,0:0:0:0:
111,29,48415,1,0,0:0:0:0:
244,107,48578,2,0,L|159:99,1,80,0|0,3:0|3:0,0:0:0:0:
162,212,48904,2,0,L|242:193,1,80,8|0,0:0|0:0,0:0:0:0:
364,274,49229,6,0,P|285:266|226:337,1,160,0|8,3:0|0:0,0:0:0:0:
386,373,49718,1,0,0:0:0:0:
386,373,49881,2,0,L|478:367,1,80,0|0,3:0|3:0,0:0:0:0:
506,216,50206,2,0,L|417:199,1,80,8|0,0:0|0:0,0:0:0:0:
364,274,50532,6,0,P|392:204|342:127,1,160,0|8,3:0|0:0,0:0:0:0:
273,86,51020,1,0,3:0:0:0:
420,61,51183,1,8,0:0:0:0:
300,212,51346,1,0,3:0:0:0:
465,273,51509,1,8,0:0:0:0:
282,326,51672,6,0,L|111:322,1,160,0|0,3:0|3:0,0:0:0:0:
69,244,52158,1,8,0:0:0:0:
175,158,52320,1,2,0:0:0:0:
175,158,52401,1,0,0:0:0:0:
175,158,52482,2,0,L|177:92,1,40,2|0,3:2|0:0,0:0:0:0:
267,214,52644,1,0,0:0:0:0:
267,214,52725,1,0,0:0:0:0:
267,214,52806,2,0,L|269:148,1,40,8|0,0:0|0:0,0:0:0:0:
243,51,52969,6,0,P|193:82|85:41,1,160,4|0,0:0|3:0,0:0:0:0:
58,208,53458,1,8,0:0:0:0:
13,123,53621,1,0,0:0:0:0:
156,164,53784,1,0,3:0:0:0:
156,164,53947,2,0,L|255:160,1,80,0|8,3:0|0:0,0:0:0:0:
399,75,54273,6,0,B|276:78|276:78|321:107,1,160,0|0,3:0|3:0,0:0:0:0:
328,264,54762,2,0,P|330:202|320:178,1,80,8|0,0:0|0:0,0:0:0:0:
235,289,55088,1,0,3:0:0:0:
419,224,55251,1,0,3:0:0:0:
316,360,55414,1,8,0:0:0:0:
463,306,55577,6,0,L|459:128,1,160,0|0,3:0|3:0,0:0:0:0:
359,26,56066,2,0,L|370:105,1,80,8|0,0:0|0:0,0:0:0:0:
464,247,56392,1,0,3:0:0:0:
318,179,56555,1,0,3:0:0:0:
471,53,56718,1,8,0:0:0:0:
309,39,56882,6,0,P|281:106|329:186,1,160,0|0,3:0|3:0,0:0:0:0:
371,279,57371,2,0,L|273:276,1,80,8|0,0:0|0:0,0:0:0:0:
254,120,57697,1,0,3:0:0:0:
254,120,57860,1,0,3:0:0:0:
291,276,58023,1,8,0:0:0:0:
188,194,58186,1,8,0:0:0:0:
188,194,58267,1,8,0:0:0:0:
188,194,58349,6,0,P|218:118|158:40,1,160,4|8,0:0|0:0,0:0:0:0:
15,204,58838,1,0,0:0:0:0:
61,288,59001,2,0,L|144:277,1,80,0|0,3:0|3:0,0:0:0:0:
283,182,59327,1,8,0:0:0:0:
119,127,59490,6,0,B|5:118|5:118|59:74,1,160,0|0,3:0|3:0,0:0:0:0:
182,53,59979,2,0,L|276:37,1,80,8|0,0:0|0:0,0:0:0:0:
283,182,60305,1,0,3:0:0:0:
333,101,60468,1,0,3:0:0:0:
332,273,60632,2,0,L|251:272,1,80,8|0,0:0|0:0,0:0:0:0:
142,352,60958,6,0,P|53:374|-9:317,1,160,0|8,3:0|0:0,0:0:0:0:
69,200,61447,1,0,0:0:0:0:
69,200,61610,2,0,L|80:285,1,80,0|0,3:0|3:0,0:0:0:0:
142,352,61936,1,8,0:0:0:0:
231,134,62099,6,0,L|218:296,1,160,0|0,3:0|3:0,0:0:0:0:
138,122,62588,2,0,L|136:32,1,80,8|8,0:0|0:0,0:0:0:0:
307,0,62914,1,8,0:3:0:0:
276,212,63077,1,8,0:0:0:0:
398,60,63240,1,4,0:3:0:0:
231,134,63403,6,0,B|254:196|254:196|232:289,1,160,4|0,0:0|3:0,0:0:0:0:
320,370,63892,2,0,B|312:330|312:330|327:270,1,80,8|0,0:0|0:0,0:0:0:0:
485,231,64218,1,0,3:0:0:0:
377,156,64382,1,0,3:0:0:0:
407,332,64545,1,8,0:0:0:0:
456,102,64708,6,0,L|265:112,1,160,0|0,3:0|3:0,0:0:0:0:
232,287,65197,1,8,0:0:0:0:
373,211,65360,1,0,0:0:0:0:
232,287,65523,2,0,L|237:193,1,80,2|0,3:2|3:0,0:0:0:0:
166,140,65849,1,8,0:0:0:0:
326,292,66012,6,0,L|335:111,1,160,0|0,3:0|3:0,0:0:0:0:
299,42,66501,1,8,0:0:0:0:
299,42,66664,1,0,0:0:0:0:
422,156,66827,1,0,3:0:0:0:
422,156,66990,1,0,3:0:0:0:
456,17,67153,1,8,0:0:0:0:
333,132,67316,6,0,L|150:127,1,160,0|0,3:0|3:0,0:0:0:0:
21,59,67805,2,0,P|60:51|93:30,1,80,8|0,0:0|0:0,0:0:0:0:
137,228,68132,1,2,3:2:0:0:
137,228,68295,2,0,P|95:218|52:232,1,80,0|8,3:0|0:0,0:0:0:0:
15,309,68621,1,8,0:0:0:0:
15,309,68702,1,8,0:0:0:0:
15,309,68784,6,0,L|-1:129,1,160,4|8,0:0|0:0,0:0:0:0:
92,122,69273,1,0,0:0:0:0:
184,235,69436,2,0,L|83:224,1,80,0|0,3:0|3:0,0:0:0:0:
84,378,69762,2,0,L|168:366,1,80,8|0,0:0|0:0,0:0:0:0:
261,308,70088,5,0,3:0:0:0:
261,308,70251,1,0,0:0:0:0:
419,376,70414,2,0,L|323:364,1,80,8|0,0:0|0:0,0:0:0:0:
275,192,70740,1,0,3:0:0:0:
375,277,70903,1,0,3:0:0:0:
469,162,71066,2,0,L|465:245,1,80,8|0,0:0|0:0,0:0:0:0:
276,288,71392,5,0,3:0:0:0:
371,178,71555,1,0,3:0:0:0:
240,72,71718,2,0,B|114:61|114:61|145:96,1,160,8|8,0:0|0:0,0:0:0:0:
182,217,72208,1,0,3:0:0:0:
48,124,72371,1,8,0:0:0:0:
110,278,72534,6,0,L|272:259,1,160,0|0,3:0|3:0,0:0:0:0:
427,202,73023,1,8,0:0:0:0:
336,373,73186,1,2,0:0:0:0:
480,279,73349,1,10,3:2:0:0:
480,279,73430,1,8,0:0:0:0:
480,279,73512,1,8,0:0:0:0:
431,362,73675,1,8,0:0:0:0:
431,362,73757,1,8,0:0:0:0:
431,362,73838,6,0,L|427:180,1,160,4|0,0:0|3:0,0:0:0:0:
316,53,74327,1,8,0:0:0:0:
333,187,74490,1,0,0:0:0:0:
473,104,74653,1,0,3:0:0:0:
473,104,74816,2,0,L|387:109,1,80,0|8,3:0|0:0,0:0:0:0:
251,134,75142,6,0,P|271:80|199:4,1,160,0|0,3:0|3:0,0:0:0:0:
155,168,75632,2,0,L|170:257,1,80,8|0,0:0|0:0,0:0:0:0:
111,324,75958,1,0,3:0:0:0:
111,324,76121,1,0,3:0:0:0:
256,228,76284,1,8,0:0:0:0:
181,384,76447,6,0,P|107:356|22:393,1,160,0|0,3:0|3:0,0:0:0:0:
0,227,76936,2,0,L|92:240,1,80,8|0,0:0|0:0,0:0:0:0:
141,165,77262,1,0,3:0:0:0:
141,165,77425,1,0,3:0:0:0:
111,324,77588,2,0,L|191:296,1,80,8|0,0:0|3:0,0:0:0:0:
322,290,77914,5,0,0:0:0:0:
399,346,78077,1,0,3:0:0:0:
322,290,78240,2,0,P|316:247|330:211,1,80,8|0,0:0|0:0,0:0:0:0:
387,138,78566,2,0,P|327:180|238:155,1,160,0|8,3:0|0:0,0:0:0:0:
172,18,79055,1,8,0:0:0:0:
172,18,79137,1,8,0:0:0:0:
172,18,79222,6,0,P|186:97|118:162,1,160,8|8,0:0|0:0,0:0:0:0:
213,240,79711,1,0,3:0:0:0:
213,240,79874,2,0,L|298:227,1,80,0|0,0:0|3:0,0:0:0:0:
305,88,80200,1,8,0:0:0:0:
376,276,80363,6,0,L|390:98,1,160
248,16,80853,2,0,P|321:49|399:12,1,160,8|0,0:0|3:0,0:0:0:0:
472,96,81342,1,0,3:0:0:0:
335,183,81505,2,0,L|415:169,1,80,8|0,0:0|3:0,0:0:0:0:
481,285,81832,6,0,B|364:270|364:270|317:310,1,160,2|8,3:2|0:0,0:0:0:0:
453,200,82321,1,0,0:0:0:0:
411,368,82484,2,0,L|498:380,1,80,0|0,3:0|3:0,0:0:0:0:
354,183,82810,1,8,0:0:0:0:
481,285,82974,6,0,L|490:105,1,160,0|0,3:0|3:0,0:0:0:0:
264,136,83463,1,8,0:0:0:0:
372,301,83626,1,0,0:0:0:0:
453,200,83789,1,0,0:0:0:0:
273,240,83952,1,0,3:0:0:0:
361,104,84115,2,0,L|354:194,1,80,8|0,0:0|3:0,0:0:0:0:
423,36,84442,6,0,P|370:70|272:42,1,160,2|8,3:2|0:0,0:0:0:0:
197,0,84931,1,0,0:0:0:0:
197,0,85094,2,0,L|105:14,1,80,0|0,3:0|3:0,0:0:0:0:
56,149,85421,1,8,0:0:0:0:
177,95,85584,1,0,3:0:0:0:
0,80,85747,6,0,B|31:186|31:186|6:257,1,160,0|8,0:0|0:0,0:0:0:0:
23,367,86236,1,0,0:0:0:0:
108,208,86399,1,0,3:0:0:0:
108,208,86562,1,0,3:0:0:0:
237,285,86726,2,0,L|157:292,1,80,8|0,0:0|3:0,0:0:0:0:
144,307,86970,1,8,0:0:0:0:
131,322,87052,6,0,L|293:307,1,160,12|0,0:0|0:0,0:0:0:0:
221,362,87541,1,8,0:0:0:0:
217,266,87704,1,0,0:0:0:0:
212,169,87868,1,0,0:0:0:0:
328,87,88031,1,8,0:0:0:0:
328,87,88194,1,0,3:0:0:0:
153,53,88520,6,0,P|109:71|54:60,1,103.999995239258,2|0,0:0|0:0,0:0:0:0:
54,60,89336,6,0,P|104:70|152:52,1,103.999995239258,2|0,0:0|0:0,0:0:0:0:
