osu file format v14

[General]
AudioFilename: audio.mp3
AudioLeadIn: 0
PreviewTime: 41606
Countdown: 0
SampleSet: Soft
StackLeniency: 0.4
Mode: 0
LetterboxInBreaks: 0
WidescreenStoryboard: 1

[Editor]
DistanceSpacing: 1.8
BeatDivisor: 4
GridSize: 32
TimelineZoom: 2.1

[Metadata]
Title:Recall THE END (Anime ED Version)
TitleUnicode:Recall THE END (Anime ED Version)
Artist:TRUSTRICK
ArtistUnicode:TRUSTRICK
Creator:Anxient
Version:ailv's Insane
Source:ダンガンロンパ3-The End of 希望ヶ峰学園- 未来編
Tags:Danganronpa 3 Hopes Peak Academy Kibougamine Gakuen Kibou Hen Future Side Arc ailv
BeatmapID:1099955
BeatmapSetID:511989

[Difficulty]
HPDrainRate:7
CircleSize:4
OverallDifficulty:7.5
ApproachRate:9
SliderMultiplier:1.8
SliderTickRate:1

[Events]
//Background and Video events
0,0,"59117463_p01080.jpg",0,0
//Break Periods
2,410,2056
2,3020,4830
//Storyboard Layer 0 (Background)
//Storyboard Layer 1 (Fail)
//Storyboard Layer 2 (Pass)
//Storyboard Layer 3 (Foreground)
//Storyboard Sound Samples

[TimingPoints]
210,326.26427406199,4,2,1,60,1,0
210,-142.857142857143,4,2,1,70,0,0
5430,-100,4,1,1,70,0,0
8040,327.868852459016,4,1,1,70,1,0
10664,326.086956521739,4,1,1,50,1,0
10990,-142.857142857143,4,2,1,50,0,0
19794,-142.857142857143,4,2,1,50,0,0
21098,-125,4,2,1,50,0,0
28924,-125,4,2,1,50,0,0
31207,-200,4,2,1,50,0,0
31533,-100,4,1,1,50,0,0
31535,325.644504748982,4,2,1,60,1,0
36735,325.644504748982,4,1,1,60,1,0
39350,326.086956521739,4,1,1,60,1,0
41804,325.644504748982,4,1,1,70,1,0
41967,325.644504748982,4,1,1,80,1,1
50922,324.324324324324,4,1,1,80,1,1
51084,324.324324324324,4,1,1,80,1,1
52219,326.086956521739,4,1,1,80,1,1
52382,326.086956521739,4,1,1,80,1,1
78472,326.26427406199,4,1,1,80,1,1
85649,-100,4,1,1,70,0,0
87444,-100,4,1,1,40,0,0

[Colours]
Combo1 : 128,128,192
Combo2 : 255,55,155
Combo3 : 207,145,232

[HitObjects]
256,188,210,5,4,0:1:0:0:
180,172,2656,5,2,0:0:0:0:
308,248,2820,1,2,0:0:0:0:
96,232,5430,6,0,L|95:363,1,90,8|0,0:0|0:0,0:0:0:0:
209,247,5756,1,0,0:0:0:0:
59,137,5919,1,8,0:0:0:0:
208,157,6082,6,0,L|209:288,1,90,0|0,0:0|0:0,0:0:0:0:
289,145,6409,1,8,0:0:0:0:
96,232,6572,1,0,0:0:0:0:
176,376,6735,5,0,0:0:0:0:
176,256,6898,2,0,L|200:372,1,90,8|0,0:0|0:0,0:0:0:0:
200,152,7224,5,0,0:0:0:0:
188,28,7387,2,0,L|207:115,1,90,8|0,0:0|0:0,0:0:0:0:
340,183,7714,2,0,L|360:96,1,90,8|0,0:0|0:0,0:0:0:0:
232,220,8040,6,0,L|256:328,1,90,8|0,0:0|2:0,0:0:0:0:
264,344,8285,1,0,2:0:0:0:
264,344,8367,1,2,0:0:0:0:
348,268,8531,2,0,L|367:355,1,90,8|0,0:0|2:0,0:0:0:0:
452,300,8859,1,2,0:0:0:0:
440,176,9023,6,0,L|460:264,1,90,8|0,0:0|0:0,0:0:0:0:
346,117,9351,1,0,0:0:0:0:
346,117,9433,1,0,0:0:0:0:
346,117,9515,2,0,B|324:29,1,90,8|0,0:0|0:0,0:0:0:0:
309,218,9843,5,0,0:0:0:0:
197,327,10007,1,8,0:0:0:0:
159,152,10171,5,0,0:0:0:0:
189,354,10335,1,8,0:0:0:0:
336,225,10499,1,0,0:0:0:0:
159,152,10990,6,0,L|220:165,1,62.9999980773926,0|2,0:1|0:1,0:0:0:0:
300,234,11316,1,0,0:0:0:0:
300,234,11479,2,0,L|239:247,1,62.9999980773926,0|2,0:1|0:1,0:0:0:0:
364,292,11805,2,0,P|384:224|348:152,1,125.999996154785,0|0,0:1|0:1,0:0:0:0:
367,173,12294,1,2,0:1:0:0:
289,69,12457,2,0,L|297:149,1,62.9999980773926,0|0,0:1|0:0,0:0:0:0:
189,203,12783,2,0,L|195:140,1,62.9999980773926,0|2,0:1|0:1,0:0:0:0:
195,140,13109,1,0,0:0:0:0:
77,47,13272,6,0,L|91:194,1,125.999996154785,0|2,0:1|0:1,0:0:0:0:
58,269,13761,2,0,P|94:219|155:210,1,125.999996154785,0|0,0:1|0:1,0:0:0:0:
143,353,14250,2,0,L|137:290,1,62.9999980773926,2|0,0:1|0:1,0:0:0:0:
253,256,14577,2,0,L|259:194,2,62.9999980773926,0|0|2,0:0|0:1|0:1,0:0:0:0:
381,358,15066,2,0,L|368:232,1,125.999996154785,0|0,0:1|0:0,0:0:0:0:
446,69,15555,2,0,L|439:131,1,62.9999980773926,2|0,0:1|0:0,0:0:0:0:
436,166,15799,1,0,0:0:0:0:
436,166,15881,6,0,P|377:136|308:158,1,125.999996154785,4|2,0:1|0:1,0:0:0:0:
294,294,16370,2,0,L|362:278,1,62.9999980773926,0|0,0:1|0:1,0:0:0:0:
240,226,16696,2,0,L|178:211,1,62.9999980773926,0|2,0:1|0:1,0:0:0:0:
92,247,17022,2,0,B|80:287|80:287|96:375,2,125.999996154785,0|0|0,0:1|0:1|0:1,0:0:0:0:
160,169,17837,1,0,0:1:0:0:
95,100,18000,2,0,P|43:92|15:96,2,62.9999980773926,0|2|0,0:1|0:1|0:1,0:0:0:0:
185,189,18490,6,0,P|244:206|329:182,1,125.999996154785,4|2,0:1|0:1,0:0:0:0:
436,298,18979,1,0,0:1:0:0:
383,216,19142,1,0,0:0:0:0:
315,281,19305,2,0,L|309:344,1,62.9999980773926,0|2,0:1|0:1,0:0:0:0:
309,343,19631,1,0,0:0:0:0:
383,216,19794,6,0,P|321:188|251:212,1,125.999996154785,0|2,0:0|0:1,0:0:0:0:
111,307,20283,2,0,P|173:335|243:311,1,125.999996154785
227,322,20772,1,2,0:1:0:0:
171,155,21098,6,0,P|103:142|43:179,1,144,4|2,0:1|0:1,0:0:0:0:
111,307,21587,2,0,L|120:236,1,72,0|0,0:1|0:1,0:0:0:0:
280,256,21913,2,0,L|272:185,1,72,0|2,0:1|0:1,0:0:0:0:
216,324,22240,6,0,P|280:348|352:312,1,144,0|0,0:1|0:1,0:0:0:0:
423,198,22729,1,2,0:1:0:0:
303,234,22892,1,0,0:1:0:0:
472,270,23055,1,0,0:1:0:0:
280,252,23218,6,0,L|184:240,1,72,0|2,0:1|0:1,0:0:0:0:
208,243,23544,1,0,0:1:0:0:
156,125,23707,2,0,L|252:113,1,72,2|2,0:2|0:2,0:0:0:0:
227,116,24033,1,2,0:1:0:0:
68,62,24196,6,0,P|48:137|83:204,1,144,0|0,0:1|0:1,0:0:0:0:
20,328,24685,2,0,L|92:340,1,72,2|0,0:1|0:1,0:0:0:0:
240,248,25011,2,0,L|168:260,1,72,0|0,0:1|0:0,0:0:0:0:
168,259,25337,1,2,0:1:0:0:
312,344,25500,6,0,P|340:284|436:276,1,144,0|0,0:1|0:1,0:0:0:0:
460,364,25990,2,0,L|391:343,1,72,2|0,0:1|0:0,0:0:0:0:
303,201,26316,2,0,L|371:180,1,72,2|0,0:2|0:0,0:0:0:0:
226,225,26642,5,2,0:1:0:0:
274,329,26805,1,0,0:1:0:0:
120,295,26968,2,0,L|47:281,1,72,0|0,0:1|0:1,0:0:0:0:
257,215,27294,1,2,0:1:0:0:
199,331,27457,1,0,0:1:0:0:
127,185,27620,5,0,0:0:0:0:
206,358,27783,2,0,L|277:345,1,72,0|2,0:1|0:1,0:0:0:0:
263,201,28109,5,0,0:1:0:0:
263,201,28272,2,0,L|275:114,1,72,0|0,0:1|0:1,0:0:0:0:
349,296,28598,2,0,L|361:383,1,72,2|0,0:1|0:1,0:0:0:0:
386,227,28924,6,0,B|350:207|306:219|282:255|282:255|263:200|263:200|235:280|174:293|94:299|54:230|41:172|69:108|126:82,1,576,2|2,0:2|0:2,0:0:0:0:
424,236,31207,5,2,0:2:0:0:
424,236,31535,2,0,B|328:260|246:236,1,180,4|0,0:0|0:0,0:0:0:0:
52,224,32186,2,0,L|36:316,1,90,0|0,0:0|0:0,0:0:0:0:
148,213,32511,2,0,L|132:124,1,90,0|0,0:0|0:0,0:0:0:0:
359,216,32837,5,4,0:0:0:0:
359,216,33163,2,0,P|318:273|209:267,1,180
252,104,33814,6,0,L|268:192,1,90,0|0,0:0|0:0,0:0:0:0:
408,340,34140,2,0,L|425:252,1,90,2|0,0:0|0:0,0:0:0:0:
228,132,34465,2,0,L|244:220,1,90,2|0,0:0|0:0,0:0:0:0:
435,315,34791,2,0,L|452:227,1,90,0|0,0:0|0:0,0:0:0:0:
368,96,35117,6,0,L|331:300,1,180,4|0,0:0|0:0,0:0:0:0:
212,354,35605,2,0,L|196:266,1,90,0|8,0:0|0:0,0:0:0:0:
196,266,35931,1,0,0:0:0:0:
24,96,36094,6,0,P|28:152|40:212,1,90,0|0,0:0|0:0,0:0:0:0:
184,136,36419,2,0,P|180:80|168:20,1,90,8|0,0:0|0:0,0:0:0:0:
112,244,36735,2,0,P|204:256|300:240,1,180,4|8,0:0|0:0,0:0:0:0:
289,243,37222,1,0,0:0:0:0:
460,184,37385,5,0,0:0:0:0:
460,184,37548,1,0,0:0:0:0:
376,360,37711,2,0,P|368:303|372:248,1,90,8|0,0:0|0:0,0:0:0:0:
328,36,38037,6,0,P|328:80|320:125,1,90
147,182,38362,1,8,0:0:0:0:
220,76,38525,1,0,0:0:0:0:
288,260,38688,6,0,P|289:305|281:349,1,90,0|0,0:0|0:0,0:0:0:0:
140,272,39014,2,0,P|139:227|147:183,1,90,8|0,0:0|0:0,0:0:0:0:
28,340,39350,5,4,0:0:0:0:
148,183,39513,1,0,0:0:0:0:
236,352,39676,1,8,0:0:0:0:
52,220,39839,1,0,0:3:0:0:
248,116,40002,5,8,0:0:0:0:
128,308,40165,1,0,0:0:0:0:
88,112,40328,1,8,0:0:0:0:
300,204,40491,1,4,0:0:0:0:
300,204,40817,5,0,0:0:0:0:
128,264,40980,1,8,0:0:0:0:
128,264,41306,5,8,0:0:0:0:
328,288,41469,1,8,0:0:0:0:
64,192,41804,6,0,P|32:256|80:348,1,180,4|0,0:0|0:0,0:0:0:0:
288,332,42292,1,10,0:0:0:0:
224,132,42455,1,0,0:0:0:0:
128,264,42618,2,0,P|172:271|217:268,1,90,0|0,0:0|0:0,0:0:0:0:
374,292,42943,1,10,0:0:0:0:
328,158,43106,1,2,0:0:0:0:
444,340,43269,6,0,P|456:296|440:248,1,90,0|0,0:0|0:0,0:0:0:0:
328,158,43595,2,0,P|316:202|332:250,1,90,10|0,0:0|0:0,0:0:0:0:
454,141,43920,2,0,P|466:98|454:56,1,90
290,39,44246,1,10,0:0:0:0:
56,83,44409,6,0,P|141:69|200:132,1,180,4|0,0:0|0:0,0:0:0:0:
180,304,44897,1,10,0:0:0:0:
112,160,45060,1,0,0:0:0:0:
284,184,45223,1,0,0:0:0:0:
159,340,45386,2,0,P|115:345|71:337,1,90,0|10,0:0|0:0,0:0:0:0:
12,160,45711,5,0,0:0:0:0:
128,244,45874,2,0,P|173:249|217:241,1,90,0|0,0:0|0:0,0:0:0:0:
356,336,46200,2,0,P|311:331|267:339,1,90,10|0,0:0|0:0,0:0:0:0:
328,196,46526,2,0,P|398:206|432:188,1,90
499,118,46851,1,10,0:0:0:0:
244,55,47014,5,0,0:0:0:0:
235,85,47095,1,0,0:0:0:0:
227,116,47177,2,0,P|180:164|60:128,1,180,4|10,0:0|0:0,0:0:0:0:
140,76,47665,1,0,0:0:0:0:
304,184,47828,6,0,P|387:160|454:215,1,180,0|10,0:0|0:0,0:0:0:0:
356,343,48317,1,0,0:0:0:0:
356,343,48479,2,0,L|368:251,1,90,0|0,0:0|0:0,0:0:0:0:
224,180,48805,2,0,L|235:269,1,90,10|0,0:0|0:0,0:0:0:0:
60,273,49131,6,0,B|156:233|153:309|245:264,1,180,0|10,0:0|0:0,0:0:0:0:
324,248,49619,1,0,0:0:0:0:
113,339,49782,5,4,0:0:0:0:
192,192,49945,1,0,0:0:0:0:
276,364,50108,1,10,0:0:0:0:
276,364,50270,1,0,0:0:0:0:
392,180,50433,5,10,0:0:0:0:
240,272,50596,1,0,0:0:0:0:
240,272,50759,1,10,0:0:0:0:
310,90,50922,2,0,P|370:82|370:194,1,180,6|0,0:0|0:0,0:0:0:0:
266,242,51408,1,10,0:0:0:0:
198,95,51570,5,0,0:0:0:0:
198,95,51651,1,0,0:0:0:0:
198,95,51732,2,0,L|204:140,1,45,10|0,0:0|0:0,0:0:0:0:
84,101,51894,1,10,0:0:0:0:
84,101,51975,1,0,0:0:0:0:
84,101,52057,2,0,L|90:57,1,45,2|0,0:0|0:0,0:0:0:0:
56,228,52219,6,0,P|146:236|235:231,1,180,4|0,0:0|0:0,0:0:0:0:
344,164,52707,1,10,0:0:0:0:
210,272,52870,1,0,0:0:0:0:
366,360,53033,2,0,L|369:270,1,90,0|0,0:0|0:0,0:0:0:0:
217,92,53359,5,10,0:0:0:0:
216,92,53522,2,0,P|206:181|209:271,1,180,0|0,0:0|0:0,0:0:0:0:
41,341,54011,2,0,P|85:352|130:352,1,90,10|0,0:0|0:0,0:0:0:0:
297,281,54338,2,0,P|253:270|209:271,1,90,0|0,0:0|0:0,0:0:0:0:
374,352,54664,5,10,0:0:0:0:
374,352,54827,2,0,B|390:295|390:295|379:232|379:232|398:164,1,180,4|0,0:0|0:0,0:0:0:0:
461,43,55316,1,10,0:0:0:0:
474,238,55479,1,0,0:0:0:0:
300,104,55642,1,0,0:0:0:0:
478,140,55805,1,0,0:0:0:0:
478,140,55968,1,10,0:0:0:0:
300,104,56131,6,0,B|196:80|224:132|122:105,1,180,0|0,0:0|0:0,0:0:0:0:
168,28,56620,1,10,0:0:0:0:
208,186,56783,2,0,P|164:191|120:184,1,90,0|0,0:0|0:0,0:0:0:0:
51,34,57109,2,0,P|95:26|140:32,1,90,0|10,0:0|0:0,0:0:0:0:
280,240,57435,5,0,0:0:0:0:
280,240,57517,1,0,0:0:0:0:
280,240,57598,2,0,P|190:233|100:244,1,180,4|10,0:0|0:0,0:0:0:0:
31,337,58088,1,0,0:0:0:0:
136,196,58251,1,0,0:0:0:0:
248,348,58414,2,0,P|203:354|158:354,1,90,0|10,0:0|0:0,0:0:0:0:
280,240,58740,6,0,P|361:184|434:223,1,180,0|0,0:0|0:0,0:0:0:0:
372,360,59229,2,0,L|359:251,1,90,10|0,0:0|0:0,0:0:0:0:
230,187,59555,2,0,L|217:296,1,90
79,346,59881,2,0,L|68:256,1,90,10|0,0:0|0:0,0:0:0:0:
68,256,60207,1,4,0:0:0:0:
191,74,60533,5,10,0:0:0:0:
28,149,60696,1,0,0:0:0:0:
242,191,60859,5,10,0:0:0:0:
35,128,61022,1,0,0:0:0:0:
242,47,61185,5,10,0:0:0:0:
47,145,61348,1,4,0:0:0:0:
242,47,61675,6,0,L|234:127,1,45,0|0,0:0|0:0,0:0:0:0:
261,119,61838,2,0,L|269:199,1,45,8|0,0:0|0:0,0:0:0:0:
242,191,62001,2,0,L|234:271,1,45,0|0,0:0|0:0,0:0:0:0:
259,265,62164,2,0,L|265:354,2,90,0|0|2,0:0|0:0|0:0,0:0:0:0:
419,352,62653,6,0,L|431:172,1,180,4|0,0:0|0:0,0:0:0:0:
242,191,63142,2,0,L|248:280,1,90,10|0,0:0|0:0,0:0:0:0:
327,343,63468,1,0,0:0:0:0:
340,190,63632,1,0,0:0:0:0:
157,341,63795,2,0,P|145:298|157:255,1,90,10|0,0:0|0:0,0:0:0:0:
86,102,64121,6,0,P|97:144|85:187,1,90
19,65,64447,2,0,L|154:65,1,135,10|0,0:0|0:0,0:0:0:0:
199,36,64773,1,0,0:0:0:0:
252,218,64936,1,0,0:0:0:0:
332,70,65099,1,10,0:0:0:0:
196,148,65262,6,0,B|292:120|280:168|373:146,1,180,4|0,0:0|0:0,0:0:0:0:
484,106,65752,1,10,0:0:0:0:
399,250,65915,1,0,0:0:0:0:
332,70,66078,1,0,0:0:0:0:
248,218,66241,2,0,L|252:312,1,90,0|10,0:0|0:0,0:0:0:0:
64,276,66567,6,0,P|108:264|160:276,1,90
338,305,66893,2,0,B|297:326|249:307,1,90,0|10,0:0|0:0,0:0:0:0:
311,133,67219,1,0,0:0:0:0:
311,133,67382,2,0,B|297:221,1,90,0|0,0:0|0:0,0:0:0:0:
240,37,67708,1,10,0:0:0:0:
64,104,67871,5,0,0:0:0:0:
71,132,67953,1,0,0:0:0:0:
80,160,68034,2,0,P|161:190|248:120,1,180,4|10,0:0|0:0,0:0:0:0:
152,88,68523,1,0,0:0:0:0:
450,107,68686,6,0,P|383:52|300:76,1,180,0|10,0:0|0:0,0:0:0:0:
352,235,69176,1,0,0:0:0:0:
352,235,69339,2,0,L|364:143,1,90,0|0,0:0|0:0,0:0:0:0:
201,265,69665,2,0,L|190:176,1,90,10|0,0:0|0:0,0:0:0:0:
288,304,69991,6,0,P|221:359|136:336,1,180,0|10,0:0|0:0,0:0:0:0:
33,269,70480,1,0,0:0:0:0:
200,264,70643,5,4,0:0:0:0:
36,184,70806,1,0,0:0:0:0:
120,356,70969,1,10,0:0:0:0:
120,356,71132,1,0,0:0:0:0:
232,167,71295,5,10,0:0:0:0:
72,264,71458,1,0,0:0:0:0:
72,264,71621,1,10,0:0:0:0:
128,28,71784,6,0,L|144:220,1,180,4|0,0:0|0:0,0:0:0:0:
336,124,72273,1,10,0:0:0:0:
224,72,72436,5,0,0:0:0:0:
224,72,72517,1,0,0:0:0:0:
224,72,72599,2,0,L|229:142,1,45,2|0,0:0|0:0,0:0:0:0:
364,144,72762,1,2,0:0:0:0:
364,144,72843,1,0,0:0:0:0:
364,144,72925,2,0,L|367:99,1,45,2|0,0:0|0:0,0:0:0:0:
436,248,73088,6,0,P|336:240|240:252,1,180,4|0,0:0|0:0,0:0:0:0:
168,340,73577,1,10,0:0:0:0:
280,200,73740,1,0,0:0:0:0:
109,114,73903,2,0,L|117:218,1,90,0|0,0:0|0:0,0:0:0:0:
115,203,74229,1,10,0:0:0:0:
296,380,74392,6,0,L|280:196,1,180,0|0,0:0|0:0,0:0:0:0:
440,132,74882,2,0,P|392:140|344:136,1,90,10|0,0:0|0:0,0:0:0:0:
160,88,75208,2,0,P|208:80|256:84,1,90,0|0,0:0|0:0,0:0:0:0:
280,200,75534,1,10,0:0:0:0:
104,24,75697,6,0,L|116:208,1,180,4|0,0:0|0:0,0:0:0:0:
216,368,76186,1,10,0:0:0:0:
60,276,76349,1,0,0:0:0:0:
232,236,76512,1,0,0:0:0:0:
44,300,76675,1,0,0:0:0:0:
44,300,76838,1,10,0:0:0:0:
260,256,77001,6,0,P|302:247|360:256,1,90,0|4,0:0|0:0,0:0:0:0:
497,344,77327,2,0,P|454:352|397:344,1,90,0|10,0:0|0:0,0:0:0:0:
436,170,77653,2,0,L|450:258,1,90,0|0,0:0|0:0,0:0:0:0:
359,130,77979,2,0,L|373:41,1,90,0|10,0:0|0:0,0:0:0:0:
244,40,78305,5,0,0:0:0:0:
236,73,78387,1,0,0:0:0:0:
229,106,78472,2,0,P|188:160|72:144,1,180,4|10,0:0|0:0,0:0:0:0:
3,63,78961,1,0,0:0:0:0:
140,80,79124,1,0,0:0:0:0:
25,215,79287,1,0,0:0:0:0:
140,80,79450,6,0,P|188:68|248:84,1,90,10|0,0:0|0:0,0:0:0:0:
332,232,79777,2,0,P|284:244|224:228,1,90,4|0,0:0|0:0,0:0:0:0:
180,144,80103,1,10,0:0:0:0:
348,100,80266,1,0,0:0:0:0:
184,128,80429,1,0,0:0:0:0:
364,68,80592,1,0,0:0:0:0:
200,32,80755,1,10,0:0:0:0:
384,96,80918,1,0,0:0:0:0:
224,132,81082,6,0,L|206:220,1,90,4|0,0:0|0:0,0:0:0:0:
376,280,81408,2,0,L|352:160,1,90,10|0,0:0|0:0,0:0:0:0:
472,274,81734,5,0,0:0:0:0:
272,324,81897,1,0,0:0:0:0:
328,152,82060,1,10,0:0:0:0:
432,268,82224,1,0,0:0:0:0:
432,268,82387,2,0,P|384:264|320:268,1,90,0|0,0:0|0:0,0:0:0:0:
252,356,82713,5,10,0:0:0:0:
208,200,82876,1,0,0:0:0:0:
120,300,83039,5,0,0:0:0:0:
192,172,83202,2,0,L|185:82,2,90,0|10|0,0:0|0:0|0:0,0:0:0:0:
312,40,83692,6,0,L|321:174,1,135,4|0,0:0|0:0,0:0:0:0:
279,248,84018,2,0,P|323:260|371:244,1,90,10|0,0:0|0:0,0:0:0:0:
410,153,84344,1,0,0:0:0:0:
248,148,84507,1,0,0:0:0:0:
328,8,84671,5,10,0:0:0:0:
232,184,84834,2,0,L|248:316,2,90,0|0|0,0:0|0:0|0:0,0:0:0:0:
46,98,85323,2,0,L|56:187,1,90,10|0,0:0|0:0,0:0:0:0:
25,305,85649,5,0,0:0:0:0:
151,207,85812,1,0,0:0:0:0:
46,98,85976,1,10,0:0:0:0:
158,307,86139,1,0,0:0:0:0:
158,307,86220,1,0,0:0:0:0:
158,307,86302,5,10,0:0:0:0:
208,88,86465,1,0,0:0:0:0:
320,216,86628,1,0,0:0:0:0:
92,180,86791,5,10,0:0:0:0:
296,120,86954,1,0,0:0:0:0:
240,324,87118,1,0,0:0:0:0:
120,100,87281,1,10,0:0:0:0:
120,100,87444,1,10,0:0:0:0:
256,192,87770,12,0,88586,2:0:0:0:
